<?xml version="1.0" standalone="no"?>
<!DOCTYPE svg PUBLIC "-//W3C//DTD SVG 1.1//EN" "http://www.w3.org/Graphics/SVG/1.1/DTD/svg11.dtd" >
<svg xmlns="http://www.w3.org/2000/svg" xmlns:xlink="http://www.w3.org/1999/xlink" version="1.1">
<metadata>
Created by FontForge 20170731 at Wed Apr 14 12:34:42 2021
 By Aleksey,,,
Copyright (c) 2020 by Typhoon Type - Suthi Srisopha. All rights reserved.
</metadata>
<defs>
<font id="BlueEyesPersonalUse" horiz-adv-x="915" >
  <font-face 
    font-family="Blue Eyes - Personal Use"
    font-weight="400"
    font-stretch="normal"
    units-per-em="2048"
    panose-1="0 0 0 0 0 0 0 0 0 0"
    ascent="1638"
    descent="-410"
    x-height="1059"
    cap-height="1239"
    bbox="-151.13 -221.8 7749.35 1463"
    underline-thickness="102"
    underline-position="-358"
    unicode-range="U+000D-E002"
  />
<missing-glyph horiz-adv-x="512" 
 />
    <glyph glyph-name="uniE001" unicode="tt" horiz-adv-x="1044" 
d="M1178 549q21 -18 18 -51q-12 -67 -35.5 -135t-59.5 -134t-79.5 -116.5t-99.5 -81.5t-115 -31q-42 0 -75.5 30.5t-54.5 83t-33.5 106.5t-20.5 118q-55 -144 -145.5 -241t-201.5 -97q-56 0 -96.5 55t-59 133t-28.5 156t-11 133l-1 55q-7 178 22 598q-108 -8 -141 11
q-32 19 -48 46q-23 40 37 44h3q69 5 158 2q3 39 6 59q0 3 1.5 8t6.5 17.5t12 21t20 14t29 1.5q2 0 17.5 -4t24 -6t25.5 -8t27 -11.5t23 -15t20.5 -20t11.5 -25t3 -31.5v-8q66 -4 96 -4q68 -2 205 -2q3 49 6 73q1 3 2 8t6.5 17.5t12.5 21t20 14t29 1.5q2 0 18 -4l24 -6t25 -8
t26.5 -11.5t23 -15t20.5 -20t11 -25t3 -31.5v-19q35 0 101 -4q52 0 77 -20q22 -15 -13 -26q-17 -5 -36 -5h-133q-26 -492 -28 -633q-15 -432 32 -448q16 -5 43.5 11.5t61.5 56t67 94t63.5 134.5t47.5 169q2 8 10.5 11t14.5 -3q2 0 4 -2zM225 1016q2 30 -2 47l-6 10
q-6 1 -10 -8t-6 -21l-4 -32q-12 -157 -15 -295q-2 -95 2 -236q6 -101 15 -172q6 -46 20 -104q2 -2 2.5 -1.5t-0.5 3.5q-14 71 -16 141q-4 62 -4 98q-1 16 -1 35t0.5 42t0.5 36q0 78 8 238l7.5 105t8.5 114zM608 532q-6 170 25 621q-102 -2 -301 -10q-25 -488 -27 -617
q-16 -432 33 -448q16 -5 41 9.5t56.5 49.5t63 84t61.5 121t50 152zM754 1016q2 30 -2 47l-7 10q-6 1 -10 -8t-6 -21l-4 -32q-10 -138 -14 -295q0 -168 2 -236q7 -116 14 -172q5 -37 21 -104q2 -2 2.5 -1.5t-0.5 3.5q-15 77 -17 141q-4 62 -4 98v113q4 160 8 238
q16 208 17 219z" />
    <glyph glyph-name="uniE002" unicode="Blue&#x20;Eyes" horiz-adv-x="7819" 
d="M973 1223q88 16 158.5 -12.5t112.5 -88.5t61.5 -141t13.5 -172q-9 -158 -103.5 -271.5t-232.5 -140.5q177 -67 182 -186q2 -52 -13.5 -92.5t-43 -64t-62 -38.5t-72 -18t-70.5 0t-60 12q-84 30 -129 129q-26 -142 -66 -139q-42 4 -67 162t-30 362.5t-3 379t8 235.5
q0 4 -0.5 10t1.5 22t7.5 28t18.5 23t32 13q62 10 117 -2q2 0 4.5 -1t9.5 -5.5t12.5 -12.5t10 -24.5t4.5 -38.5q0 -8 -0.5 -37.5t-1.5 -86.5t-2 -107q72 280 203 303zM676 1057q1 23 -2 37t-6 17l-4 3q-4 1 -7.5 -5t-5.5 -15.5t-3 -19t-1 -16.5v-7q-7 -494 0 -826q2 -2 2 0
q3 102 13 363q2 96 8 281.5t6 187.5zM1024 313q-8 -8 -4 -16l6 -8q31 -31 41 -68q8 -30 4 -63q-7 -31 -18 -45v-4q-2 -1 -2 -3q-2 -2 -2 -4q-1 -1 -2.5 -3t-2.5 -3q-2 -4 -8 -10l2 -2q22 22 29 33q0 1 1 3t1 3q4 4 4 6q1 2 4 7t4 7v4l2 3v2q2 2 2 8q5 15 5 18q2 10 2 37
q-1 8 -11 37q-10 28 -37 59q-6 8 -14 4zM995 205q-2 45 -31 80.5t-74.5 56t-78 31t-66.5 16.5v-18q1 -63 10 -112t18.5 -76t26.5 -47.5t25.5 -27t22.5 -14.5q11 -6 28.5 -9t39 0.5t40 15t30 38.5t9.5 66zM752 479q46 -8 85 -2.5t71 21.5t57.5 39t45 50t34 55t24.5 54t16 46
t9 32l2 12q1 8 3 21t5.5 50.5t3.5 71.5t-6 74.5t-19 68.5t-39 44.5t-63 11.5q-38 -5 -72.5 -50t-57.5 -106.5t-43 -143.5t-31 -145t-19 -128q-1 -13 -3 -38t-3 -38zM1227 866q3 74 -15 154q-5 24 -16 31l-8 4q-8 -2 -8 -25l4 -20q8 -36 10 -52q6 -27 6 -51q3 -49 0 -92
q-7 -53 -16 -84q-3 -11 -25 -67q-23 -48 -63 -99q-7 -7 -9 -8q-2 -4 -6 -8l-14 -14q-17 -17 -23 -21q0 -5 3 -2q40 30 71 68q8 8 10 12q10 9 11 14q7 6 20 29q21 35 35 70q18 46 23 79q6 26 10 82zM4770 147q54 52 117 182q28 57 34 56q8 0 9 -43q1 -20 -6.5 -53.5t-30 -80
t-56 -88t-92 -75.5t-131.5 -45q-193 -29 -298 126t-97 447q12 330 92 568q-1 0 -15.5 -2t-19.5 -2.5t-18.5 -1.5t-21 -0.5t-17.5 1.5t-17 4t-12 7q-9 8 -18 21.5t-15.5 29.5t0 28t27.5 13q133 9 332 2q245 -4 350 -16q41 0 57 -23q11 -14 -2.5 -22.5t-31.5 -8.5
q-170 -3 -377 -16q24 -54 0 -139q-36 -119 -54 -266h203h13.5t21.5 -5.5t12 -15.5q0 -6 -2 -15.5t-15.5 -25t-37.5 -16.5h-13q-12 0 -32.5 -0.5t-45.5 -1t-56 -0.5h-58q-2 -27 -12 -170q-3 -97 11 -197t44.5 -170t69.5 -70h13.5t33.5 4t49 12t55.5 25.5t57.5 42.5zM4340 518
q-3 61 0 125q0 3 4 52t8 73q11 75 20 119q1 9 25 106q8 25 8 49l-4 11q-5 4 -10.5 -3.5t-11.5 -21.5q-5 -10 -9 -22l-2 -11q-40 -155 -47 -309q-6 -147 8 -250q10 -86 33 -178q5 -21 19 -63q0 -5 4 -13q1 -2 2 -6t2 -6t2 -6t2 -7t2 -5q1 -3 2 -3t0 3q-28 109 -35 145
q-4 16 -4 25q-4 16 -4 26q-2 8 -4 26t-4 27v15q0 2 -1 7t-1 7v14q-2 4 -2 15q0 5 -1 15t-1 15v29zM3697 553q12 -6 18 -18q9 -12 6 -29q-14 -88 -42 -172t-70.5 -161t-106 -124.5t-137.5 -48.5q-86 -1 -153 26.5t-107.5 75.5t-64 98.5t-36.5 110.5q-101 -316 -319 -311
q-52 2 -91 57.5t-58 133t-31 155.5t-15 132l-2 54v70q-159 -550 -315 -602q-45 -15 -82 2.5t-59.5 54t-39.5 90t-24.5 99.5t-11.5 94q-26 -68 -60.5 -127t-77.5 -108t-97 -77t-111 -28q-56 0 -96.5 55t-59 133t-29 156t-11.5 133l-1 55q0 17 0.5 47t6 116.5t16 165t32.5 174
t52 164t79.5 114.5t110.5 45l24 -2q73 -18 89 -131q14 -99 -19 -260q-40 -180 -157 -283l-9 -156q-16 -432 31 -448q16 -5 42.5 10t58.5 51t64 86t62.5 123.5t49.5 155.5q-5 126 -4 215t4 137l4 49q0 7 4 22t13 37t29 35t48 7q60 -14 112 -55t46 -87q-31 -290 -37 -458
q-21 -328 18 -328q21 0 85.5 142t135.5 367t97 410q0 3 1.5 8t6.5 17.5t12 21t20 14t29 1.5q21 -4 33 -7t39.5 -12.5t43 -21.5t28 -33t10.5 -47q-7 -79 -10 -412q-17 -438 32 -448q69 -14 134.5 102t105.5 291v31q0 7 1 19.5t5.5 51t11.5 75.5t22 87.5t34 93.5t50.5 87.5
t69 75.5t90.5 50t115 19q6 0 16 -0.5t35 -11.5t43.5 -31.5t32 -67t9.5 -110.5q-6 -101 -58 -192t-120.5 -147t-139.5 -79q4 -152 55 -248t129 -102q50 -1 110 65.5t109.5 177t69.5 228.5q0 7 7.5 11t13.5 -1zM3408 991q-40 5 -73.5 -21t-54 -74t-36 -101.5t-23.5 -116
t-11.5 -103.5t-4.5 -77q86 35 160.5 126t85.5 199q4 47 1.5 78t-10 49t-15 27t-13.5 11zM1729 1284q-44 -19 -76 -500q70 90 90 201q47 252 -2 294q-6 5 -12 5zM1591 1049q0 14 -2 18q0 2 -1 4.5t-1 3.5l-2 2q-5 1 -9.5 -5.5t-10.5 -20.5q-4 -16 -4 -23l-2 -10
q-1 -7 -3.5 -20.5t-3.5 -20.5q-1 -6 -3 -19.5t-3 -19.5t-2 -19t-2 -20q0 -1 -1 -4t-1 -4v-10q0 -3 -1 -9.5t-1 -9.5q-8 -100 -10 -141v-33q0 -6 -1 -17t-1 -16v-61v-31v-6v-8v-12q2 -18 2 -56q0 -16 2 -24v-25q1 -8 2 -23t2 -22q2 -36 6 -80q0 -13 4 -33q0 -5 1 -14t1 -14
q4 -35 6 -43q0 -3 1 -3t1 3q-1 8 -2 28.5t-2 30.5q0 3 -1 10t-1 11v18q-2 14 -2 45q0 4 -1 12.5t-1 12.5v24q0 35 -2 51v29v27q0 39 2 57q3 124 12 240q12 118 31 219q4 24 4 31zM2085 799q2 22 -4 35l-6 8q-6 1 -10.5 -5t-6.5 -16l-4 -24v-29q-2 -10 -2 -29q0 -5 -1 -14
t-1 -14v-27q0 -3 -1 -7.5t-1 -6.5v-13v-26v-51q0 -98 6 -174q0 -6 1 -18t1 -17v-11q2 -2 2 -8q0 -10 2 -16q0 -5 1 -15t1 -14q4 -20 4 -28q1 -3 2.5 -11.5t2.5 -11.5q1 -4 2 -11.5t2 -11.5q3 -18 6 -30h2q-3 15 -6 43v8v6q-2 6 -2 14q0 5 -1 16.5t-1 16.5q-6 132 -5 156
q0 29 5 176q8 108 12 160zM2623 231q1 -1 3 0q-5 30 -5 45q-2 4 -2 13v14q-2 10 -2 33q-6 68 -6 153q0 118 2 175q0 63 4 161q2 15 -4 33l-8 8q-4 1 -8 -5.5t-6 -16.5l-2 -23q-5 -181 8 -387q3 -35 6 -69q4 -20 4 -31q1 -4 2 -13.5t2 -13.5q0 -4 1 -11.5t1 -10.5
q4 -16 4 -21q3 -21 6 -33zM3189 127q1 -3 2.5 -2.5t-0.5 2.5q-5 8 -27 47q-20 41 -29 70q0 2 -1 5t-1 5q-1 2 -2 5t-2 5q-1 3 -3 10.5t-3 10.5q-1 6 -4 22t-4 25q0 1 -6 47q-2 10 -2 27q0 4 -1 12t-1 12q0 96 20 213q16 82 56 191q11 28 8 40l-2 11q-4 3 -11 -3.5t-12 -17.5
l-12 -26q-23 -68 -39 -136q-15 -69 -21 -127q-13 -106 5 -215q6 -46 18 -84q5 -17 25 -67q5 -5 8 -14q1 -2 3 -6.5t3 -6.5q8 -16 12 -22q6 -10 23 -33zM5661 1104q11 -2 27.5 -7t46.5 -23.5t34 -41.5q7 -38 -8.5 -462t-32.5 -533q-8 -55 -19.5 -92.5t-36 -74t-60.5 -56.5
t-94 -28.5t-136 -0.5q-3 0 -7.5 0.5t-20 3.5t-28.5 8t-32 13t-32.5 19.5t-29 28.5t-21.5 38.5t-9.5 49.5t6.5 62q13 56 52 96.5t93 61.5t99.5 31t93.5 14q0 67 1 237t1 240q-30 -91 -63 -170t-75 -158t-91 -130.5t-99 -63.5q-44 -11 -80 2.5t-58 43.5t-39 69t-25 80.5
t-12.5 76t-5.5 56.5l-1 22q-9 112 -9.5 214t3.5 148l4 46q0 3 2 11.5t8.5 22.5t16.5 25.5t27.5 18.5t39.5 4q59 -10 111.5 -45.5t46.5 -73.5q-31 -242 -37 -381q-18 -275 21 -275q21 0 82.5 116t132 312t100.5 375q6 47 31.5 65.5t81.5 4.5zM5124 330q2 -2 2 0q0 9 -4 37
q-1 3 -2 10.5t-2 11.5q0 4 -1 13.5t-1 13.5q0 5 -1 15t-1 15q0 11 -2 15v16q0 23 -2 33v35q0 98 4 145q2 56 10 135q0 21 -4 29l-6 6q-13 3 -17 -16l-4 -21q-4 -66 -4 -94v-22v-23v-41q0 -83 6 -145q1 -5 2.5 -15.5t2.5 -15.5q0 -8 2 -14q0 -9 2 -13q0 -4 1 -12t1 -12
q4 -16 4 -23q4 -16 4 -20q4 -12 4 -17q4 -20 6 -26zM5546 66v67q-229 -10 -262 -129q-11 -41 -7 -69t19 -44.5t31 -25.5t29 -12l12 -3q37 -6 67 1t48.5 26t31 41.5t19 51.5t9 51t3.5 45zM5673 340q11 315 8 522q0 29 -6 53l-8 11q-12 3 -12 -33l-3 -37q6 -370 0 -602
q0 -91 -8 -197q-3 -35 -6 -69q-3 -15 -6 -27q-1 -4 -2 -11.5t-2 -10.5q9 18 16 65q1 10 4 28t5 34l4 32q11 124 16 242zM7324 545q17 -13 24 -27q3 -4 0.5 -10t-8.5 -6q-53 -5 -162.5 -26t-197.5 -52q47 -55 75 -98.5t46 -93t9 -96.5t-46 -91q-2 -3 -6 -7.5t-18.5 -17.5
t-30.5 -24t-42 -23t-54 -18.5t-66 -6.5t-78 9q-3 1 -7.5 2t-18 6.5t-26 12t-29 19t-29.5 26.5t-25 35.5t-17.5 45.5t-4.5 56.5t11 68.5q23 81 103 148q-74 63 -113 106q-12 -68 -32 -133t-51.5 -129t-69.5 -112t-90 -78t-111 -31q-84 -1 -150.5 26.5t-105 71.5t-65.5 97.5
t-37.5 107.5t-15.5 98.5t-4 72.5l1 28q0 7 1 19.5t5.5 51t11.5 75.5t22 87.5t34 93.5t50.5 87.5t69 75.5t90.5 50t115 19q6 0 16 -0.5t35 -11.5t43 -31.5t31.5 -67t9.5 -110.5q-6 -101 -57.5 -192t-120 -147t-139.5 -79q4 -152 55 -248t129 -102q50 -1 110 65t109 176
t68 228q-40 66 -51 135q-1 7 -2.5 18.5t-0.5 46t7.5 66.5t26 73.5t49.5 74t83.5 60.5t123.5 40q6 1 16.5 3t41.5 4t58.5 -1t61.5 -16.5t58 -37.5t40.5 -68t15.5 -103q-4 -54 -32 -103.5t-69 -85.5t-71 -56.5t-59 -35.5q12 -15 36 -42t27 -30q163 55 361 72q20 0 33 -10z
M6304 991q-40 5 -73.5 -21t-54 -74t-36 -101.5t-23.5 -116t-11.5 -103.5t-4.5 -77q86 35 160.5 126t85.5 199q4 47 1.5 78t-10 49t-15 27t-13.5 11zM6085 127q1 -3 2.5 -2.5t-0.5 2.5q-5 8 -27 47q-20 41 -29 70q-1 2 -2 5t-2 5q0 2 -1 5t-1 5q-1 3 -3 10.5t-3 10.5
q-4 13 -8 47q-6 21 -6 47q-2 10 -2 27q0 4 -1 12t-1 12q-3 99 20 213q18 88 55 191q12 29 9 40l-2 11q-12 6 -23 -21l-12 -26q-23 -68 -39 -136q-15 -69 -21 -127q-13 -104 2 -215q9 -46 21 -84q8 -27 24 -67q1 -2 9 -14q1 -2 3 -6.5t3 -6.5q8 -16 12 -22q6 -10 23 -33z
M6887 993q-29 1 -61.5 -14.5t-58 -46.5t-37.5 -71.5t2.5 -97.5t60.5 -118q4 -5 12.5 -16.5t12.5 -16.5q20 9 45 25t59 42t60 62.5t34 75.5q18 92 -23 134t-106 42zM6799 47q4 0 10.5 0.5t24 7t30.5 17.5t23.5 36.5t10.5 59.5q0 38 -28.5 75t-82.5 83q-67 -55 -84 -113
q-1 -3 -2.5 -9t-4 -23t-2 -33t5.5 -35t15.5 -32.5t32 -23.5t51.5 -10zM7002 244q-3 7 -22 45q-28 45 -64 84q-33 38 -80 82l-10 10l-4 4l-6 6q-3 3 -10.5 9.5t-10.5 9.5l-10 10q-1 2 -4 5t-4 5q-12 9 -21 21q-35 38 -63 83q-30 48 -41 89q-4 8 -4 14q-1 2 -2 5.5t-2 4.5
l-4 8v4l-2 2l-5 7l-2 2q-6 3 -10 -9q0 -2 -2 -4v-6v-12v-6q2 -2 2 -4q0 -9 2 -11l2 -10q5 -18 33 -71q10 -12 21 -31q5 -5 10 -15l6 -6q2 -4 6 -8q2 -2 10 -14l6 -6q1 -1 3.5 -3t3.5 -3q2 -2 6 -6.5t6 -6.5q0 -2 4 -6l6 -6l25 -25q8 -6 22 -20q2 -2 6.5 -6t6.5 -6
q2 -1 12 -11q6 -6 22 -18l21 -21q3 -3 10 -9t10 -9q3 -6 11 -10q0 -2 4 -6l4 -4q2 -2 5 -5.5t5 -5.5l8 -8q3 -3 8.5 -10t8.5 -10l3 -4q3 -4 5 -5q1 -2 3 -5t3 -5t4 -5t4 -5q1 -1 3 -4t3 -4l4 -4q0 -1 1 -3t1 -3q1 -1 3 -4.5t3 -4.5q10 -15 21 -37q8 -24 10 -36q4 -24 4 -35
q0 -13 -4 -29q-2 -2 -2 -6q0 -1 -1 -2t-1 -2v-4q-1 -1 -2 -3t-2 -3q0 -2 -2 -4q-3 -9 -23 -35q-1 -3 -0.5 -3.5t2.5 1.5q7 7 9 8q0 2 4 6q0 2 4 6q1 2 6.5 11.5t7.5 15.5q6 11 10 37q3 22 0 43q-9 32 -14 45zM127 203q-32 53 0.5 101t111 73.5t173.5 17.5q-4 -5 -10 -13
t-25 -32t-38.5 -45t-45 -47t-49 -43t-46 -28.5t-41.5 -7.5t-30 24zM182 252q12 -17 39 3t49 49l21 28q-30 -3 -79 -29t-30 -51zM76 868q18 34 50.5 44.5t71 -3t78 -44t77 -80.5t63.5 -109l-106 25q-241 67 -240 143q0 12 6 24zM162 836q-13 -24 26.5 -47t85.5 -33l45 -11
q-19 41 -79 84.5t-78 6.5zM401 545q-12 -8 -31 -19t-62.5 -27.5t-67.5 -11.5q-41 7 -53.5 40.5t14.5 56.5q60 60 200 -39zM233 537q3 -18 23 -15.5t43 14.5l23 11q-89 39 -89 -10zM7410 395q94 8 172 -17.5t110.5 -73.5t1.5 -101q-28 -49 -99 -1t-128 120zM7639 252
q18 25 -31.5 51t-79.5 29l34 -43q56 -62 77 -37zM7743 868q17 -32 -11.5 -63.5t-81.5 -54t-108.5 -40t-96.5 -26.5l-41 -8q26 59 63.5 109t77.5 80t78 44t70 3.5t50 -44.5zM7502 745l68 18q96 31 90 65q-1 4 -3 8q-18 37 -78 -7t-77 -84zM7582 487q-24 -5 -65 9.5t-70 31.5
l-29 17q141 97 203 39q26 -23 13.5 -56.5t-52.5 -40.5zM7586 537q0 14 -9 20t-22 5t-26 -4.5t-22 -7.5l-9 -3q2 -1 6.5 -3.5t16 -8t21.5 -9t20.5 -5t17 2t6.5 13.5z" />
    <glyph glyph-name=".notdef" horiz-adv-x="512" 
 />
    <glyph glyph-name="uni0000" horiz-adv-x="0" 
 />
    <glyph glyph-name="uni0000" horiz-adv-x="0" 
 />
    <glyph glyph-name="uni000D" unicode="&#xd;" horiz-adv-x="512" 
 />
    <glyph glyph-name="space" unicode=" " horiz-adv-x="532" 
 />
    <glyph glyph-name="exclam" unicode="!" horiz-adv-x="284" 
d="M133 143q26 0 45 -17t19 -42q0 -23 -19 -40t-45 -17q-25 0 -43 17t-18 40q0 25 18 42t43 17zM172 78v12q0 8 -2 12q-3 6 -8 11l-6 6q-2 3 -9 -4l-2 -6q-4 -8 -4 -15v-2q1 0 3 -1t3 -1q1 -1 2.5 -2t2.5 -2q2 -2 2 -8v-12q0 -1 -1 -4.5t-1 -4.5h2q2 0 8 6q0 1 1 2.5t1 2.5
l2 2q1 1 3 4t3 4zM203 1167q8 -32 8 -61q2 -6 2 -21v-20q0 -7 -1 -23t-1 -26q-2 -8 -2 -31q0 -5 -1 -20t-1 -23v-111q-2 -43 -2 -133q0 -94 -2 -141q-3 -159 -17 -252q-16 -109 -43 -112q-10 -4 -22 8q-23 23 -33 96q0 4 -1 13t-1 14t-1 15.5t-1 16.5q-4 54 -4 90
q-4 132 -4 228q0 165 4 239q0 5 1 14.5t1 14.5q0 19 2 27q0 21 4 49q0 17 4 45q1 7 2 20t2 19q5 28 13 57q7 25 16.5 40.5t21.5 14.5q41 0 56 -47zM166 983q1 17 -2 28t-6 13l-4 2q-7 2 -11.5 -10t-4.5 -24l-1 -13q-3 -251 0 -408q1 -23 2 -67.5t2 -63.5q2 -18 2 -49
q2 -12 2 -33q2 -4 2 0q0 65 7 273q11 326 12 352z" />
    <glyph glyph-name="quotedbl" unicode="&#x22;" horiz-adv-x="323" 
d="M76 1124q-4 4 -4 9q0 12 2 20q3 12 6 27q4 36 10 55q0 4 4 8q8 8 21 8q21 3 32 -4q14 -7 11 -22v-27q-5 -31 -8 -41q-12 -24 -23 -35q-4 -4 -8 -4q-4 -4 -8 -4q-7 -3 -17 0q-4 0 -10 4q-5 0 -8 6zM170 1096q-1 1 -2 4.5t-2 5.5q0 10 2 18q1 4 6 29q1 7 3 19t3.5 20.5
t3.5 13.5l4 8q9 9 21 9q21 3 35 -4q11 -7 8 -23v-27q0 -13 -8 -41q-11 -22 -23 -34l-8 -4q-5 -5 -8 -5q-7 -4 -15 0q-6 1 -12 5q-2 0 -8 6z" />
    <glyph glyph-name="numbersign" unicode="#" horiz-adv-x="626" 
d="M340 254v16h-35h-53q-6 -38 -19 -100q-13 -65 -28 -68q-6 -2 -10 4q-13 9 -13 52v16q0 13 2 19q0 31 2 49q0 5 1 15.5t1 16.5q-2 0 -65 7q-51 10 -51 28q-2 7 4 13q11 15 45 20q4 2 12 2q2 0 8 1t9 1q10 2 40 2q3 0 5 2q2 6 2 23q2 14 5 43.5t5 44.5q-51 4 -72 8
q-51 10 -51 27q-2 6 4 14q8 12 45 20q6 0 10 2h17q6 1 20.5 2.5t20.5 2.5h16l2 4q1 5 2 14.5t2 13.5q3 15 6 27q0 6 4 22q5 17 11 33q13 35 22 35q21 3 27 -22q0 -3 0.5 -9.5t0.5 -13t-1 -12.5v-13q-2 -2 -2 -10t-4 -28q0 -2 -1 -8t-1 -11q-2 -6 -2 -20h22h64q2 4 2 12
q5 25 6 29q1 5 2 13.5t2 12.5t3 11.5t3 11.5q2 17 8 33q13 34 25 34q18 3 24 -22q2 -10 2 -35q-2 -4 -2 -10q0 -9 -2 -13q0 -5 -1 -14t-1 -14q-1 -2 -2 -9t-2 -10q0 -3 -1 -11t-1 -13q0 -1 -1 -4t-1 -4q4 -2 10 -2q4 0 12 -1.5t11 -1.5q4 0 10.5 -1t9.5 -1q3 -1 9.5 -2
t9.5 -2q12 -2 26 -8q25 -8 25 -22q0 -25 -23 -35q-9 -6 -28 -6h-8h-11h-22q-2 0 -6.5 1t-7.5 1h-21h-4q-3 -24 -6 -51q-2 -18 -6 -58h6h12q8 -2 25 -2q3 -1 10 -2t10 -2q3 0 9 -1t8 -1q14 -2 26 -8q27 -8 27 -25q-3 -27 -23 -35q-16 -4 -28 -4q-4 -2 -11 -2h-8q-4 0 -11 1
t-11 1h-15q-3 0 -10 1t-10 1h-17q-6 -47 -16 -90q-13 -64 -29 -67q-4 -2 -10 4q-10 10 -10 51v16v19q0 11 4 51zM295 352h51q1 5 2 15.5t2 15.5q4 48 8 74q-29 0 -43 2h-43q-3 -33 -6 -64q-1 -7 -3 -21.5t-3 -21.5h35z" />
    <glyph glyph-name="dollar" unicode="$" horiz-adv-x="712" 
d="M96 446q17 34 25 48q6 10 18 26h2q15 22 31 31q2 2 14 8q42 29 58 -2q7 -11 7 -21t-5 -18t-15 -17t-20.5 -16.5t-24 -18.5t-22.5 -22v0q0 -2 -2 -2q-27 -36 -29 -108q0 -4 1 -12.5t1 -12.5q0 -8 4 -28q10 -43 19 -62q9 -18 18 -33q10 -15 27 -32q27 -22 35 -25
q17 -12 43 -18q18 -6 36 -9l-4 2q4 -2 9 -2h26q13 0 19 2q-2 8 -2 25q-5 90 -5 457q-16 18 -53 55q-44 45 -75.5 88.5t-42.5 65.5t-15 36q-19 50 -22 107q-3 117 49 197q7 16 26 39q31 31 62 47q34 14 71 20h11q7 49 14 49q14 0 23 -47h6q1 0 4 -1t4 -1h4h4h2q4 -2 12 -2
q2 0 6 -1t5 -1h4l2 -2h6q2 -2 6 -2l4 -2q1 0 3 -1t3 -1q4 0 4 -2q7 0 11 -4q2 0 10 -4q2 -2 4 -2q0 -3 4 -3q0 -2 4 -2l4 -4l4 -4q10 -5 15 -10q3 -2 5.5 -4.5t5.5 -6t5 -5.5q24 -28 31 -43q11 -25 18 -56v-10q1 -2 1.5 -6t1 -9.5t1.5 -9.5q0 -20 -2 -32q-1 -20 -4.5 -34
t-15.5 -25t-31 -7q-26 6 -33 23q-4 12 2.5 52t1.5 66q-9 30 -20 46q0 1 -1 2t-1 2l-8 8q-28 24 -49 31q-12 4 -37 4q2 -37 2 -140v-317q42 -48 51 -57q62 -66 94 -105q91 -125 78 -278q0 -11 -4 -35q-15 -66 -41 -101q-18 -29 -37 -45q-14 -14 -22 -20q-5 -3 -14.5 -8
t-14.5 -8q-39 -17 -57 -21q-30 -7 -50 -10q-6 -36 -12 -39l-3 1q-6 7 -11 38h-43q-27 3 -60 10q-20 4 -53 21q-34 17 -47 28q-37 27 -61 74q-24 46 -29 80q-8 33 -8 74q0 24 2 34q3 18 6 33q4 22 16 57zM406 119q39 22 63.5 68.5t24.5 113.5q-1 66 -21 117t-59 104
q0 -203 -8 -403zM303 1059q-6 -23 -8.5 -52.5t5 -77t28.5 -83.5q23 -40 32 -53q0 209 7 352v22q-52 -25 -64 -108zM354 672q21 -22 86 -97q54 -71 66 -92q4 -6 12 -22q2 -2 6 -10q5 -10 6 -11q14 -33 17 -43q8 -27 10 -41q1 -3 2 -9t2 -9v-10q0 -1 1 -4.5t1 -4.5
q2 -26 -2 -63q0 -2 -1 -6t-1 -6q0 -9 -2 -13v-6l-2 -4q0 -8 -2 -10q0 -3 1 -3t1 3q10 35 12 61q0 1 1 4.5t1 4.5v10v22q0 29 -2 45q-9 51 -32 101q-15 36 -60 100q-51 67 -76 96q-35 40 -41 47q-17 19 -36 50q-41 59 -56 102q-21 49 -24 100q0 6 -1 17t-1 14t-1 8.5t-1 7.5
q-1 2 -2 3.5l-2 3t-1 2.5l-2 2q-6 3 -10 -6q-6 -9 -6 -25q-2 -8 -2 -23v-8v-4q6 -45 18 -82q8 -20 35 -73q15 -29 43 -64l4 -8l6 -6q6 -6 7 -8l2 -3l4 -4l12 -12q8 -12 10 -14z" />
    <glyph glyph-name="percent" unicode="%" horiz-adv-x="583" 
d="M492 1079q27 -9 18 -69q-5 -21 -23 -74q-5 -18 -8 -25q-2 -8 -10 -24q-5 -15 -23 -60q-2 -5 -7.5 -17.5t-8.5 -18.5q-6 -16 -18 -52q-45 -111 -54 -135q-12 -38 -34 -90q-27 -78 -60 -156q-53 -133 -96 -219q-61 -132 -84 -129q-8 -1 -10 15q-8 27 18 120q2 6 5 17t5 16
q9 27 15 41q4 12 37 109q16 45 38.5 105t36.5 97q13 35 33 91.5t41 107.5q1 3 6.5 14.5t7.5 18.5q2 5 6.5 15.5t6.5 15.5q6 12 15.5 34.5t10.5 24.5q6 15 25 53q3 9 10.5 25t9.5 20q17 35 35 68q15 28 30.5 46t25.5 15zM401 797q5 13 5 22t-2 12l-3 3q-6 4 -13 -4t-11 -18
l-4 -9q-123 -317 -178 -496h2q19 50 88 213q23 52 116 277zM201 745q-31 0 -51 28.5t-17 66.5q1 39 26 67.5t56 28.5q32 0 52.5 -28t17.5 -66q-3 -40 -27.5 -68.5t-56.5 -28.5zM174 842q-1 -19 7 -31t22 -12q15 0 27.5 12.5t13.5 30.5q2 18 -7 30.5t-24 12.5q-14 0 -26 -13
t-13 -30zM397 393q31 2 52 -26t18 -68q-3 -38 -28 -66t-56 -28q-32 0 -52.5 27t-17.5 67t27.5 67t56.5 27zM424 299q3 18 -6 30.5t-23 12.5q-15 0 -26.5 -12t-14.5 -31q-2 -18 7 -30.5t24 -12.5q14 0 26 13t13 30z" />
    <glyph glyph-name="ampersand" unicode="&#x26;" horiz-adv-x="704" 
d="M72 260q-2 53 27 98t104 97q-28 48 -35 90q-15 72 14.5 129t89.5 74q49 13 84 -5t50 -47q8 -10 11.5 -32t-3.5 -66q-1 -1 -2 -4t-2 -4q-16 -46 -62 -92q-21 -21 -29 -27l-4 -4q-1 0 -2 -1t-2 -1v-2l-10 -6v0q-2 -2 -6 -5.5t-6 -5.5q36 -42 92 -81l10 -5q-6 29 -26 74
q-4 6 -0.5 15t22.5 8q22 -2 40 -9.5t25 -14.5l7 -7q47 -47 47 -107q53 -7 110 3q10 0 15 -5q3 -3 0 -12q-21 -36 -53 -55l-9 -4q-32 -2 -75 8q-1 -1 -2.5 -3t-2.5 -3q-1 -10 -5 -24t-17 -37t-33 -40.5t-57.5 -31t-85.5 -13.5q-61 -1 -106 15.5t-65.5 39.5t-32.5 46.5
t-13 40.5zM403 195l3 -2q9 6 24 24q6 9 12 21q1 3 4.5 12t4.5 14q8 24 8 55q2 24 -2 54q-3 10 -8 10h-9q-8 0 -12 -8v-8q2 -14 8 -64q0 -32 -6 -53q-2 -15 -12 -35q-3 -8 -15 -20zM244 672q-21 -28 -19 -70q4 -58 31 -108q61 49 92 100q19 38 17 61q0 22 -19 41
q-2 2 -5.5 4.5t-15.5 7t-26 3.5q-33 -6 -55 -39zM172 311l-2 -30q0 -52 23 -75.5t53 -27.5q32 -7 73 6q29 11 54 41q3 4 6.5 9.5t5 9t2.5 4.5v2v0q7 18 10 35q-100 41 -159 118q-4 -3 -9 -7t-8.5 -6.5t-5.5 -4.5t-6 -7t-6 -7q-28 -39 -31 -60z" />
    <glyph glyph-name="quotesingle" unicode="'" horiz-adv-x="229" 
d="M76 1118q-4 4 -4 10q0 11 2 19q4 14 6 29q4 34 10 53q0 4 4 8q8 8 21 8q21 3 32 -4q14 -7 11 -22v-27q-5 -31 -8 -41q-12 -24 -23 -35q-4 -4 -8 -4q-4 -4 -8 -4q-7 -3 -17 0q-4 0 -10 4q-5 0 -8 6z" />
    <glyph glyph-name="parenleft" unicode="(" horiz-adv-x="587" 
d="M207 203q-31 53 1.5 101t111 73.5t172.5 17.5q-4 -5 -10 -13t-25 -32t-38.5 -45t-45 -47t-49 -43t-46 -28.5t-41.5 -7.5t-30 24zM262 252q13 -17 40 3t48 49l21 28q-28 -3 -78 -29t-31 -51zM156 868q18 34 50.5 44.5t71 -3t78.5 -44t77.5 -80.5t64.5 -109l-106 25
q-241 67 -242 143q0 12 6 24zM242 836q-12 -24 27 -47t85 -33l45 -11q-10 23 -42.5 55t-65 46.5t-49.5 -10.5zM319 487q-40 7 -52 40.5t14 56.5q59 59 202 -39q-12 -8 -31.5 -19t-64 -27.5t-68.5 -11.5zM403 547q-90 39 -90 -10q3 -18 23 -15.5t44 14.5z" />
    <glyph glyph-name="parenright" unicode=")" horiz-adv-x="614" 
d="M131 395q95 8 173.5 -17.5t111 -73.5t0.5 -101q-28 -49 -99 -1t-129 120zM360 252q19 25 -29.5 51t-78.5 29q1 -2 3.5 -5t9.5 -12.5t14 -18t16.5 -19t18.5 -17.5t17.5 -12t16 -4t12.5 8zM467 868q17 -32 -11.5 -63.5t-82 -54t-109 -40t-96.5 -26.5l-41 -8q26 59 63.5 109
t77 80.5t78 44t71 3t50.5 -44.5zM223 745l70 18q99 32 90 67q0 3 -2 6q-18 37 -78.5 -6.5t-79.5 -84.5zM303 487q-24 -5 -64.5 9.5t-68.5 31.5l-29 17q141 99 201 39q27 -23 14.5 -56.5t-53.5 -40.5zM309 537q0 14 -9 20t-22 5t-26 -4.5t-22 -7.5l-9 -3q2 -1 6.5 -3.5t16 -8
t21.5 -9t20.5 -5t17 2t6.5 13.5z" />
    <glyph glyph-name="asterisk" unicode="*" horiz-adv-x="309" 
d="M233 1221q3 -5 5 -9q0 -12 -7 -24q-2 -2 -10 -6q-4 -4 -8 -6q7 -7 10 -13q9 -15 2 -28q-4 -5 -8 -9q-10 -6 -24 -4q-3 0 -11 4q-1 -1 -2 -3t-2 -3q-7 -18 -22 -18h-11q-13 4 -18 16q0 1 -1 4.5t-1 5.5q0 1 -1 5t-1 6v-2q-6 0 -8 -2h-6q-5 -2 -11 0q-11 0 -16 10
q-13 19 -10 29q3 12 20 18q0 2 4 2l-4 4q-1 1 -2 3t-2 3q-2 2 -4 8q-6 11 2 21q10 17 23 20q14 0 20 -6q1 1 2 4.5t2 5.5q9 9 19 11q21 3 30 -6q11 -7 11 -25v-6q4 2 14 2q19 0 26 -12z" />
    <glyph glyph-name="plus" unicode="+" horiz-adv-x="382" 
d="M162 389q-12 12 -12 35v18v19h-7q-10 2 -24 2q-4 2 -10 2q-1 0 -4.5 1t-4.5 1q-6 0 -12 4q-13 7 -16 21q-3 20 8 34q14 14 37 11h18h19q0 8 4 24q0 7 6 25q10 26 26 26q7 0 13 -2q14 -3 22 -20q0 -2 1 -7t1 -8q2 -6 2 -20q2 -6 2 -20q4 -1 13.5 -2.5t13.5 -2.5
q15 -3 27 -6q23 -10 26 -26q0 -7 -2 -13q-4 -12 -22 -20q-2 -1 -7 -2t-8 -2q-12 0 -20 -2h-23v-8q-1 -4 -2 -12t-2 -11v-10q-2 -4 -2 -8q-2 -7 -4 -13q-7 -13 -22 -16q-27 0 -35 8z" />
    <glyph glyph-name="comma" unicode="," horiz-adv-x="237" 
d="M76 -29q-4 8 -4 13q0 14 2 24q1 6 3.5 20t2.5 17q10 66 12 72q0 4 4 10q10 10 23 10q25 3 37 -6q10 -7 10 -27t-2 -36q0 -30 -8 -54q-10 -27 -25 -45q-1 -1 -4 -3t-4 -3q-4 -4 -8 -4q-13 -4 -19 -2t-10 6q-4 2 -10 8z" />
    <glyph glyph-name="hyphen" unicode="-" horiz-adv-x="382" 
d="M285 524q23 -10 26 -26q0 -7 -2 -13q-4 -12 -22 -20q-2 -1 -7 -2t-8 -2q-12 0 -20 -2h-27h-26q-11 0 -30 1t-26 1q-10 2 -24 2q-4 2 -10 2q-1 0 -4.5 1t-4.5 1q-6 0 -12 4q-13 7 -16 21q-3 20 8 34q14 14 37 11h18h27h31q6 0 17 -1t17 -1q5 -1 15.5 -2.5t15.5 -2.5
q15 -3 27 -6z" />
    <glyph glyph-name="period" unicode="." horiz-adv-x="264" 
d="M131 39q-25 0 -42 17t-17 40q0 25 17 41.5t42 16.5t43.5 -17t18.5 -41q0 -23 -18.5 -40t-43.5 -17z" />
    <glyph glyph-name="slash" unicode="/" horiz-adv-x="555" 
d="M268 422q-64 -208 -102 -299q-52 -130 -76 -127q-8 -2 -14 12q-12 31 6 123q4 23 8 33q0 3 10 41q1 3 27 106q6 20 76 275q56 190 90 288q2 5 5 16.5t5 16.5q8 19 10 31q2 6 10 27.5t13 31.5l18 54q2 5 19 45q12 32 28 65q37 67 54 62q31 -9 28 -68q-1 -8 -14 -76
q-6 -18 -8 -22q-3 -12 -6 -27q-9 -25 -19 -57q-5 -12 -12 -37q-3 -9 -8.5 -26.5t-7.5 -24.5q-4 -13 -12 -38.5t-15.5 -49t-13.5 -45.5q-8 -28 -25 -83t-23 -77q-9 -31 -26.5 -89t-24.5 -81zM168 264h2q1 3 6 23q1 3 4 12.5t4 15.5q2 4 5.5 15.5t5.5 15.5q2 6 6 18.5t6 18.5
t55 174q36 112 123 375q3 12 4.5 21.5t1 15t-2 9t-2.5 4.5l-1 1q-6 4 -13.5 -8t-11.5 -25l-4 -14q-72 -232 -129 -438q-24 -86 -39 -144q-2 -10 -6 -26q-4 -18 -6 -25q-1 -2 -8 -39z" />
    <glyph glyph-name="zero" unicode="0" horiz-adv-x="718" 
d="M248 10q-50 26 -86.5 78.5t-52.5 109t-25 109t-10 85.5v34q-3 86 0 182q3 100 12 193q10 86 12 94q11 59 26.5 108t29.5 76.5t26.5 47t19.5 25.5l7 7q69 59 166 47q7 0 18 -2t43 -16.5t60 -37t60.5 -71t53.5 -112.5q3 -8 7.5 -23.5t14.5 -68t14.5 -110t2.5 -146.5
t-16 -181q-1 -9 -3.5 -24.5t-12 -59t-21.5 -83.5t-32 -88.5t-44 -82.5q-2 -4 -7 -10t-21.5 -21.5t-35 -28.5t-49 -25t-63.5 -15q-27 -1 -94 10zM481 182q-1 -3 -0.5 -3.5t2.5 1.5q29 65 47 127l7 21q1 2 2 6t2 6q0 1 1 4.5t1 5.5q5 20 6 23l6 24q2 8 5 26t5 26q1 4 2 13
t2 13q0 2 1 6t1 6q0 3 1 8t1 7q0 8 2 14v6v6q1 5 2.5 14.5t2.5 14.5q0 19 2 29v14v14q3 56 0 113q-10 118 -33 207q-11 31 -21 41l-6 4h-4q-8 0 -4 -31l8 -28q14 -56 17 -70q2 -13 12 -70q0 -12 4 -32v-17q2 -6 2 -16q0 -6 1 -17t1 -16t1 -15.5t1 -15.5v-30v-31
q0 -19 -2 -29v-26q-10 -91 -12 -103q-14 -83 -35 -156q-1 -3 -2 -8t-2 -8q-1 -2 -2 -7t-2 -7q-4 -7 -8 -25q-9 -24 -15 -39zM162 639q0 -27 -1 -81.5t-1 -80.5q4 -103 10 -151q0 -4 1 -12t4.5 -30.5t7.5 -44t12 -48.5t17 -48t22.5 -38.5t29.5 -24.5q36 -21 75 17.5t60 86.5
l21 49q12 33 22.5 75.5t15.5 68.5l5 26q11 73 14 185q0 16 1 49t1 51q3 48 0 96q-4 62 -8 93q-2 27 -10 65q-4 16 -11 37t-12 34l-6 13q-19 42 -39.5 70.5t-36 39.5t-31 14t-23.5 1t-15 -6q-5 -4 -12.5 -12t-27 -45.5t-35.5 -88.5t-31 -146.5t-19 -213.5z" />
    <glyph glyph-name="one" unicode="1" horiz-adv-x="389" 
d="M229 8q-30 0 -47.5 14.5t-25.5 44.5t-10 76.5t1 110.5q1 24 3.5 144t5 221.5t9 230t15.5 209.5q-24 -27 -45 -41q-21 -16 -41 0q-21 18 -23 31.5t15 31.5q80 88 129 121q7 5 17.5 9.5t34 -18.5t34.5 -87q18 -99 17 -446.5t-23 -509.5q-1 -6 -2 -15.5t-6 -34t-12 -43
t-19 -34t-27 -15.5zM221 432q-2 -123 -2 -250q1 -2 2 -2q1 9 3.5 53t4.5 76q1 24 4.5 89.5t4.5 103.5q10 222 16 413q1 20 -2 33t-6 16l-4 3q-7 1 -11.5 -13t-4.5 -28l-1 -15q-4 -195 -4 -479z" />
    <glyph glyph-name="two" unicode="2" horiz-adv-x="641" 
d="M133 6q-17 3 -22 6q-53 26 -35 113q1 5 14 31q30 37 68.5 95t61.5 97l24 39q50 94 133 275q62 131 82 249q8 36 8 70q0 36 -10 64t-24 42.5t-28 23.5t-24 11l-10 2q-24 3 -45.5 -3t-35 -16t-23.5 -20.5t-15 -18.5l-4 -7q-27 -62 -43 -82q-7 -10 -17 -10q-13 3 -22 12
q-7 10 -10 29q0 31 6 51q2 8 6.5 21t26 44.5t51.5 53.5q39 26 100 32q2 -2 14.5 0.5t36.5 -3.5t48 -16t50 -36t42 -63q25 -51 30 -129q4 -77 -6 -150q-2 -19 -7 -51t-29.5 -122.5t-59.5 -168.5q-40 -87 -64 -131q-84 -156 -172 -252q114 13 220 -12q45 -10 45 -29
q1 -3 0.5 -7.5t-10.5 -14t-31 -13.5q-5 -2 -62 -6q-60 -7 -124.5 -7t-98.5 3zM195 162q0 -2 2 0q38 48 73 96q6 10 22 33.5t25 38.5q6 11 21.5 38.5t23.5 43.5q48 86 87 184q26 67 34 92q4 16 14 45.5t13 40.5q5 27 2 41l-4 8q-9 4 -21 -20l-8 -27q-28 -107 -78 -233
q-6 -16 -20.5 -49t-20.5 -50q-7 -15 -21 -42.5t-20 -39.5q-16 -30 -43 -75.5t-30 -50.5q-1 -2 -4 -5.5t-4 -5.5q0 -1 -5 -6q0 -1 -1 -3t-1 -3q-2 -2 -14 -20q-10 -15 -22 -31z" />
    <glyph glyph-name="three" unicode="3" horiz-adv-x="677" 
d="M600 330q-1 -9 -3.5 -25.5t-15 -60.5t-30.5 -81.5t-52.5 -78t-78.5 -61.5q-58 -30 -135 -23q-96 7 -144 61q-19 22 -34 55t-20 55l-5 22q-15 60 -8 108q3 48 22 51q7 2 15 -2q16 -8 26 -39q8 -21 17 -57q1 -7 3.5 -19.5t12 -43.5t21.5 -55t32 -44.5t43 -21.5q30 -2 62 31
t47.5 63t19.5 43q38 86 55 170.5t15 126.5l-2 41q-7 82 -66 119q-42 -15 -63 -17q-49 -6 -80 9t-33 40q-2 14 8 20t21 6l10 -1q36 -5 65.5 6t48.5 33.5t30 43.5t18 44q7 24 14 63q6 40 6 70q2 86 -36 119q-14 17 -36.5 22.5t-38.5 2.5l-16 -3q-35 -7 -64.5 -37.5
t-41.5 -56.5l-12 -27q-6 -12 -15 -24q-10 -10 -16 -10q-14 3 -23 12q-7 10 -10 29q0 31 6 51q2 9 7.5 23t27 46t49.5 50q44 26 99 32q41 0 61 -6q4 -1 10.5 -2.5t24.5 -9t33.5 -18.5t33.5 -33t29 -49q26 -68 31 -129q3 -38 0 -91q-9 -81 -43 -133q5 -5 12.5 -14t27 -41.5
t33.5 -69.5t24 -98t7 -127q0 -29 -6 -59zM477 182q4 4 4 6q1 1 1.5 2.5l1 3t1.5 3.5t9 14q4 8 6 14q4 4 4 8q1 1 1.5 2.5l1 3t1.5 3.5q2 4 6 16q2 5 6 16.5t6 16.5q14 45 19 74q6 41 6 77q0 49 -4 74q-3 37 -12 66q-4 17 -15 28l-8 2q-8 -2 -8 -22q1 -2 2 -6t2 -6v-5v-2
q13 -56 16 -92q3 -46 0 -86q0 -36 -10 -78q0 -6 -2 -8q0 -6 -2 -8q-1 -3 -2 -8.5t-2 -7.5q-2 -5 -5 -16t-5 -17q-16 -44 -45 -96q-1 -1 -3.5 -4.5t-3.5 -4.5l-4 -8q-9 -14 -10 -16q-6 -8 -16 -23q-2 -2 -1 -2t3 2q32 37 53 72q4 4 8 12z" />
    <glyph glyph-name="four" unicode="4" horiz-adv-x="624" 
d="M553 500q1 -3 0.5 -7.5t-12 -14t-35.5 -13.5q-12 -2 -41 -6q-7 -202 -21 -309q0 -6 -1 -15.5t-6 -34t-11.5 -43t-19 -34t-27.5 -15.5q-30 0 -47.5 14.5t-25 44.5t-9.5 76.5t0 110.5q3 55 6 201q-99 -2 -160 4q-31 2 -47 14q-2 0 -8 6q-8 7 -10 25q-13 52 0.5 138
t33.5 146l19 60q43 104 84 172q9 15 23.5 38t54 72t72.5 72q7 5 17.5 9.5t34 -18.5t34.5 -87q23 -143 16 -571q6 -1 17.5 -3.5t17.5 -3.5q48 -10 51 -28zM305 541q8 339 25 503q-4 -4 -13 -15.5t-42 -77t-72 -165.5q-41 -107 -72 -254q10 2 26 4.5t64.5 6.5t83.5 -2z
M410 913q0 21 -4 34.5t-8 16.5l-3 3q-7 1 -10.5 -13.5t-3.5 -29.5v-15v-489q0 -170 -4 -256q1 -2 2 -2q1 15 4.5 59.5t5.5 73.5q2 32 5 100.5t5 96.5q10 341 11 421z" />
    <glyph glyph-name="five" unicode="5" horiz-adv-x="681" 
d="M395 233q22 45 37.5 104t19.5 95l5 37q6 50 7 96.5t-1 68.5l-2 21q-14 57 -48 103.5t-69.5 71.5t-81.5 44t-69 25t-46 10q-26 -4 -36 29q-13 51 -11.5 102.5t9.5 89.5l8 39q11 36 82 33h55.5t90 -1.5t90.5 -5t77.5 -13t30.5 -23.5q1 -3 0.5 -8t-11 -15t-32.5 -14
q-34 -8 -137 -8t-170 8q7 -81 -9 -149q4 0 11.5 0.5t31 -1.5t48.5 -7t62.5 -19t74.5 -35q6 -3 16.5 -10t38.5 -31.5t51 -54t46 -79t32 -105.5q4 -16 9 -46.5t2.5 -124t-25.5 -188.5q-2 -7 -6 -19.5t-18 -46.5t-31 -64t-46 -63.5t-61 -53.5q-45 -29 -135 -25q-50 3 -88 24
t-51 40l-13 20q-37 53 -51 133q-15 69 -8 123q3 54 22 57q7 2 15 -2q17 -13 26 -43q13 -44 17 -67q2 -8 5 -21.5t13.5 -48.5t23 -61.5t31.5 -50t39 -25.5q30 -3 62 34.5t47.5 71.5t19.5 49zM496 291q-15 -47 -54 -123l-6 -12q-3 -6 -8 -11q-1 -3 -3 -7l-3.5 -7t-3.5 -6
q-5 -6 -12 -16t-9 -13q0 -4 2 -2q34 43 64 94q2 3 5 8.5t5 8.5q0 4 4 8q1 2 2 5t2 5q1 3 4 8.5t4 8.5q7 14 9 20q4 4 4 10q4 4 4 11q5 7 8 20q2 7 7 21.5t7 21.5q13 49 19 92q6 46 6 96q-4 62 -8 91q-2 18 -17 84q-8 25 -18 32l-8 6q-10 -2 -6 -26q4 -12 4 -17l2 -8
q15 -51 22 -116q5 -52 2 -109q0 -44 -10 -96q0 -2 -1 -5.5t-1 -5.5t-1 -6t-1 -6q-2 -2 -2 -10q-1 -1 -2 -4.5t-2 -5.5q-4 -12 -4 -21q-2 -2 -2 -4q0 -1 -1 -3t-1 -3t-1 -4t-1 -4z" />
    <glyph glyph-name="six" unicode="6" horiz-adv-x="688" 
d="M616 440q1 -15 2 -41.5t-8 -102.5t-32 -144q-1 -4 -3.5 -11t-13 -26.5t-22.5 -36t-33.5 -34.5t-46.5 -28q-37 -14 -113 -14q-5 0 -15 1t-37.5 10.5t-53.5 25.5t-57.5 51t-55.5 82q-32 64 -45.5 169.5t-10.5 178.5l3 74q3 106 15.5 196t24.5 127l11 37q22 61 53.5 109
t60 73t54 42t40.5 22l15 4q10 4 26 8t58 2.5t74 -20.5q4 -2 11 -7t25 -24t30.5 -42.5t21.5 -63.5t6 -86q-3 -28 -12 -49q-6 -21 -16 -32t-19 -9q-8 0 -14 6q-5 2 -11 12q-2 4 -6 27q0 3 -1 22t-1 33l-2 18q-1 12 -3 25.5t-9 34.5t-17.5 37t-30 27.5t-44.5 11.5
q-79 0 -125 -170q-37 -126 -51 -355q3 3 7.5 9t21.5 20.5t35.5 25.5t47 19.5t58.5 7.5q11 1 28 0.5t57 -17t64 -50.5q6 -7 14.5 -20.5t24.5 -61.5t20 -103zM252 115q2 -2 2.5 -1.5t-0.5 3.5q-18 26 -29 55q-18 42 -28 80q-27 87 -33 213q0 82 2 123q8 82 14 121
q11 86 45 221q10 33 6 49l-2 10q-5 3 -11 -4t-11 -20l-10 -33q-40 -151 -50 -303q-4 -89 -2 -129q3 -71 11 -115q14 -98 45 -172q16 -39 51 -98zM528 322q2 23 2 69q0 35 -6 76q-8 48 -18 72q-1 3 -3 8t-3 8q-2 2 -5.5 7t-5.5 7q-14 18 -20 23l-12 6q-2 1 -6.5 3t-6.5 3h-4
l-4 2h-8l-10 2h-8q-36 3 -66 -12q-15 -6 -27 -18q-4 -3 -24 -23q0 -2 -4 -6q-1 -1 -3 -4t-3 -4t-4.5 -6.5t-4.5 -8.5q-4 -4 -4 -6q-4 -4 -4 -8q-4 -4 -4 -6l-2 -4q-2 -2 -2 -4q-17 -35 -25 -60q-2 -2 -2 -4v-8q3 -98 21 -174q9 -38 24 -68q13 -25 33 -49q16 -19 41 -33
q1 -1 33 -20q48 -16 86 35q0 1 1 3t1 3l4 4q0 1 1 2t1 2q6 9 23 47q12 37 20 84q0 8 2 14q0 2 1 7t1 8v8q0 1 1 3t1 3q0 13 2 17z" />
    <glyph glyph-name="seven" unicode="7" horiz-adv-x="708" 
d="M371 995q24 36 54.5 69.5t49.5 49.5l19 16q-80 -4 -129 -4q-69 -3 -120 -2.5t-81 2.5l-29 2q-61 4 -63 29q-2 26 23 38.5t81 12.5q250 13 432 -20q15 0 21 -6q2 -2 4 -5t5 -14.5t-5 -25.5q-22 -45 -55 -90q-44 -58 -95 -150q-28 -54 -49 -119q-28 -75 -41 -139
q-28 -115 -43 -293q-5 -56 -10 -146l-6 -89q-2 -27 -10 -50q-11 -50 -41 -53q-54 0 -74 33q-6 11 -11 27t-6 26l-2 10q-10 117 -1.5 236.5t23.5 209.5l15 91q19 98 56 186q39 95 88 168zM434 932v8l-2 2q-3 3 -12 0q-10 -10 -14 -16q-1 -1 -3.5 -4t-3.5 -4q-3 -6 -6 -9
q-3 -6 -4 -6v-4q-30 -53 -55 -135q-21 -68 -33 -129t-18 -117q-1 -9 -3.5 -26.5t-3.5 -26.5q0 -17 -2 -25v-24q-7 -110 0 -260q2 -3 3 -3t-1 3q1 7 1.5 25.5t1.5 29.5v37v20q0 15 2 21q4 108 16 196q0 11 4 27q0 9 4 29q0 2 1 6t1 6q0 3 1 7.5t1 6.5q2 4 2 15q1 2 2 6t2 6
q5 31 27 108q17 60 33 101q21 49 41 88q13 22 18 41z" />
    <glyph glyph-name="eight" unicode="8" horiz-adv-x="677" 
d="M408 20q-39 -13 -91 -10q-52 1 -96 21.5t-62 40.5l-18 20q-29 38 -46 89t-20 97.5t-2 87t5 64.5l4 25q1 9 3.5 23.5t12.5 53t24 71t39.5 65t57.5 45.5q-30 15 -49.5 52t-23.5 67l-5 30q-1 4 -2.5 11.5t-2.5 31t1.5 49t11.5 63.5t25 75q8 21 25 45q2 3 5.5 7t16.5 16
t27 21t36 17t46 10q5 1 13 1t32.5 -2t47.5 -8t52 -21t51.5 -37.5t41.5 -61.5t26 -88q2 -11 4 -28.5t0 -64t-12.5 -84.5t-40.5 -73t-78 -45q5 -2 12.5 -7.5t28.5 -26t38 -47t33.5 -73.5t22.5 -102q4 -29 4 -84q-3 -78 -16 -129q-2 -7 -6.5 -18t-20.5 -41.5t-35 -56t-51.5 -52
t-68.5 -39.5zM487 784q10 8 31 39q0 1 1 4t1 4q4 4 4 9q2 4 6 16q1 3 3.5 9t3.5 9q0 1 1 5t1 6q2 2 2 8q7 50 2 84q-2 25 -15 76q-5 11 -12 14h-8q-8 -2 -8 -14l2 -11q18 -58 20 -94q2 -14 2 -41q0 -3 -1 -9t-1 -9q0 -13 -2 -19q-5 -30 -16 -55q-3 -6 -9 -16.5t-8 -14.5z
M479 610q-13 19 -20 19h-8q-7 -5 -2 -21l10 -16q15 -25 20 -35q14 -28 17 -37q14 -34 20 -74q8 -46 8 -65v-31q0 -5 -1 -14.5t-1 -13.5v-5v-4q0 -1 -1 -3t-1 -3v-12q-1 -5 -6 -25q0 -10 -4 -22q-1 -3 -3 -10.5t-3 -10.5v-4q0 -1 -1 -2t-1 -2t-1 -4t-1 -4q-4 -12 -4 -14
q-8 -21 -11 -25h2q22 44 31 74q19 53 25 116q3 65 -13 134q-17 62 -51 114zM215 983q-2 -14 -4.5 -37t4 -75.5t29.5 -82.5q4 -6 11 -15t34.5 -24t60.5 -14q96 8 109 160q7 76 -4 130t-31.5 78t-42 36.5t-37.5 12.5l-16 1q-27 0 -56 -29q-23 -26 -37 -61.5t-17 -57.5z
M170 242q1 -6 3.5 -16.5t14 -36.5t27 -46t44 -35.5t63.5 -13.5q11 0 22.5 3t28.5 16.5t31 35t26 64t16 98.5q8 57 3 105.5t-19 86.5t-29.5 65t-26.5 41l-12 14q-29 36 -67 39q-22 -1 -40.5 -15.5t-25.5 -25.5q-18 -24 -34 -70q-17 -38 -25 -90q-23 -123 0 -219z" />
    <glyph glyph-name="nine" unicode="9" horiz-adv-x="688" 
d="M274 84q79 0 125 170q40 125 52 354q-3 -3 -7.5 -9t-21 -20.5t-34.5 -25.5t-46.5 -19.5t-58.5 -7.5q-11 -1 -28.5 0t-58.5 18t-65 50q-6 7 -14.5 20.5t-24 61t-18.5 102.5q-2 15 -2.5 41.5t8 103t31.5 144.5q1 4 3.5 11t12.5 26t22.5 35.5t34.5 34.5t47 28q40 15 111 15
q6 0 15.5 -1t37.5 -10.5t54 -25.5t58 -51t56 -82q32 -64 44.5 -169.5t9.5 -179.5l-3 -73q-3 -106 -15.5 -196t-24.5 -127l-11 -38q-22 -61 -53.5 -109t-60 -73t-54 -42t-40.5 -22l-15 -4q-10 -4 -26 -8t-57.5 -2t-72.5 21q-4 2 -11 7t-25 24t-30.5 42.5t-21.5 63.5t-6 86
q0 14 10 49q15 44 37 41q7 0 13 -6q7 -3 10 -13q6 -9 6 -26q1 -4 1.5 -12t1 -20.5t1.5 -22.5l2 -19q1 -16 5 -34t14 -43.5t31.5 -41.5t51.5 -16zM477 266q-4 -10 -8 -26q-4 -9 -8.5 -25t-5.5 -18h2q21 51 47 133q0 4 6 22q0 2 1 6.5t1 6.5q2 4 2 12l6 24q3 12 6 27
q2 9 5.5 27.5t5.5 25.5q1 4 2 13.5t2 13.5q0 2 1 7t1 7q0 11 2 15v14q2 2 2 8v6q1 5 2 15t2 14v31q2 4 2 14v14q3 61 0 119q-5 95 -31 219q-7 30 -20 43l-6 6h-2q-11 -3 -7 -32l9 -31q6 -27 14 -74q0 -2 12 -74q1 -6 2 -17t2 -17q0 -6 1 -17.5t1 -17.5t1 -17t1 -16v-18
q0 -2 1 -8t1 -9q0 -84 -4 -121q-2 -44 -10 -108q-9 -77 -33 -166q-1 -2 -2 -7.5t-2 -8.5q-4 -8 -4 -15zM432 721q20 50 23 59q2 0 2 4v9q0 98 -21 174q-10 42 -24 67q-8 20 -33 49q-14 16 -39 33q-18 12 -33 21q-48 16 -86 -35l-4 -4q0 -1 -1 -3t-1 -3q-1 0 -2 -2
q-1 -1 -1 -1.5t-1 -1.5q-16 -32 -21 -47q-13 -39 -20 -84q-2 -4 -2 -12q-2 -6 -2 -16q-2 -2 -2 -8v-7q-2 -6 -2 -16q-4 -46 -2 -70q0 -48 4 -73q6 -39 18 -74q1 -3 4 -8t4 -8q1 -2 4.5 -7.5t4.5 -7.5q12 -16 20 -22l12 -6q2 -1 6.5 -3.5t6.5 -3.5h4l4 -2h10l8 -2h11
q34 -3 63 13q13 5 29 18q5 3 12.5 12t9.5 11l6 6q0 3 5 8q2 2 10 14q0 2 4 6q0 5 4 9q0 2 4 6q0 4 2 4q0 4 2 4z" />
    <glyph glyph-name="colon" unicode=":" horiz-adv-x="241" 
d="M123 438q-20 0 -33.5 14t-13.5 33q0 21 13.5 35.5t33.5 14.5t33.5 -14.5t13.5 -35.5q0 -19 -13.5 -33t-33.5 -14zM119 291q-20 0 -33.5 14t-13.5 33q0 20 13.5 34.5t33.5 14.5t33.5 -14.5t13.5 -34.5q0 -19 -13.5 -33t-33.5 -14z" />
    <glyph glyph-name="semicolon" unicode=";" horiz-adv-x="241" 
d="M123 438q-20 0 -33.5 14t-13.5 33q0 21 13.5 35.5t33.5 14.5q19 0 33 -15t14 -35q0 -19 -14 -33t-33 -14zM76 225q-4 4 -4 13q0 12 2 22q1 5 2 18t2 19q2 9 3.5 24.5t3 26.5t3.5 17q0 6 4 10q5 10 17 10q19 3 28 -6q11 -8 8 -27v-35q-6 -45 -8 -49q-7 -31 -18 -45l-6 -6
q-4 -4 -7 -4q-6 -2 -14 -2q-4 2 -10 6q-4 4 -6 8z" />
    <glyph glyph-name="equal" unicode="=" horiz-adv-x="331" 
d="M240 451q20 -10 20 -25q2 -6 0 -14q-5 -15 -18 -19q-4 -4 -13 -4q-2 0 -7.5 -1t-8.5 -1h-20h-23h-20q-2 0 -6 1t-5 1h-10q-8 2 -18 2q-4 2 -9 2q-1 0 -3 1t-3 1q-6 0 -10 4q-12 8 -12 21q-3 22 4 35q10 13 31 10h14h20h27q4 0 12.5 -1t12.5 -1l24 -6q3 0 21 -6zM84 504
q-9 5 -12 20q-3 23 6 35q10 10 28 10h15h22h25q4 -1 13.5 -2t13.5 -2q8 0 24 -4q3 -1 10.5 -3t10.5 -3q20 -12 20 -27q0 -6 -2 -12q0 -10 -16 -20q-2 0 -6.5 -1t-6.5 -1q-4 -2 -16 -2q-9 -3 -20 -3h-23q-12 3 -23 3h-10q-2 0 -5 1t-5 1q-3 0 -9 1t-9 1q-1 0 -3.5 1t-3.5 1
q-6 0 -8 2q-4 0 -10 4z" />
    <glyph glyph-name="question" unicode="?" horiz-adv-x="710" 
d="M305 1225q133 8 232 -75t102 -216q1 -53 -18.5 -116t-57 -131t-66.5 -116t-73.5 -112.5t-52.5 -77.5q-64 -102 -58 -170q2 -11 -9.5 -16t-20.5 4q-33 34 -35 97t33 148q30 70 77.5 154.5t76 135.5t47 123t10.5 147q-1 8 -3 21t-14.5 45t-31 56.5t-55 42.5t-83.5 15
q-6 0 -16 -1t-35.5 -11t-44.5 -27.5t-32.5 -55t-10.5 -88.5q4 -51 33 -82.5t67 -39.5q42 -11 88 4q6 1 11.5 -4t5.5 -11q-3 -61 -60 -108q-23 -16 -51 -10q-180 44 -188 192q-2 52 9.5 96t31.5 72.5t45.5 50.5t51 33.5t47 19t35.5 9.5zM178 877q-14 18 -20 32q-3 6 -11 6
l-6 -2q-10 -3 -10 -10l2 -8q14 -28 41 -47q22 -16 45 -23q21 -6 35 -6h8h6q6 0 8 2v2q-11 0 -26 6q-15 3 -37 17q-17 10 -35 31zM551 797q18 47 24 96q0 7 1.5 22.5t1.5 22.5q-1 7 -2.5 22t-2.5 23q-6 30 -16 37l-6 6h-2q-6 -3 -6 -10q-3 -7 0 -17l2 -26q9 -61 -4 -121
q-7 -35 -17 -55q0 -5 -4 -13q-1 -2 -3 -7t-3 -7q-2 -4 -6 -12.5t-6 -12.5q-22 -43 -23 -47q-2 -4 -6 -11t-6 -11t-6 -11.5t-6 -11.5q-4 -9 -43 -78q-58 -97 -70 -126q-8 -15 -10 -25l-2 -2v-4l-2 -4q-4 -8 -4 -13q-1 -3 -3.5 -9t-3.5 -9t-2 -8.5t-2 -7.5q0 -3 1 -3t1 3
q11 33 17 45q11 25 33 61q3 5 19 30t24 40q38 59 49 78q4 7 13 21.5t13 21.5q2 3 6.5 10t6.5 10q3 13 10 23q12 21 24 45q4 4 7 10q1 2 2 6t2 6q7 10 10 23zM311 143q26 0 45 -17t19 -42q0 -23 -19 -40t-45 -17q-25 0 -43 17t-18 40q0 25 18 42t43 17zM348 82q2 2 2 10
q0 4 -4 12q0 5 -6 11q-4 4 -8 6q-3 3 -6 -4l-4 -6q-3 -11 -5 -13l2 -2q1 -1 3.5 -2t3.5 -2l2 -2q4 -4 4 -10v-12l-2 -7l2 -2q6 6 8 7q0 1 1 2t1 2q2 2 2 4q4 4 4 8z" />
    <glyph glyph-name="at" unicode="@" horiz-adv-x="849" 
d="M477 1001q69 -1 127 -21.5t96 -54.5t59 -77t20 -93t-25 -98q-22 -46 -55 -81t-64 -51.5t-59 -26.5t-45 -12l-17 -1q-10 0 -16 2q-2 0 -5.5 1.5t-11.5 7.5t-12.5 15t-4.5 27t9 42q-8 -26 -40.5 -57.5t-84.5 -30.5q-32 1 -49.5 19.5t-19.5 43.5q-2 22 2 55q11 35 30 68
q22 40 54 72q1 2 4 4.5t12.5 10t19.5 14t25.5 13.5t31.5 11t37 4t42 -6q3 0 6.5 -1.5t14 -7.5t14.5 -15.5t7.5 -27t-6.5 -42.5q7 -1 11 -4t5 -7.5t1 -9.5t-2.5 -12t-5 -13t-7 -14t-7 -13t-7 -12t-6.5 -10v0v-2q-12 -20 -16 -28q-6 -12 -10 -23t-6.5 -21t-0.5 -16t8 -6h2
q12 0 27 6q25 7 48 21t46 40t36 69.5t11 99.5q-2 57 -25.5 98t-55 59.5t-62.5 29t-53 11.5h-21q-49 -1 -91 -18t-69 -43t-48.5 -57t-33 -61.5t-19 -56t-9.5 -41.5l-2 -16q-8 -69 -2.5 -120t22 -87t38 -60t45.5 -37.5t43.5 -20.5t32.5 -8l13 -2q185 -28 297 131q13 18 25 12
q8 -8 0 -29q-31 -54 -77 -91t-89.5 -50.5t-82.5 -20t-63 -4.5l-24 2q-79 9 -138.5 36.5t-92 64.5t-53.5 79t-26 82.5t-6 74t2 53.5l3 20q8 59 36 114t75 102t122 75.5t166 27.5zM205 803q9 14 6 22l-4 9q-7 5 -19 -7l-10 -14q-35 -69 -45 -143q-2 -23 -2 -66q0 -4 1 -14
t1 -15q1 -4 2 -13t2 -13q4 -24 25 -84l4 -8q0 -1 1 -3t1 -3q1 -2 3 -6.5t3 -6.5q3 -5 7 -11.5t5 -8.5q0 -2 1 -1t1 3q-17 40 -24 65q-14 54 -14 105q0 17 4 57q4 33 12 58q6 27 18 51q3 9 11 26t10 21zM350 647q0 2 4 6l6 6q12 17 46 56q4 4 0 8l-5 6q-6 6 -14 6l-4 -4
q-29 -39 -43 -74q-1 -1 -2 -3t-2 -3q0 -6 -2 -8q0 -4 -2 -6v-2v-4q-2 -2 -2 -4v-2v-2q0 -2 -1 -5t-1 -4h2q4 4 4 9q1 1 2 3t2 3v2l2 2q4 4 4 6q1 1 3 4t3 4zM469 633q35 52 63 65q8 29 6.5 42.5t-6.5 16.5l-6 3q-27 5 -64.5 -27t-76.5 -102q-48 -86 -18 -102l4 -1
q43 0 90 90q1 1 6 11v2q2 0 2 2z" />
    <glyph glyph-name="A" unicode="A" 
d="M123 6q-47 16 -49 86v19q-17 554 100 853q105 267 307 269q59 1 108.5 -27t84.5 -74t63 -113.5t45.5 -139.5t30 -159t18 -163t9 -162t3.5 -146.5v-124t1 -87.5q0 -10 -6 -23t-19 -14q-159 -13 -155 57q1 28 2.5 73.5t3.5 185.5t-4 247h-351q-3 -85 -11 -271.5t-9 -207.5
q0 -36 -11.5 -56.5t-22.5 -23.5l-11 -2q-78 -12 -127 4zM709 844q-9 0 -9 -27q2 -8 2 -18l3 -8q8 -45 20 -127q1 -7 2 -19.5t2 -22.5t2 -18q1 -5 2 -15t2 -14q0 -5 1 -14t1 -14q11 -132 13 -197q0 -27 2 -41v-37v-65v-27v-24v-37q0 -3 1 -3t1 3q0 9 4 49q0 23 2 33
q0 25 2 37v41q2 14 2 43v22v25v47q0 109 -8 200q-7 72 -23 185q-3 17 -8 24q-3 10 -6 13l-6 4zM322 670q-3 -16 -3 -41h7q38 -2 166.5 -0.5t169.5 0.5q-31 510 -177 528q-6 0 -15.5 -3t-35 -29t-46 -72t-40.5 -146.5t-26 -236.5zM188 575q-6 -78 -6 -206q0 -29 2 -43v-21
v-18q1 -12 2 -36t2 -34v-6v-8q0 -9 2 -15v-24q5 -35 5 -39h2v53q-2 10 -2 35v37v43q2 14 2 45q0 28 4 98q6 102 18 207q9 81 29 188q4 10 4 27q0 12 -2 14q0 2 -1 5t-1 4l-2 2q-5 3 -10 -4.5t-9 -18.5l-8 -29q-1 -5 -3 -16t-3 -16q-4 -24 -4 -35q-3 -18 -6 -33q0 -13 -4 -33
q0 -10 -2 -16v-16q-1 -5 -2 -15.5t-2 -15.5q-1 -9 -2.5 -30t-2.5 -30z" />
    <glyph glyph-name="B" unicode="B" horiz-adv-x="870" 
d="M174 0q-43 4 -68 161.5t-30 363.5t-3.5 378t7.5 236q1 1 0 9.5t2 22.5t8 27.5t18 24t31 12.5q64 10 119 -2q2 0 4.5 -1t9.5 -5.5t12.5 -12.5t9.5 -24.5t3 -38.5q0 -108 -2 -231q72 280 203 303q88 16 158.5 -12.5t112.5 -88.5t61.5 -141t13.5 -172q-10 -158 -104.5 -272
t-233.5 -140q176 -66 184 -186q2 -52 -13.5 -92.5t-43 -64t-62 -38.5t-72 -18t-70.5 0t-60 12q-84 30 -129 129q-26 -142 -66 -139zM547 313q-6 -9 -2 -16l4 -8q30 -30 43 -68q9 -33 2 -63q-6 -29 -16 -45q0 -1 -3 -4v-3q-2 0 -2 -4q-4 -4 -4 -6q-2 -2 -4.5 -5.5t-3.5 -4.5
q0 -2 2 -2q17 17 27 33q1 1 2 3t2 3t2 3t2 3q1 2 3 7t3 7q0 1 1 2t1 2v3l2 2q0 1 1 4t1 4q4 12 4 18q3 17 0 37q-4 26 -8 37q-14 33 -37 59q-7 7 -14 4zM725 907q3 -54 -2 -92q-2 -30 -14 -84q-12 -36 -27 -67q-20 -48 -61 -99q-2 -1 -9 -8l-8 -8q-4 -6 -12 -14
q-17 -17 -23 -21q-1 -2 0 -3t2 1q36 27 72 68q2 4 10 12q5 5 11 14q2 3 9 13t11 16q21 35 35 70q16 50 22 79q9 61 9 82q3 74 -15 154q-5 22 -14 31l-8 4q-12 -3 -8 -25l4 -20q8 -36 10 -52q3 -27 6 -51zM281 555q0 -13 -5 -76q57 -10 106.5 1.5t83.5 38t61.5 61t44 70.5
t27.5 66.5t15 49.5l4 20q1 8 3 21t5.5 50.5t3.5 71.5t-5.5 74.5t-18 68.5t-38.5 44.5t-62 11.5q-32 -4 -61.5 -35t-51.5 -82.5t-40.5 -107.5t-32.5 -124.5t-22.5 -119t-16.5 -104.5zM270 389q0 -3 -1 -9t-1 -9q2 -63 11 -112t19 -76t27 -47.5t25.5 -27t22.5 -14.5t37 -9.5
t49 5.5t43.5 37t15.5 78q-1 37 -22 67.5t-48.5 49.5t-65 34t-62 21.5t-50.5 11.5zM172 1051q-10 -571 0 -826h2q5 162 10 363q15 394 17 469q0 23 -3.5 37t-6.5 17l-3 3q-4 1 -7.5 -5t-5 -15.5t-2.5 -19t-1 -16.5v-7z" />
    <glyph glyph-name="C" unicode="C" horiz-adv-x="798" 
d="M494 0q-82 0 -148 23t-109.5 62t-76 89.5t-49 106t-27 111t-11.5 106t-0.5 89.5t3.5 62l2 23q1 7 2 20t8 52t16.5 77t27.5 89t40.5 95t57 88.5t75.5 75.5t97 50t120 18h6.5t17.5 -1t24.5 -5t28.5 -12t29 -20.5t25.5 -31.5t18.5 -45.5t9 -62t-5 -80.5q-6 -24 -25.5 -44
t-48.5 -30q-11 -5 -20.5 4t-6.5 21q29 117 22.5 170t-29.5 60l-23 7q-47 -1 -86.5 -31.5t-64.5 -78.5t-44.5 -105.5t-29 -115t-16 -105t-8.5 -77.5l-1 -29q-4 -124 1.5 -214.5t25 -166.5t59 -119.5t100.5 -54.5q1 2 7 0t18.5 1.5t27.5 6.5t33 15t36.5 26t37 40.5t34 58.5
t28.5 79.5t20 103.5q2 6 7.5 7.5t10.5 -2.5q51 -57 35 -156q-9 -54 -29.5 -97t-46 -68.5t-54 -43.5t-55.5 -25.5t-49 -11.5t-35 -4h-13zM180 432q0 -2 1 -5t1 -5q9 -69 33 -150q1 -4 4 -13t4 -13q3 -7 8 -25q2 -5 5.5 -13t5.5 -13t4 -9q1 -3 2.5 -2.5t-0.5 2.5
q-28 94 -33 121q-1 3 -2 10t-2 11q-1 3 -2 10t-2 10q-3 21 -6 45q0 4 -2 6v4v13q-1 4 -2 12t-2 12v25q-2 8 -2 24q-2 36 2 103q0 46 10 104q4 33 16 99q5 18 13.5 48t11.5 40q9 30 6 39l-4 10q-4 3 -10 -3.5t-11 -17.5q-4 -6 -8 -18l-2 -8q-36 -123 -43 -256q-3 -59 0 -111
v-12v-14q2 -8 2 -25q1 -3 2 -11t2 -12v-12z" />
    <glyph glyph-name="D" unicode="D" horiz-adv-x="933" 
d="M174 0q-43 4 -68 161.5t-30 363.5t-3.5 378t7.5 236q1 1 0 9.5t2 22.5t8 27.5t18 24t31 12.5q64 10 119 -2q2 0 4.5 -1t9.5 -5.5t12.5 -12.5t9.5 -24.5t3 -38.5q0 -115 -2 -242q73 303 211 328q10 2 27 4.5t64.5 -3t87.5 -24t84 -70.5t67.5 -130t24.5 -214.5t-32 -312.5
q-19 -105 -47.5 -188t-59.5 -135.5t-66 -90t-69 -54t-66 -25t-59.5 -6t-48.5 6.5t-33 9l-11 6q-84 30 -129 129q-26 -142 -66 -139zM649 242q-1 -6 -4 -16.5t-4 -12.5q-9 -24 -16 -45q-2 -2 -0.5 -2.5t2.5 2.5q1 5 10 27q2 4 6 16q4 4 8 16q6 18 15 39q0 1 3.5 9.5t4.5 13.5
q6 18 8 22q5 18 16 47q2 9 7.5 27t7.5 27q4 12 4 14q1 2 2 7t2 7q1 5 3 14.5t3 14.5q4 9 8 31q0 2 1 6.5t1 7.5q1 2 2 7t2 7q1 5 3.5 15.5t3.5 15.5q0 9 4 33q4 20 4 31q2 6 2 16q2 4 2 16q6 61 6 127q0 57 -10 125q-2 4 -2 15q-1 2 -2 7t-2 7q0 6 -3 16t-4 13q-9 38 -14 53
q-9 32 -27 45l-6 4l-4 2q-4 -2 -4 -12q0 -11 6 -23q4 -16 6 -22l5 -8q22 -73 32 -158q7 -85 4 -148q-3 -69 -12 -131q-4 -20 -4 -30q-2 -6 -2 -15q-1 -2 -2 -7t-2 -7q-1 -5 -2 -15t-2 -14q-2 -10 -6 -26q-15 -65 -47 -179q-2 -5 -6.5 -16t-6.5 -16zM281 555q-3 -83 -13 -184
q4 -240 105 -277q37 -12 67 -8t54.5 26t43 51t33 67.5t24.5 75t17 73.5t11 64t6 46l2 19q38 483 -64 595q-31 33 -61 25q-32 -4 -61.5 -35t-51.5 -82.5t-40.5 -107.5t-32.5 -124.5t-22.5 -119t-16.5 -104.5zM174 1044q-5 -593 4 -819h2q1 61 10.5 374.5t12.5 451.5
q1 23 -2.5 37t-6.5 17l-4 3q-7 1 -11 -15t-5 -33v-16z" />
    <glyph glyph-name="E" unicode="E" horiz-adv-x="784" 
d="M53 1147q-9 8 -18 21.5t-15.5 29.5t0 28t27.5 13q133 9 330 2q247 -4 352 -16q39 0 55 -23q12 -14 -1 -22.5t-31 -8.5q-168 -3 -379 -16q27 -52 2 -139q-34 -113 -53 -266h200h14.5t22 -5.5t12.5 -15.5q0 -6 -2.5 -15.5t-16 -25t-36.5 -16.5h-12q-13 0 -33.5 -0.5
t-45.5 -1t-56 -0.5h-58q-9 -82 -12 -170q-6 -153 30.5 -295t94.5 -142h13.5t33.5 4t49 12t55.5 25.5t57.5 42.5q54 52 117 182q28 57 34 56q8 0 9 -43q1 -16 -5 -42.5t-18.5 -62.5t-37.5 -73t-58.5 -70.5t-85 -59t-113.5 -34.5q-192 -29 -297 126.5t-96 446.5q12 330 92 568
q-101 -12 -121 6zM184 686q-8 -124 6 -250q12 -90 35 -178q5 -21 19 -63q0 -5 4 -13q0 -4 4 -12q1 -2 2 -6t2 -7t2 -5q2 -4 2 0q-24 73 -35 145q-1 4 -3 12.5t-3 12.5q0 4 -1 12.5t-1 13.5q-4 15 -8 53v15q-2 4 -2 14t-2 14v15q0 5 -1 15t-1 15q0 19 -2 29q0 82 2 125
q3 64 12 125q1 5 18 119q13 59 27 106q9 37 6 49l-2 11q-5 4 -10.5 -3.5t-11.5 -21.5q-5 -10 -9 -22l-4 -11q-38 -146 -45 -309z" />
    <glyph glyph-name="F" unicode="F" horiz-adv-x="671" 
d="M33 1147q-9 8 -18 21.5t-15.5 29.5t0 28t27.5 13q133 9 329 2q248 -4 353 -16q39 0 55 -23q12 -14 -1 -22.5t-32 -8.5q-176 -3 -393 -16q15 -22 12 -59q0 -170 -6 -346h152h6q5 0 12.5 -1t15 -2.5t13 -6.5t4.5 -11t-3 -15.5t-16.5 -25t-38.5 -16.5q-69 0 -147 -2
q-5 -129 -13 -239t-21.5 -213.5t-34 -162t-46.5 -55.5q-93 10 -102 668h-23q-20 4 -20 24v6t1.5 14t4 17.5t8.5 14t15 6.5h14q0 241 8 331q-2 31 8 58q-88 -10 -108 8zM221 1001q-5 -569 8 -776h2q0 54 3.5 187t8.5 320t7 276q1 21 -2 34t-6 16l-4 3q-4 1 -7.5 -4.5
t-5.5 -14.5t-3 -18.5t-1 -15.5v-7z" />
    <glyph glyph-name="G" unicode="G" horiz-adv-x="860" 
d="M494 0q-82 0 -148 23t-109.5 62t-76 89.5t-49 106t-27 111t-11.5 106t-0.5 89.5t3.5 62l2 23q1 7 2 20t8 52t16.5 77t27.5 89t40.5 95t57 88.5t75.5 75.5t97 50t120 18h6.5t17.5 -1t24.5 -5t28.5 -12t29 -20.5t25.5 -31.5t18.5 -45.5t9 -62t-5 -80.5q-6 -24 -25.5 -44
t-48.5 -30q-11 -5 -20.5 4t-6.5 21q29 117 22.5 170t-29.5 60l-23 7q-47 -1 -86.5 -31.5t-64.5 -78.5t-44.5 -105.5t-29 -115t-16 -105t-8.5 -77.5l-1 -29q-4 -124 1.5 -214.5t25 -166.5t59 -119.5t100.5 -54.5q4 -1 11.5 -0.5t28 10t39.5 28t42 62.5t39 106q-8 142 2 238
q-55 -9 -108 -18q-1 0 -14.5 -2.5t-21 -3t-17.5 2t-15 9.5q-7 12 -13 31t-5 39t16 22q21 4 46 5.5t41.5 1.5t46 -0.5t42.5 -0.5q17 -1 59.5 -3t72.5 -4.5t56 -6.5q21 -3 29 -23q5 -15 -1.5 -24t-16.5 -9q-17 0 -25 -2v-6q0 -428 -64 -507q-13 -16 -28 -15q-47 3 -68 135
q-29 -56 -69.5 -89.5t-65.5 -39.5zM733 504q-7 1 -11 -5.5t-4 -12.5l-1 -7q0 -134 10 -329h2q13 164 16 331q1 9 -2 14.5t-7 6.5zM176 424q6 -34 23 -92q14 -49 26 -74q0 -1 1 -4t1 -4q4 -4 4 -8q6 -12 7 -15q4 -4 8 -12l6 -12q0 -1 1 -3t1 -3q1 -1 2 -3.5t2 -3.5t3 -4t3 -4
q6 -12 10 -18l2 2q-16 24 -26 53q-15 31 -31 76q-15 53 -22 96q-1 4 -2 13.5t-2 13.5q0 4 -1.5 13t-1.5 13q-4 36 -4 58q-3 102 21 231q24 116 63 207q13 30 13 45l-2 10q-4 4 -12 -2.5t-13 -17.5l-14 -29q-30 -78 -45 -149q-19 -75 -25 -138q-13 -118 4 -235z" />
    <glyph glyph-name="H" unicode="H" horiz-adv-x="933" 
d="M90 240q-18 172 -18 346q-4 355 47 596q18 61 45 63q52 3 94.5 -35t32.5 -88q-46 -198 -53 -493q27 3 71 0q39 -2 168 -0.5t170 0.5q-4 313 -20 489q-5 89 49 101q67 15 117 12q23 -3 35 -27t14 -51q32 -326 12 -616q-14 -218 -57 -379q-41 -168 -88 -158q-8 2 -14 7
t-11 14.5t-8.5 19t-6 23.5t-4 24.5t-3 25.5t-2 23t-1 21.5t-0.5 15.5q-5 77 -10 344v45q-337 0 -413 2q-4 -299 32 -493q6 -60 -26 -68q-43 -9 -78 2t-45 49q-17 63 -29 185zM739 1079q-8 0 -8 -30v-23l2 -8q9 -80 12 -152q5 -57 5 -69q0 -5 1 -16.5t1 -16.5v-33
q3 -130 0 -229q0 -18 -1 -49t-1 -43q-1 -12 -2.5 -38t-2.5 -40q0 -5 -1 -15.5t-1 -15.5t-1 -15t-1 -14q0 -8 -1 -23t-1 -20q0 -3 1 -3t1 3q5 35 7 58q4 24 4 39q4 28 4 43q1 7 6 47q0 8 1 25t1 26q2 8 2 27q2 8 2 26q1 9 2 27.5t2 27.5q4 154 2 234q-3 118 -12 217
q-4 22 -6 29q-3 11 -8 16l-5 6zM143 700v-137q2 -20 2 -61q2 -10 2 -29q0 -8 3 -14v-15q10 -126 20 -186q10 -66 10 -68q1 -3 8 -47q1 -3 2.5 -2.5t-0.5 2.5q-14 123 -16 156q-9 98 -12 229q0 22 1 65t1 64q1 22 4 65t4 64q13 145 29 238q5 35 2 51l-4 10q-3 1 -6 -0.5
t-5.5 -6t-4.5 -9.5t-5 -12l-6 -35q-2 -15 -6 -43.5t-6 -42.5q-1 -15 -4 -42t-4 -40q-6 -78 -9 -154z" />
    <glyph glyph-name="I" unicode="I" horiz-adv-x="552" 
d="M168 1137q-1 0 -11 -2.5t-15 -3t-14 -1.5t-14.5 0t-12 4.5t-9.5 8.5q-7 11 -14 30.5t-6 39.5t18 22q67 8 195 4q145 -4 207 -14q22 -3 32 -23q5 -16 -2 -24.5t-18 -8.5l-117 -6q36 -15 31 -80q-14 -265 -19 -520q-1 -30 -2.5 -89.5t-2.5 -95.5t-4 -87t-7 -94
q-9 -101 -25 -136h88h4.5t9 -1t11.5 -2.5t9 -5t3 -7.5q0 -2 -0.5 -5t-3 -10.5t-6.5 -13t-12 -10.5t-19 -6l-278 -2q-17 2 -17 18q-2 45 21 45h121q-22 33 -43 127q-31 123 -51 347q-15 217 6 546q5 42 18 64q-17 -4 -51 -8zM295 987q-12 -292 -6 -479q2 -121 14 -250
q0 -3 1 -3t1 3q0 33 -2 53v37v19v20v43v47v49q0 8 1 26t1 26q2 83 19 413q2 22 -5 43l-6 8q-6 1 -10 -6t-6 -18z" />
    <glyph glyph-name="J" unicode="J" horiz-adv-x="780" 
d="M373 0q-93 15 -168 77.5t-115.5 143.5t-57.5 164.5t-5 146.5q4 41 24 43q16 2 30.5 -19t18.5 -71q3 -24 8.5 -53.5t17.5 -76.5t32.5 -89t47.5 -82.5t68.5 -67t90.5 -32.5q32 -4 55 44t34 119.5t17 143.5t7 123l1 51q-4 394 -8 520q-4 31 8 58q-6 -1 -19.5 -3t-19.5 -3
q-2 0 -11.5 -2.5t-14 -3t-14 -1.5t-15 0t-11.5 4.5t-9 8.5q-7 10 -14.5 30t-6.5 40t18 22q67 8 195 4q145 -4 205 -14q25 -3 33 -23q7 -16 -0.5 -24.5t-18.5 -8.5q-82 -4 -123 -8q30 -19 35 -82q14 -326 -6 -547q-1 -12 -3 -32.5t-11.5 -79t-22 -111.5t-37.5 -116
t-55.5 -106.5t-77.5 -69t-102 -17.5zM541 287l2 -2l7.5 30t11 46t9.5 47q8 49 15 86q9 70 12 96q10 113 10 207q2 75 -6 192q-2 28 -10 39l-8 8q-11 0 -11 -26l2 -29q11 -171 9 -254q0 -74 -2 -109q-1 -19 -3.5 -51t-3.5 -43q-9 -88 -18 -147q-2 -6 -2 -15q-2 -6 -2 -14
q-4 -16 -4 -24q-2 -7 -8 -37z" />
    <glyph glyph-name="K" unicode="K" horiz-adv-x="819" 
d="M129 168q-34 146 -49 377q-14 220 4 592q10 96 66 98q64 3 116 -8q37 -11 37 -88q-8 -135 -20 -566q0 -44 -2 -67q49 6 90.5 21t75.5 41t61.5 54t52 72.5t43 83.5t39 100t34.5 109.5t34 122.5q10 38 22 65t22 38.5t18.5 17.5t12.5 6h5q3 0 7.5 -1t16.5 -8t17.5 -24
t11 -48.5t-3.5 -82.5q-7 -52 -22.5 -111.5t-42.5 -135t-68.5 -144.5t-94.5 -130t-127.5 -102.5t-160.5 -52.5q45 -89 98.5 -153.5t98.5 -96.5t94.5 -50t78 -21t58.5 -2q22 1 38 -2.5t23 -8.5t10.5 -10t3.5 -9v-3q-1 -15 -14.5 -25t-26.5 -13l-14 -3q-79 -8 -151.5 9
t-125 47.5t-98.5 74.5t-73.5 81.5t-49.5 76.5q-4 -74 -8 -111q-10 -178 -55 -178q-48 0 -82 168zM180 999q-8 -240 0 -469q1 -14 4.5 -70.5t5.5 -80.5q0 -4 9 -92q0 -3 1 -3t1 3q0 30 -2 53q0 21 -2 33v39v43v45q0 16 -2 24q2 8 2 25v51q4 239 12 404q2 22 -4 40l-8 9
q-6 1 -9.5 -6t-5.5 -19z" />
    <glyph glyph-name="L" unicode="L" horiz-adv-x="675" 
d="M731 123q0 -15 -17 -34.5t-50 -35.5q-58 -33 -179 -47q-70 -9 -123 -5t-91 18t-64 32.5t-41.5 39t-23.5 38t-10 28.5l-3 11q-34 146 -49 377q-14 220 4 592q10 96 66 98q64 3 116 -8q37 -11 37 -88q-8 -135 -20 -566q-1 -35 2.5 -151.5t1 -205t-16.5 -138.5
q75 -32 211 -4q113 20 176 47q2 1 5.5 2.5t13.5 5t18.5 5t17 2.5t14 -2.5t5.5 -10.5zM193 279h2q-7 100 -7 319q0 120 5 412q3 29 -7 43l-6 8q-5 1 -8.5 -6.5t-5.5 -20.5l-2 -28q0 -50 1 -139.5t1 -127.5q4 -146 8 -211q2 -69 19 -249z" />
    <glyph glyph-name="M" unicode="M" horiz-adv-x="1089" 
d="M119 55q-16 52 -29 185q-18 172 -18 346q0 13 0.5 35t5.5 85.5t13.5 122t27 131t42.5 125.5t63.5 92.5t88.5 45.5q8 1 22 -1.5t50 -31t64 -81.5t53.5 -173.5t29.5 -286.5q2 12 5 33t14.5 81t25 114.5t37 121t50 114.5t64.5 81t79 33q51 0 90.5 -38t61.5 -99t36 -134.5
t18 -147t5.5 -134.5t-0.5 -99l-2 -38q-14 -338 -39 -471q-5 -25 -22 -42.5t-42 -21.5q-38 -6 -73 0q-17 3 -27.5 16.5t-9.5 30.5q4 62 6 179t2 204v86q-2 505 -40 549q-3 3 -5 2q-35 -3 -65.5 -68t-50.5 -166.5t-31.5 -176.5t-18.5 -146q-3 -29 -25.5 -47t-50.5 -16h-2
q-21 3 -35 18.5t-14 36.5q-14 457 -96 574q-15 22 -27 24q-44 -35 -72 -159t-34 -231l-6 -106q-7 -329 30 -534q6 -60 -26 -68q-44 -9 -78.5 2t-44.5 49zM881 958v-8v-10q0 -4 1 -10.5t1 -9.5l2 -11q7 -42 16 -137q0 -6 1 -17t1 -16v-8q0 -6 2 -8v-16q0 -5 1 -16t1 -17v-29
q2 -10 2 -31v-8v-6v-14q0 -9 1 -28t1 -28v-53v-24q-2 -8 -2 -23q0 -72 -4 -158q-1 -17 -1.5 -38t-1 -35t-1.5 -23q0 -3 1 -3t1 3q2 16 6 53q0 13 4 37v8v11q2 8 2 20q1 8 2.5 23t2.5 22q0 4 1 11.5t1 11.5q0 16 2 24q0 8 1 24.5t1 24.5q0 19 2 27v27q2 35 2 108v56v26v29v12
q-2 4 -2 14v27q-2 4 -2 12v15q-2 8 -2 24q-9 76 -13 97q0 3 -1 8.5t-1 7.5q-1 2 -2 6t-2 6q-1 3 -2.5 5.5t-3 5.5t-2.5 4q-4 4 -6 4l-2 2q-4 0 -8 -11zM147 573v-55v-26q0 -7 3 -13v-12q0 -8 1 -24.5t1 -24.5q5 -98 26 -250h2q-4 28 -4 55q-2 4 -2 17q0 3 -1 9t-1 9
q0 25 -2 39v22q-2 6 -2 21v47q-2 8 -2 25v24v51q0 71 8 215q9 100 25 197q2 10 2 27q0 4 -1 9l-1 5l-4 8l-2 2q-4 3 -10 -5t-9 -19q-1 -3 -2 -10t-2 -9l-2 -10q0 -15 -4 -35q-1 -6 -2 -18.5t-2 -18.5q0 -12 -4 -32v-11v-8q0 -2 -1 -7.5t-1 -8.5q-2 -20 -7 -127v-29v-29z" />
    <glyph glyph-name="N" unicode="N" horiz-adv-x="931" 
d="M90 240q-18 172 -18 346q-4 355 47 596q18 61 45 63q52 3 94.5 -35t32.5 -88q-46 -196 -53 -516q0 -11 -1 -33.5t-1 -35.5q13 91 30 170.5t46.5 166.5t65.5 149t89.5 103t116.5 43q69 1 120.5 -33t80 -89.5t46.5 -123.5t22.5 -135.5t5.5 -124t-2 -91.5l-3 -35
q-14 -218 -57 -379q-41 -168 -88 -158q-8 2 -14 7t-11 14.5t-8.5 19t-6 23.5t-4 24.5t-3 25.5t-2 23t-1 21.5t-0.5 15.5q-13 184 -10 344q12 413 -72 513q-19 23 -34 22q-35 0 -65.5 -24t-54 -70.5t-44 -100t-35 -126.5t-26.5 -136.5t-20 -143t-13.5 -132t-9.5 -118.5
t-5 -88t-2 -53q4 -50 -26 -57q-43 -9 -78 2t-45 49q-17 63 -29 185zM698 1008q-6 -3 -6 -11q0 -6 2 -8v-6v-4q3 -12 6 -18l2 -11q15 -49 27 -133q2 -6 2 -16q2 -2 2 -8v-9q1 -5 2 -15t2 -15q0 -11 2 -17v-14q2 -10 2 -31q2 -4 2 -14v-14q0 -5 1 -14.5t1 -14.5v-27
q3 -15 3 -26v-52v-12v-12v-23v-45q0 -20 -3 -41v-37q0 -22 -2 -32q-4 -82 -4 -95q0 -3 1 -3t1 3q5 29 7 54q0 11 4 35q0 12 2 18v20q1 7 2 21.5t2 21.5q0 8 1 24t1 24q1 8 2 24.5t2 24.5v26q0 17 2 25v53v53q0 9 -1 28t-1 28q0 18 -2 26q0 19 -2 27q0 19 -2 27v14
q-2 4 -2 12q-2 8 -2 27q-4 16 -4 24q-2 8 -5.5 25t-5.5 25q0 2 -1 5t-1 5t-1 6t-1 6q-1 2 -2 6t-2 6q0 1 -1 5t-1 6q-8 20 -10 26l-6 6q-4 4 -4 7q-8 4 -9 4h-2zM147 694v-55v-100q2 -73 19 -252q0 -3 1 -3t1 3q-2 14 -2 53q0 3 -1 9t-1 9v19v39v22q-2 6 -2 23v47v24
q2 8 2 25v51q3 111 12 215q11 129 23 199v29q0 12 -2 14q0 4 -4 8v2q-6 1 -11 -6t-8 -18q-4 -16 -4 -21l-2 -8q0 -13 -4 -37q0 -15 -4 -35q-4 -50 -4 -69q-6 -66 -9 -127v-17v-14v-29z" />
    <glyph glyph-name="O" unicode="O" horiz-adv-x="890" 
d="M477 0q-105 0 -183.5 36.5t-119.5 95.5t-67 130t-30.5 142t-4 130t5.5 96l6 36q1 7 2 20t8 52t16.5 77t28 89.5t41 95.5t57.5 88.5t76 75.5t97.5 50t121.5 17h6.5t18 -1t25 -5t28.5 -11.5t29 -20.5t26 -31.5t19 -45t9 -61.5t-5 -80q-10 -37 -43 -60q28 -9 52.5 -23.5
t52 -40t47 -61t35.5 -85.5t19 -113.5t-3 -145.5q-8 -97 -33 -174t-58.5 -122.5t-71.5 -78t-75 -46t-66.5 -20t-47.5 -5.5h-19zM301 618q-6 -115 -1 -212t21 -168.5t54.5 -116t99.5 -55.5q5 -1 13 -2t31.5 2.5t46 13t51 35.5t51 64.5t42 105t27.5 151.5q11 86 2 150.5
t-24.5 110.5t-42 76.5t-51.5 48.5t-53.5 27t-47.5 12.5t-32 4.5h-5q-2 19 13.5 39t40.5 23q24 5 51 0q28 115 20.5 167t-30.5 59l-23 7q-48 -1 -88 -31.5t-65.5 -78t-45.5 -105.5t-30 -115.5t-16 -105.5t-8 -77zM178 377q2 -20 10 -51q2 -9 7 -26t6 -19q2 -2 2 -7q2 0 2 -4
q1 -2 2 -5t2 -5q1 -3 4 -10t4 -10q1 -1 2 -4.5t2 -4.5q1 -2 2 -5t2 -5l8 -16q15 -25 35 -53q15 -21 31 -37q1 -1 1 0t-1 2q-2 4 -8 10q-1 2 -4 6t-4 6q-2 2 -5.5 6.5t-5.5 6.5q-1 2 -10 16q-18 30 -37 76q-17 43 -26 100q-9 41 -13 115q0 39 4 121q14 98 19 122
q18 104 55 220q10 31 10 49l-4 10q-4 3 -10.5 -4.5t-11.5 -20.5l-12 -30q-21 -70 -23 -80q-13 -57 -16 -78q-19 -96 -23 -145q-15 -136 4 -246z" />
    <glyph glyph-name="P" unicode="P" horiz-adv-x="917" 
d="M174 0q-43 4 -68 161.5t-30 363.5t-3.5 378t7.5 236q1 1 0 9.5t2 22.5t8 27.5t18 24t31 12.5q64 10 119 -2q2 0 4.5 -1t9.5 -5.5t12.5 -12.5t9.5 -24.5t3 -38.5q0 -108 -2 -231q72 280 203 303q71 13 131 -3t101.5 -54.5t69.5 -94t38.5 -122.5t5.5 -140q-8 -110 -59 -202
t-129 -145.5t-177.5 -69t-206.5 27.5q-33 -428 -98 -420zM694 608q-4 -4 -4 -8q-2 -2 -8 -14q-3 -5 -8 -13t-6 -10q-2 -2 2 -2l19 28.5t28 43.5q4 8 6 14q0 1 1 3t1 3q4 4 4 6q3 6 6 15q1 1 2 3t2 3q0 1 1 4t1 4q2 5 6.5 15.5t6.5 15.5q1 3 2 8t2 8q2 2 2 8q1 1 2 4.5t2 4.5
q17 76 14 143q-4 44 -8 70q-2 7 -7.5 29l-8.5 34q-7 17 -19 25l-8 2q-10 -5 -6 -23q1 -2 2 -6t2 -6l2 -4q15 -48 21 -88q8 -36 8 -80q-2 -34 -6 -74q-1 -2 -2.5 -8t-2.5 -8q0 -2 -1 -8t-1 -9q-1 -2 -2 -7t-2 -7q-1 -3 -2 -7.5t-2 -6.5q-10 -38 -37 -95q-1 -2 -2 -5t-2 -5z
M281 553q0 -11 -5 -74q81 -11 142 -1.5t104.5 36.5t72.5 61t46.5 71.5t26.5 68.5t12 51l2 20q1 8 2 21.5t1.5 52t-2.5 73t-14.5 75t-30 68.5t-52.5 43.5t-80 8.5q-32 -5 -61.5 -36t-51.5 -82.5t-40.5 -108t-32.5 -125t-22.5 -119t-16.5 -104.5zM172 1055q-7 -456 0 -760
q0 -3 1 -3t1 3q1 33 7 184t11.5 311.5t8.5 270.5q1 21 -2.5 34t-6.5 16l-4 3q-7 1 -11 -14t-5 -30v-15z" />
    <glyph glyph-name="Q" unicode="Q" horiz-adv-x="901" 
d="M502 1237q7 0 19 -1t47 -12t67 -29.5t70 -59t65 -95.5t44 -144.5t15 -199.5q-8 -290 -79 -469q3 -1 12.5 -4t15.5 -4q43 -19 49 -37q7 -15 -12.5 -17t-30.5 3q-9 2 -28.5 6t-28.5 6q-95 -180 -254 -180q-212 0 -319 154q-45 -11 -66 -4q-31 9 -51 32q-23 27 14 39
q43 14 55 17q-36 87 -48 195.5t-6 173.5l7 65q1 7 2 20t8 52t16.5 77t27.5 89t40.5 95t57 88.5t75 75.5t96.5 50t120 18zM266 129q1 -3 2.5 -2.5t-0.5 2.5q-39 81 -55 133q-1 5 -4.5 13.5t-3.5 9.5l-6 24q0 5 -4 13q0 8 -2 12q-1 4 -3.5 13t-3.5 13q-12 69 -14 111
q-4 79 -2 119q2 41 14 119q18 114 58 213q10 31 10 47l-2 10q-8 8 -25 -23q-7 -10 -10 -20l-4 -10q-19 -60 -23 -76q-13 -43 -18 -76q-15 -74 -18 -143q-4 -46 0 -127q0 -5 1 -15.5t1 -15.5q1 -4 2 -13.5t2 -13.5v-8l2 -2v-4q0 -2 1 -7t1 -7t1 -6t1 -6t1 -7t1 -8
q18 -87 51 -166q5 -11 14.5 -30t12.5 -27l2 -2q0 -1 1 -2t1 -2l2 -4q1 -2 3 -6.5t3 -6.5q8 -12 10 -16zM461 70q34 0 83.5 29.5t94.5 97.5q-165 22 -322 -2q48 -108 144 -125zM745 645q2 105 -9 191t-30.5 138.5t-43.5 92t-48 58t-44.5 29t-33.5 12.5l-12 1
q-47 -1 -86.5 -31.5t-64.5 -78.5t-44.5 -105.5t-29 -115t-16 -105t-7.5 -77.5l-2 -29q-6 -225 21 -351q87 5 111 5q136 0 264 -29q72 152 75 395z" />
    <glyph glyph-name="R" unicode="R" horiz-adv-x="917" 
d="M174 0q-43 4 -68 161.5t-30 363.5t-3.5 378t7.5 236q1 1 0 9.5t2 22.5t8 27.5t18 24t31 12.5q64 10 119 -2q2 0 4.5 -1t9.5 -5.5t12.5 -12.5t9.5 -24.5t3 -38.5q0 -108 -2 -231q72 280 203 303q71 13 131 -3t101.5 -54.5t69.5 -94t38.5 -122.5t5.5 -140q-9 -102 -53 -189
t-113.5 -142t-158.5 -78.5t-187 1.5q33 -62 70 -112t70 -82t70 -55.5t65.5 -35t59.5 -18t49 -8t38 -0.5q22 1 38 -2.5t23 -8.5t10.5 -10t3.5 -9v-3q-1 -15 -14 -25t-26 -13l-13 -3q-85 -9 -162.5 11.5t-131 54.5t-100.5 83.5t-72 86.5t-46 76q-15 -153 -37.5 -242t-52.5 -86
zM743 918q5 -39 5 -84q0 -34 -7 -74q-7 -41 -14 -64q-11 -36 -39 -94q-3 -6 -9.5 -16.5t-8.5 -14.5q-3 -6 -9.5 -13t-7.5 -9q0 -4 2 -2q31 36 52 71q1 2 3 6.5t3 6.5q4 8 8 12q0 1 1 3t1 3l4 8q1 2 3 7.5t3 7.5q17 43 23 65q9 35 12 72q4 50 4 74q-3 75 -18 133
q-4 15 -15 26l-8 5q-12 -3 -8 -23l4 -18q8 -32 16 -88zM281 553q0 -11 -5 -74q81 -11 142 -1.5t104.5 36.5t72.5 61t46.5 71.5t26.5 68.5t12 51l2 20q1 8 2 21.5t1.5 52t-2.5 73t-14.5 75t-30 68.5t-52.5 43.5t-80 8.5q-32 -5 -61.5 -36t-51.5 -82.5t-40.5 -108t-32.5 -125
t-22.5 -119t-16.5 -104.5zM182 1055q-7 -456 0 -760q0 -3 1 -3t1 3q1 26 11.5 323.5t15.5 442.5q0 21 -3 34t-6 16l-3 3q-7 1 -11.5 -14t-5.5 -30v-15z" />
    <glyph glyph-name="S" unicode="S" horiz-adv-x="913" 
d="M76 317q-1 4 -2 11t-1.5 25.5t2.5 32.5t13 27t27 15q24 4 41 -21t22 -52l6 -27q9 -41 25 -78.5t44 -75.5t74.5 -59.5t106.5 -18.5q5 0 13.5 1t32 7t45 14.5t47 25.5t42.5 39.5t27 57t6 76.5q0 6 -1.5 16.5t-21.5 45.5t-57 72q-49 52 -129 104q-134 88 -212.5 197.5
t-78.5 230.5q0 133 104 208.5t284 51.5q232 -32 215 -299q0 -3 -0.5 -8t-3 -17.5t-8 -22t-17 -17.5t-27.5 -7q-19 2 -27 24t-7 44l2 21q1 56 -12 97.5t-29.5 62t-41.5 33t-37.5 14.5t-27.5 3q-165 13 -178 -151q-3 -44 27 -96t75 -94.5t90.5 -79.5t77.5 -58l33 -20
q9 -7 40 -33.5t44 -36.5q44 -40 72 -88.5t37 -88.5t11 -75t-1 -54l-4 -20q-1 -6 -3.5 -15.5t-14 -38t-28 -53.5t-48.5 -56t-72 -53t-102.5 -36.5t-135.5 -13.5q-74 1 -133.5 20t-97.5 48.5t-65.5 71t-41.5 81.5t-20 86zM567 573q60 -46 95 -84q40 -46 59 -86q6 -11 16 -45
q6 -18 6 -41q1 0 1 -18l-1 -18q-1 -6 -2 -17t-2 -16q-1 -4 -6.5 -22.5t-9.5 -26.5q0 -2 1 -2l1 2q4 8 6 14q1 2 3 7t3 7q2 7 6 21.5t5 17.5q4 24 4 45q0 17 -2 25q0 8 -2 12q0 5 -3 14q-3 12 -6 27q-6 12 -12 27q-11 24 -31 51q-36 50 -88 96q-32 30 -106 88q-23 15 -56 41
q-4 3 -13 10.5t-13 10.5l-12 12q-3 0 -7 4l-8 6q-49 43 -84 96q-33 51 -43 107q-1 6 -2 17.5t-2 15.5q-1 3 -2 9.5t-2 8.5l-4 8l-2 4q-3 3 -10 -8q-4 -16 -4 -26v-27q0 -2 1 -5.5t1 -4.5v-2q9 -34 14 -47q5 -16 20 -43q11 -22 25 -39q2 -3 6 -8.5t6 -8.5l8 -8q1 -2 7 -8
q26 -30 63 -59q5 -5 17 -13q6 -6 14 -10q10 -7 33 -25q70 -49 114 -86z" />
    <glyph glyph-name="T" unicode="T" horiz-adv-x="698" 
d="M-23 1153q-9 8 -18 21.5t-15.5 29.5t0 28t27.5 13q92 6 330 2q221 -4 352 -16q40 -3 56 -23q12 -15 -1 -23.5t-32 -8.5q-98 0 -242 -7q25 -22 21 -71q-15 -290 -21 -574q-9 -281 -16 -362q0 -1 -2.5 -27.5t-5.5 -44t-9 -41.5t-16 -36.5t-23 -12.5q-10 0 -20 6t-17.5 18
t-13.5 24.5t-11.5 30t-8.5 28.5t-7 27l-5 20q-37 155 -50 342q-16 222 9 598q0 36 18 63q-79 -3 -152 -12q-6 0 -30 -2.5t-38 -3t-32 2.5t-27 11zM330 729q0 -172 2 -242q5 -158 20 -284q2 -2 2.5 -1.5t-0.5 3.5v26q-2 4 -2 17q0 12 -2 18v39q0 3 -1 11t-1 12v22
q-3 96 0 217q2 121 17 469q0 35 -7 49l-6 9q-6 1 -9 -7t-5 -22l-4 -33q-4 -222 -4 -303z" />
    <glyph glyph-name="U" unicode="U" horiz-adv-x="931" 
d="M291 1055q-46 -196 -53 -516q0 -29 0.5 -76.5t4 -147.5t15.5 -164.5t31 -60.5q39 8 115 207t144 445.5t95 408.5q4 32 19.5 57.5t44.5 26.5q64 3 116 -8q22 -5 30.5 -30.5t6.5 -53.5q-8 -134 -22 -596q-4 -236 -15 -377q0 -2 -2.5 -29t-5.5 -46t-8.5 -43.5t-15.5 -38
t-23 -13.5q-10 0 -20 6.5t-17.5 19t-13.5 25.5t-11.5 31t-9 30t-7.5 28l-5 20q-35 139 -49 358q-6 92 -6 189q-37 -129 -76 -240t-85 -217t-96 -172t-96 -76q-41 -8 -75 16t-54.5 69t-36 101.5t-22.5 114.5t-11 106t-5 79v30q-4 355 47 596q19 62 45 64q52 3 94.5 -35
t32.5 -88zM737 1030q-6 -318 4 -547q3 -104 9 -178q2 -27 4.5 -64t3.5 -44h2q0 38 -2 63v39q0 7 -1 22.5t-1 22.5v219q3 234 10 473q0 37 -6 49l-6 9q-6 1 -9.5 -8t-5.5 -23zM199 977q3 36 0 47l-6 10q-4 3 -10 -5.5t-9 -20.5l-6 -31q-7 -49 -16 -154q-6 -76 -9 -139
q-3 -119 4 -233q0 -2 1.5 -6.5t1.5 -6.5v-12q2 -8 2 -25q1 -4 2 -11t2 -11q0 -15 2 -23q6 -40 12 -75q4 -27 11.5 -63.5t8.5 -39.5q2 -5 4 -3l-1 3q-14 75 -21 139q0 4 -1 12.5t-1 12.5t-1 12.5t-1 12.5t-1 12t-1 12v12q0 2 -1 7t-1 8q-2 35 -2 108v31v29q0 9 1 29t1 30
q4 78 8 117q7 87 27 215z" />
    <glyph glyph-name="V" unicode="V" horiz-adv-x="831" 
d="M27 1128q-11 77 30 91t115 14q32 0 49 -26.5t23 -61.5q24 -179 116 -610q57 -261 70 -347q2 -2 2 -10q70 187 129 426q82 308 105 526q6 50 45 80t73 17q12 -5 14.5 -31t-1.5 -43q-33 -264 -129 -604q-60 -205 -109 -338q-19 -57 -60 -125.5t-77 -81.5q-41 -22 -118 129
q-2 5 -3 6q-76 142 -145 365q-85 282 -129 624zM532 299q-1 -2 -1 -3q2 -2 4 3q2 6 20 51q0 1 1 4t1 4q1 1 2 4.5t2 4.5l6 18q14 35 15 37q40 123 57 188q38 150 53 215q36 188 39 203q5 28 0 43l-6 10q-5 1 -8.5 -5t-7.5 -19l-7 -31q-5 -30 -6 -35q-1 -6 -3 -18.5t-3 -18.5
t-3 -17t-3 -17q-1 -5 -3 -16.5t-3 -16.5q-1 -3 -2 -9.5t-2 -9.5q0 -2 -1 -7.5t-1 -8.5q-1 -5 -3 -15.5t-3 -15.5q-2 -13 -7 -35.5t-6 -27.5q-20 -102 -49 -211q-2 -7 -5 -22t-5 -23q-2 -7 -6 -20.5t-6 -20.5q-2 -13 -11 -35q-1 -7 -4 -18t-4 -15q-2 -5 -5 -15.5t-5 -15.5
q0 -4 -4 -12q-1 -2 -2 -6t-2 -6q-4 -17 -13 -39zM150 1094q-4 1 -6 -1.5t-3 -8t-1.5 -11t-0.5 -12.5q1 -4 2 -12t2 -11l2 -10q55 -318 123 -545q2 -10 6 -26q1 -4 4.5 -12.5t4.5 -12.5q11 -37 14 -45q10 -35 12 -41l6 -18q1 -3 3.5 -9.5t3.5 -9.5q6 -18 12 -33q1 -2 3 -7
t3 -7q4 -8 4 -14q11 -22 18 -43q3 -3 4 -1q0 1 -1 3q-8 20 -21 59q-6 18 -12 39q-2 6 -7.5 21t-7.5 24q-2 7 -12 47q-2 2 -2 6q0 2 -1 5t-1 4q-1 2 -2 6t-2 6q-1 4 -3 13.5t-3 13.5q-3 16 -8 28q-1 4 -3.5 13.5t-3.5 13.5q-1 5 -3 15.5t-3 15.5q-1 2 -2 6.5t-2 7.5
q0 6 -4 14q-44 197 -90 473q-5 33 -14 47z" />
    <glyph glyph-name="W" unicode="W" horiz-adv-x="1159" 
d="M322 4q-55 0 -98 37.5t-69 97.5t-44 132.5t-25 145t-11 132.5t-3 97v38q3 132 16 235t29.5 156t32.5 87t27 43l11 9q42 38 142 23q15 -3 23 -15t5 -26q-20 -98 -34 -219.5t-18 -193.5l-3 -72q-25 -437 39 -532q11 -17 20 -17q36 2 69 80.5t55.5 188.5t39.5 219.5
t25 185.5l8 77q15 40 76 58q30 9 76.5 -4.5t46.5 -34.5q3 -204 13 -365.5t22 -245.5t23 -139t18 -70l8 -16q32 -11 57 40t37.5 132t20.5 163.5t10 142.5l2 59q11 358 -90 573q-5 11 2.5 19.5t19.5 7.5q55 -14 94 -79.5t56 -150t26.5 -166.5t9.5 -138v-56q0 -13 -0.5 -36
t-4.5 -89t-12 -126t-26 -134t-43 -127.5t-65.5 -91t-91.5 -39.5l-20 -1q-65 9 -112 122q-77 182 -85 590q-2 -15 -5.5 -40.5t-17.5 -99t-30 -140t-42.5 -148t-56 -140.5t-70 -99t-83.5 -40zM678 782v-6q2 -159 27 -336q3 -16 7 -39t7 -39.5t6 -29.5q4 -14 10 -36.5t8 -29.5
h2q-6 30 -8 37q0 9 -4 25q0 8 -4 28q0 11 -4 31q0 10 -2 16v17q-2 4 -2 16q-2 6 -2 19q-2 10 -2 34q-10 123 -10 291q0 18 -9 31l-6 6q-10 0 -14 -20v-15zM174 696q-3 -67 0 -125q4 -73 8 -108q7 -80 31 -170q5 -19 12 -37.5t13.5 -36t9.5 -24.5q1 -3 2.5 -2.5t-0.5 2.5
q-1 3 -4 11.5t-4 14.5l-2 2v4q-1 1 -2 4.5t-2 4.5q0 1 -5 16q0 2 -2 4v4q-2 4 -2 10q-1 3 -3 9.5t-3 9.5q0 8 -4 20q0 2 -1 5.5t-1 4.5q0 2 -1 6.5t-1 6.5q-1 3 -2 10.5t-2 11.5t-2 12.5t-2 12.5q0 8 -2 12v12q-1 4 -2 12.5t-2 12.5q-1 16 -2 34.5t-2 41.5t-2 35
q-3 110 10 233q8 109 28 217q2 13 2 45l-6 10q-10 5 -18 -26l-8 -31q-24 -159 -27 -291z" />
    <glyph glyph-name="X" unicode="X" horiz-adv-x="882" 
d="M866 59q0 -10 -15.5 -23.5t-49 -25.5t-74.5 -12q-51 0 -103.5 33.5t-98 91t-80.5 114t-68 121.5q-96 -169 -162 -303q-10 -24 -25 -43t-30 -18q-30 3 -36.5 36.5t9.5 67.5q63 151 193 373l-17 41q-175 379 -233 608q-12 75 12 88q21 14 54.5 21t68 6t63 -19t37.5 -51
q52 -207 152 -456q182 315 305 481q38 51 55 47q35 -12 39.5 -58t-26.5 -87q-125 -172 -322 -500q0 -2 -4 -6q164 -446 297 -482q7 -2 16.5 -5.5t26 -15t16.5 -24.5zM618 152q3 -3 4 -1q0 1 -1 3q-3 4 -9.5 12t-9.5 12q-4 4 -7.5 9.5t-7.5 12.5t-7 11q-2 3 -6.5 9t-6.5 9
q-1 2 -3 5.5t-3 5.5q-1 1 -2 3t-2 3q-2 2 -2 4q-3 4 -12.5 20t-14.5 25q-49 84 -108 225q-2 5 -7 15.5t-7 15.5t-6.5 16.5t-6.5 16.5q-8 20 -12 32q-2 4 -14 33q-16 43 -48 133q-48 147 -75 248q-9 32 -23 51l-8 9q-12 0 -4 -37l8 -37q48 -161 113 -332q70 -172 112 -254
q2 -4 7.5 -13.5t7.5 -13.5l12 -24q2 -3 27 -47q2 -4 6 -11.5t6 -11.5q8 -12 12 -20q1 -1 3 -4t3 -4q2 -2 2 -7l4 -4q2 -3 6.5 -9t6.5 -9q25 -38 73 -100z" />
    <glyph glyph-name="Y" unicode="Y" horiz-adv-x="952" 
d="M813 1186q30 -41 46.5 -103.5t18.5 -143t0 -131.5t-8 -127q-1 -18 -2 -26q-6 -60 -14 -119.5t-25 -140t-38.5 -150t-55.5 -141t-74.5 -122t-97.5 -84.5t-123 -37q-9 -1 -24 -0.5t-53 10t-66 27.5t-48.5 60t-15.5 101q4 60 47.5 115.5t109.5 96t125 67.5t116 45
q23 150 34.5 336t12.5 297v110q-2 -16 -5.5 -43.5t-18 -107.5t-31.5 -153t-46 -163t-61.5 -156t-78.5 -113t-97 -52q-48 -4 -87 10.5t-66.5 41.5t-48.5 69.5t-33.5 87t-20 101.5t-10 105.5t-2 107.5t2.5 99t5 87q1 5 2.5 13t11 29.5t24.5 39.5t44 37t67 28q39 9 53 -18.5
t8 -59.5l-5 -31l-14 -144q-27 -383 60 -466q18 -18 42 -20q32 -3 67 66t64 172t55 207.5t48.5 186.5t35.5 95q3 5 9 13t24.5 23.5t37.5 21t46.5 -6.5t52.5 -47zM248 455q2 -1 3 0t-1 2q-10 14 -21 35q-2 3 -5.5 11t-4.5 11q-2 4 -5 14.5t-5 14.5q-17 68 -23 139
q-11 113 7 309q3 21 -5 33l-6 6q-4 1 -8 -4.5t-6 -13.5l-4 -23q-8 -91 -4 -201q3 -85 16 -159q17 -75 35 -113q14 -33 37 -61zM430 -63q126 19 191 374q-55 -18 -100.5 -39.5t-76 -42.5t-55 -44t-37 -44.5t-22.5 -42.5t-11.5 -38.5t-3 -32.5t1.5 -25q7 -36 35.5 -52
t53.5 -14zM793 741q7 138 2 222q0 25 -11 47l-8 8q-10 0 -10 -31v-33q4 -53 4 -153q-4 -94 -8 -139q-8 -112 -29 -232q-11 -64 -39 -168q-2 -9 -8 -29t-8 -30q-3 -8 -7.5 -22t-6.5 -19q1 -2 2 -2q33 85 47 137q6 18 8 22q1 3 6 23q0 2 1 6t1 6q1 2 2 6.5t2 6.5q1 4 3 13
t3 13q18 79 23 111q11 53 18 117q4 27 13 120z" />
    <glyph glyph-name="Z" unicode="Z" horiz-adv-x="845" 
d="M649 1231q67 0 109 -39q18 -19 29 -34t22 -36t8 -42t-20 -40q-143 -147 -308 -370h39h6t13.5 -1.5t16.5 -3.5t13 -7t5 -11t-3 -15t-17.5 -24.5t-39.5 -17.5h-90q-29 -37 -86 -116.5t-129.5 -197.5t-85.5 -172q106 -12 277 -8q199 4 307 23q26 4 45 -21t14 -57
q-2 -16 -35 -23q-102 -18 -346 -18q-14 0 -61.5 1t-70 1.5t-58.5 3.5t-66 8q-84 11 -117 66q-15 33 -16.5 76t10 89t28.5 91.5t42 93t47.5 85t46.5 73.5h-57q-21 4 -21 24v16t7 26t22 16h107l10 12q175 270 346 457h-72q-201 -4 -307 -23q-28 -4 -47 20t-14 58q2 17 34 23
q114 20 349 16q75 0 114 -2zM653 1032v12q-6 10 -30 -14l-23 -24q-2 -2 -6 -7.5t-6 -7.5q-13 -13 -15 -16q-4 -5 -12 -15.5t-12 -15.5t-12.5 -15.5t-12.5 -15.5l-24 -30q-2 -2 -6.5 -7.5t-6.5 -7.5q-2 -3 -5 -8t-5 -8q-11 -11 -22 -29q-7 -9 -21.5 -27.5t-21.5 -27.5
q-67 -93 -138 -201q-16 -28 -26 -43q-4 -8 -6 -10q-4 -8 -6 -10q-2 -3 -5.5 -10.5t-5.5 -10.5q-4 -6 -11 -18.5t-11 -18.5q-3 -5 -9.5 -16t-9.5 -16q-2 -5 -7 -15.5t-7 -15.5q-2 -2 -14 -27q-4 -9 -11 -22.5t-10 -18.5q0 -2 1 -2l1 2q28 49 31 54l4 8q1 2 3 5t3 5q2 4 10 16
q3 7 11.5 20.5t11.5 18.5q93 140 123 181q62 91 147 196q136 163 146 174q15 17 26 39z" />
    <glyph glyph-name="bracketleft" unicode="[" horiz-adv-x="477" 
d="M137 25q-17 10 -28 24q-11 11 -19 31q-4 13 -8 35v8v8q-2 4 -2 14q0 19 -2 29q0 12 -1 34t-1 34q0 6 -1 18.5t-1 18.5v38q-2 12 -2 39v41v43v41q2 29 2 88q0 14 1 43t1 45q1 15 2 43t2 43q0 32 4 86v23q0 3 1 9.5t1 10.5q0 6 1 20t1 21q1 14 4 39.5t4 38.5v17q0 3 1 9
t1 9q0 13 4 37q2 26 13 67q2 5 6 15.5t6 15.5q7 17 18 31l2 2q0 1 7 8q1 1 2 3t2 3l8 4q6 6 8 7q2 2 10 6q2 1 6.5 3t6.5 3q4 0 6 2h8q3 1 8 2t8 2h4h2h3h6h47q39 -3 82 -10q35 -11 35 -19q-3 -15 -25 -24q-32 -12 -68 -17q-4 -1 -12 -2t-12 -2q-9 0 -25 -4q-6 0 -10 -2h-2
v-2l2 -2v0h-2v-2q-2 -2 -2 -4v-2l-2 -2q-1 -3 -6 -23q-8 -24 -11 -63q-1 -6 -2 -21t-2 -22v-15v-16q-2 -10 -2 -33q-1 -15 -4 -69t-4 -88q0 -14 -1 -45t-1 -48q-1 -16 -2 -48.5t-2 -49.5q-1 -33 -3 -100.5t-3 -100.5q0 -33 -2 -49v-49v-49q-2 -14 -2 -45q0 -8 -1 -23t-1 -22
t-1 -21.5t-1 -21.5v-4v-4v-7v-4l2 -2v-4v-2h2q2 -8 12 -18q2 -2 10 -6q12 -6 15 -7q10 -4 34 -8q46 -8 64 -10q42 -9 47 -10q14 -3 18 -10q7 -7 -16 -17q-20 -7 -61 -12q-32 -4 -62 -4q-6 1 -20 2t-21 2q-27 3 -53 12q-20 8 -31 17zM137 487q0 -116 2 -159v-56q1 -7 2 -21.5
t2 -19.5q0 -3 1 -3t1 3v25v31v35q0 7 1 20t1 20q3 97 9 195q2 38 11.5 195t12.5 227q2 21 -0.5 34t-5.5 16l-4 3q-5 1 -8.5 -6.5t-5.5 -19.5l-4 -31q-12 -292 -15 -488z" />
    <glyph glyph-name="backslash" unicode="\" horiz-adv-x="555" 
d="M268 799q9 -31 26.5 -89t24.5 -81q8 -26 24.5 -80t23.5 -80q6 -22 13.5 -45.5t15.5 -49t12 -38.5q2 -6 7.5 -24.5t8.5 -26.5q7 -25 12 -37q4 -14 19 -60l6 -24q3 -7 8 -25q13 -63 14 -73q3 -59 -28 -68q-19 -5 -54 59l-28 68q-8 17 -19 45q-9 24 -18 51q-4 10 -11.5 30
t-11.5 30q-3 14 -10 32q-2 6 -5 17t-5 16q-32 92 -90 289q-47 171 -76 274q-26 100 -27 107q-8 27 -10 41q-2 6 -8 30q-17 92 -6 123q3 7 6.5 11t5.5 4h2q26 0 76 -129q37 -88 102 -297zM168 954q5 -27 8 -36q1 -4 3 -12.5t3 -12.5t3 -13.5t3 -13.5q19 -75 39 -143
q48 -176 129 -440l13 -33q9 -16 16 -12q12 8 0 49q-18 56 -60.5 186t-62.5 191q-10 31 -29.5 90t-27.5 84q-3 15 -10 34l-11 33q-1 6 -4 15l-4 12q-2 10 -6 22q0 3 -1 3t-1 -3z" />
    <glyph glyph-name="bracketright" unicode="]" horiz-adv-x="477" 
d="M223 72v2v2v0v0l2 2q0 2 2 4v2l2 2q1 3 3.5 11t3.5 14q7 29 10 61q1 6 2 21.5t2 23.5v14v15q2 10 2 33q1 15 4 69t4 88q0 16 1 46t1 46q1 16 2 49t2 50q1 34 3 101t3 101q0 34 2 50v49v47q2 16 2 47q0 24 3 45q0 29 2 41v4v4v8l-2 2v4v3l-3 2v2q-3 10 -12 16
q-1 1 -4.5 3.5t-5.5 4.5q-8 4 -14 4q-6 2 -18.5 6t-16.5 5q-10 2 -32.5 5t-33.5 5q-31 4 -45 8q-16 6 -18 10q-7 9 16 17q16 6 62 12q32 4 59 4t43 -2q48 -12 53 -14q1 0 13 -5.5t18 -9.5q19 -11 29 -24q12 -15 18 -33q3 -7 8 -33v-10v-6q0 -2 1 -7.5t1 -7.5v-30
q1 -10 2 -33t2 -35q0 -23 2 -35v-39q0 -7 1.5 -20.5t1.5 -20.5v-41v-40v-43q-3 -43 -3 -86q-2 -29 -2 -89q-1 -14 -2 -44t-2 -44q0 -28 -4 -86v-20q-2 -8 -2 -21q-1 -7 -2 -21t-2 -20q-2 -27 -6 -77v-19q-2 -6 -2 -18q-1 -6 -2 -17.5t-2 -17.5q-3 -34 -13 -68q-2 -5 -6 -16
t-6 -16q-7 -18 -18 -29q0 -2 -2 -4q0 -2 -6 -8q-3 0 -7 -4q0 -1 -6 -7q-4 -4 -8 -6q-2 -2 -10 -6t-12 -4q-2 -2 -9 -2q-2 -2 -6 -2q-6 -2 -16 -2h-4l-2 -2h-2h-6h-48q-48 3 -82 12q-34 6 -34 19q0 12 24 24q9 4 68 16q4 0 11 1.5t11 1.5q4 1 12.5 2t12.5 2q2 0 6 1t6 1z
M315 207q0 -3 1 -3t1 3q1 2 5 24q0 2 1 7.5t1 7.5q0 10 2 16q0 13 4 37q0 6 1 20t1 21q9 84 12 199q4 73 8 223q0 39 1 108.5t1 98.5q-3 35 -8 45l-6 8q-6 1 -9 -7t-5 -22l-2 -30q4 -200 4 -275q0 -158 -2 -221q0 -76 -4 -162q0 -11 -1.5 -30.5t-1.5 -26.5q-1 -7 -2 -21.5
t-2 -19.5z" />
    <glyph glyph-name="grave" unicode="`" horiz-adv-x="335" 
d="M113 1118q-9 6 -16.5 15t-10.5 15l-4 5q-9 16 -10 30t2 19l4 6q15 12 26 9l13 -5q9 -3 73 -41q5 -3 19 -11t20 -11q22 -14 25 -16q3 -3 8 -13q2 -4 2 -12l-4 -14q-3 -9 -12 -15q-2 0 -10 -4h-13q-22 -3 -59 12q-22 9 -53 31z" />
    <glyph glyph-name="a" unicode="a" horiz-adv-x="851" 
d="M967 553l18 -18q6 -12 6 -29q-15 -91 -37.5 -173t-57.5 -162t-86.5 -126.5t-111.5 -44.5q-145 5 -186 354q-15 -49 -33.5 -92.5t-46.5 -89t-59 -77t-74 -50.5t-90 -16q-4 0 -11.5 1t-29 6.5t-41.5 14.5t-46.5 28.5t-48 45.5t-40.5 68t-28.5 93t-9 124.5t14.5 158.5
q17 101 50 185.5t74 140t88.5 95.5t95 56t92 17t81 -17t60.5 -51q0 2 2 2q0 3 1.5 8t6.5 17.5t11.5 21.5t19.5 14.5t29 2.5l14 -3q14 -4 18.5 -5t19.5 -5.5t22 -7.5t20 -9.5t20 -12t16 -14.5t13.5 -18t7.5 -21t2 -25q-6 -74 -6 -414q-12 -428 31 -448q21 -10 57.5 55t73 179
t55.5 231q2 8 9.5 11t13.5 -1zM66 530q8 41 24 86q6 25 33 89q17 35 45 86q9 18 49 75q33 46 53 66q14 19 19 33v10q-6 9 -27 -8q-2 -2 -6 -6.5t-6 -6.5l-6 -6q-76 -97 -127 -205q-25 -59 -37 -96q0 -2 -1 -5t-1 -5q-2 -2 -2 -6q-2 -2 -2 -6q-1 -3 -6 -23q-5 -15 -5 -20
q-1 -2 -2 -5.5t-2 -5.5q0 -6 -2 -10q-14 -77 -14 -139v-14v-13v-22q1 -6 2 -19t2 -18h2q-4 51 4 115q0 3 1 9t1 9q0 2 1 5.5t1 4.5q0 6 2 10v11q2 4 2 10q5 15 5 20zM502 657q0 140 2 199q-3 38 -13 64t-23 36t-25 14t-21 2l-8 -1q-82 -18 -165 -193q-85 -180 -115 -390
q-30 -214 27 -283q22 -26 56 -25q47 2 88 34.5t68.5 77t51 109.5t36.5 115t23.5 113t12.5 83.5t5 44.5zM655 172h2q-10 45 -16 125q-4 54 -4 86q-2 33 -2 98q-2 134 12 402q3 31 -4 41l-6 8q-6 1 -9 -6t-5 -19l-5 -28q-7 -156 -4 -258q0 -104 7 -207q5 -79 16 -152
q3 -17 6.5 -34.5t7 -33.5t4.5 -22z" />
    <glyph glyph-name="b" unicode="b" horiz-adv-x="815" 
d="M489 940q151 -1 232 -143t67 -377q-7 -111 -43 -196.5t-88.5 -134t-112 -71t-120.5 -18.5q-102 8 -168 119q0 -11 1 -27.5t1 -21.5v-7.5t-2.5 -16t-6.5 -20t-13.5 -16t-22.5 -8.5q-139 -14 -156 70q-12 61 -10 568.5t14 639.5q0 3 0.5 7.5t3.5 16.5t7.5 21.5t13.5 18
t20 10.5q18 3 48.5 -1t65.5 -15t58 -37.5t19 -63.5q-11 -81 -25 -449q87 155 217 152zM184 1171q0 25 -3 41t-6 20l-3 3q-4 2 -7.5 -5t-5.5 -17.5t-3 -21t-2 -18.5v-8q-10 -634 0 -911q0 -3 1 -3t1 3q0 22 4 162q3 97 6 239q17 483 18 516zM594 410q3 21 5.5 53.5t5 93
t-3 115.5t-17 106.5t-39.5 81t-68 25.5q-43 -5 -79 -31.5t-58 -60.5t-39 -79.5t-24.5 -77.5t-12.5 -65q-4 -165 -6 -256q6 -38 16 -75.5t28.5 -81t50 -71.5t71.5 -30q27 -1 50.5 15t40 46t29.5 61t22 72t14 67t9.5 58.5t4.5 33.5zM682 723l-8 4q-8 -2 -8 -22l4 -19
q12 -50 18 -96t6 -86q0 -55 -2 -80q-4 -47 -8 -68q-7 -50 -27 -104q0 -2 -1 -5.5t-1 -4.5q-2 -2 -2 -6q0 -1 -1 -2.5t-1 -2.5q-4 -12 -6 -16l-4 -8q0 -1 -1 -3t-1 -3q-1 -2 -3 -6.5t-3 -6.5h2q20 32 39 82q9 21 20 62q10 39 15 69q11 69 8 154q-6 77 -21 141q-2 19 -14 27z
" />
    <glyph glyph-name="c" unicode="c" horiz-adv-x="645" 
d="M750 553q12 -6 18 -18q9 -12 6 -29q-14 -88 -42 -172t-70.5 -161t-106 -124.5t-137.5 -48.5q-84 -1 -151 26.5t-105.5 71.5t-66 97.5t-38 107.5t-15.5 98.5t-4 72.5l1 28q0 7 1 19.5t5.5 51t11.5 75.5t22 87.5t34 93.5t50.5 87.5t69 75.5t90.5 50t115 19q5 0 13.5 -0.5
t30 -7t38 -18t29 -37t10.5 -60.5q0 -13 -8 -18q-28 -35 -57 -29q10 46 2.5 68.5t-21.5 26.5l-14 5q-56 1 -98 -52.5t-61.5 -130t-31 -153t-12.5 -130.5l-2 -54q-3 -172 48 -282.5t136 -116.5q50 -1 110 65.5t109 177t68 228.5q2 8 9.5 11t13.5 -1zM236 831q11 28 8 41l-2 9
q-8 6 -25 -19l-10 -26q-25 -63 -41 -131q-19 -80 -23 -123q-14 -107 0 -209q3 -24 17 -82q14 -43 24 -66q0 -1 2 -6.5t4 -7.5q5 -10 5 -12q3 -4 6.5 -12.5t5.5 -10.5q9 -15 22 -33q-19 38 -24 47q-16 40 -25 68q-1 2 -2 5t-2 5q0 7 -2 11q-4 12 -4 20q-3 11 -8 45
q-8 62 -8 98q0 88 24 205q20 96 58 184z" />
    <glyph glyph-name="d" unicode="d" horiz-adv-x="942" 
d="M1040 553q4 -3 19 -18q6 -12 6 -29q-15 -91 -37.5 -173t-57.5 -161.5t-86.5 -126t-111.5 -45.5q-128 2 -178 324q-14 -46 -32 -87.5t-46 -87t-60.5 -77.5t-77.5 -51.5t-95 -16.5q-4 0 -11.5 0.5t-29 6t-41.5 13.5t-46.5 26t-48 41.5t-40.5 61.5t-28.5 84t-9 112t14.5 143
q23 125 76 220.5t116.5 144.5t130.5 70t124 7.5t92 -53.5q1 33 28 411q1 3 2 8t6.5 17.5t12.5 21t20 14t29 1.5q2 0 16 -3.5t21 -5.5t22.5 -6.5t24 -9t22 -11.5t21 -15t15 -18.5t10.5 -23.5t2 -28q-6 -72 -19.5 -323.5t-13.5 -383.5q-17 -434 30 -448q23 -6 60 58.5
t72.5 177t54.5 229.5q2 8 9 11t13 -1zM160 504q1 3 24 76q14 36 33 67q12 27 35 62q10 17 10 28l-2 11q-7 4 -22 -11q-6 -6 -9 -12l-4 -4q-52 -84 -80 -184q-23 -81 -26 -158q-3 -64 4 -117q5 -35 6 -41q4 -20 6 -28h2q-8 80 -8 96v14v16q0 23 2 35q0 13 2 19v8q0 6 2 10
q0 3 1 9.5t1 9.5q0 6 4 18q5 33 19 76zM573 573q0 105 2 164q-1 38 -9.5 65t-19.5 38.5t-22 17t-18 4.5h-8q-82 -15 -167 -173q-86 -162 -119 -353q-33 -195 22 -258q22 -25 57 -23q64 2 116 53t80.5 116.5t49.5 147.5t27.5 127t8.5 74zM729 1143q2 32 -2 49l-6 10
q-6 1 -10 -8.5t-6 -22.5l-5 -32q-12 -230 -14 -301q-4 -177 -2 -242v-27v-24q2 -16 2 -45q0 -8 1 -22t1 -21v-21q0 -1 1 -4t1 -4v-10q0 -5 1 -16.5t1 -16.5q2 -10 2 -29q2 -10 3.5 -26t2.5 -19q0 -3 1 -3t1 3q0 17 -2 27v16q0 6 -2 8v11q0 12 -1 40t-1 44v24v13v12
q0 9 1 26.5t1 26.5v57q2 8 2 29v29q6 166 29 469z" />
    <glyph glyph-name="e" unicode="e" horiz-adv-x="675" 
d="M782 553q13 -7 19 -18q9 -12 6 -29q-14 -88 -42 -172t-70.5 -161t-106 -124.5t-137.5 -48.5q-84 -1 -151 26.5t-105.5 71.5t-66 97.5t-38 107.5t-15.5 98.5t-4 72.5l1 28q0 7 1 19.5t5.5 51t11.5 75.5t22 87.5t34 93.5t50.5 87.5t69 75.5t90.5 50t115 19q6 0 16 -0.5
t35 -11.5t43 -31.5t31.5 -67t9.5 -110.5q-6 -101 -57.5 -192t-120 -147t-139.5 -79q4 -152 55 -248t129 -102q50 -1 110 65.5t109 177t68 228.5q2 8 9 11t13 -1zM494 991q-40 5 -73.5 -21t-54 -74t-36 -101.5t-23.5 -116t-11.5 -103.5t-4.5 -77q86 35 160.5 126t85.5 199
q4 47 1.5 78t-10 49t-15 27t-13.5 11zM274 127q1 -3 2.5 -2.5t-0.5 2.5q-4 5 -8 12.5t-9 18t-9 16.5q-20 41 -29 70q0 2 -1 5t-1 5q-1 2 -2 5t-2 5q-1 3 -3 10.5t-3 10.5q-1 6 -4 22t-4 25q-6 21 -6 47q-2 10 -2 27q0 4 -1.5 12t-1.5 12q0 90 21 213q18 88 55 191
q11 28 8 40l-2 11q-11 5 -22 -21l-12 -26q-23 -68 -39 -136q-15 -69 -21 -127q-13 -104 2 -215q9 -46 21 -84q8 -27 24 -67q4 -8 8 -14q1 -2 3.5 -6.5t3.5 -6.5q8 -16 12 -22q9 -15 22 -33z" />
    <glyph glyph-name="f" unicode="f" horiz-adv-x="397" 
d="M319 1358q44 0 75.5 -21.5t46 -57t20.5 -69t6 -69.5q0 -12 -6 -21q-19 -24 -53 -24q-11 0 -11 12q0 20 -1.5 41.5t-6.5 52t-16.5 49t-28.5 17.5q-28 -3 -46 -71t-22 -135l-4 -67q-2 -51 -6 -137h94l5 -2.5t8 -11t4 -23.5q-3 -26 -23 -26q-41 0 -90 -2q-18 -638 -10 -730
v-7t-2 -15.5t-6 -20.5t-13 -16t-22 -8q-21 1 -49.5 -0.5t-58.5 16t-37 51.5q-11 60 -15 730h-28q-19 2 -19 18v5t1 11t3.5 14.5t7.5 11.5t13 5h22q0 27 1 77.5t1 72.5q0 7 0.5 20t6 49t15 69t29.5 73.5t47 69.5t70.5 49t97.5 20zM184 1034q2 25 -4 49l-6 9q-5 1 -8.5 -6.5
t-7.5 -22.5l-2 -35q-9 -166 -9 -305q0 -64 5 -244q2 -16 2 -49v-12q2 -4 2 -12v-23q1 -7 2 -21.5t2 -21.5q0 -7 1 -20t1 -19q2 -12 2 -33q1 -5 2 -15t2 -15q1 -8 2 -23.5t2 -21.5q0 -3 1 -3t1 3q0 7 -1 27.5t-1 35.5q-2 2 -2 8v10v21q0 7 -1 22.5t-1 22.5v219q0 126 6 246
q2 101 10 229z" />
    <glyph glyph-name="g" unicode="g" horiz-adv-x="903" 
d="M729 1104q4 -1 10.5 -2.5t24 -8t31.5 -14t26.5 -20.5t14.5 -27q7 -38 -7.5 -462.5t-31.5 -532.5q-9 -55 -21 -92.5t-36 -74t-60 -56.5t-94.5 -28.5t-136.5 -0.5q-5 0 -12.5 1.5t-30.5 6.5t-40.5 14.5t-42 26t-34.5 40t-18.5 57t5.5 77.5q10 45 39 81t64 57t80.5 35.5
t80.5 20.5t72 9q2 68 2 242q-46 -114 -117 -187.5t-171 -68.5q-4 0 -11.5 0.5t-29 5.5t-41.5 13.5t-46.5 26t-48 41.5t-40.5 62t-28.5 84.5t-9 112.5t14.5 143q20 105 60.5 189.5t90.5 135.5t107 82t109.5 36.5t98 -9t73.5 -47.5q23 53 104 31zM612 66v67
q-229 -10 -262 -129q-11 -41 -6.5 -69t19.5 -44.5t31.5 -25.5t29.5 -12l12 -3q44 -8 77.5 5t51.5 36.5t29 57.5t14.5 61.5t3.5 55.5zM209 727q5 22 27 72q27 66 67 127q12 17 12 28l-2 9q-4 6 -22 -7l-12 -18q-16 -23 -29 -45q-4 -8 -11.5 -23.5t-11.5 -23.5q0 -1 -3.5 -9.5
t-4.5 -13.5q-2 -3 -5.5 -11t-4.5 -11t-3 -10.5t-3 -10.5q-2 -4 -8 -22q-14 -52 -21 -82q0 -3 -1 -9.5t-1 -9.5q-1 -3 -2 -9t-2 -9q0 -12 -2 -18v-19q-5 -61 -2 -115v-12q2 -2 2 -10q0 -3 1 -9.5t1 -9.5q1 -5 2 -14.5t2 -13.5h2q-4 44 -2 94v16v9q0 1 1 3.5t1 4.5v16
q2 6 2 17l6 36q0 3 1 9.5t1 9.5q0 1 1 4t1 4q0 2 1 5t1 5q1 3 2.5 9.5t2.5 9.5q4 12 4 18q1 3 3 9.5t3 9.5v6l2 4zM614 748v102v111q-3 30 -12 50.5t-19 29t-19.5 13t-15.5 4.5l-7 -1q-82 -16 -167 -175q-87 -163 -119 -354q-33 -195 23 -257q22 -24 56 -23q50 2 92 32.5
t71 80.5t50.5 102.5t35.5 114t20.5 98.5t10.5 72zM727 340q12 258 12 508q0 37 -8 53l-6 10q-10 0 -14 -34v-35q3 -389 -2 -586q-2 -75 -11 -190q-6 -76 -12 -117q0 -3 1 -3t1 3q15 60 23 155q11 128 16 236z" />
    <glyph glyph-name="h" unicode="h" horiz-adv-x="980" 
d="M1083 553q4 -3 19 -18q6 -12 6 -29q-15 -91 -37.5 -173t-57.5 -161.5t-86.5 -126t-111.5 -45.5q-52 1 -91.5 56.5t-58.5 133.5t-31 155.5t-14 132.5l-2 54q0 8 -1 22t-3 55t-5 78.5t-8.5 84.5t-11.5 82t-15 62.5t-19 33.5q-45 28 -102.5 -97.5t-104.5 -341.5t-65 -441
v-7.5t-2.5 -16t-6.5 -20t-13.5 -16t-22.5 -8.5q-139 -14 -156 70q-12 61 -10 568.5t14 639.5q0 3 0.5 7.5t3.5 16.5t7.5 21.5t13.5 18t20 10.5q18 3 48.5 -1t65.5 -15t58 -37.5t19 -63.5q-12 -81 -31 -612q100 405 241 436q137 30 215 -49.5t89 -218.5q5 -59 7 -126t1 -104
v-37q-17 -434 30 -448q23 -6 60 58.5t72.5 177t54.5 229.5q2 8 9 11t13 -1zM209 1133q1 17 0 29.5t-3 19t-4 10.5t-4 5l-1 1q-16 6 -17 -74q-5 -350 -2 -630q3 -230 10 -332q0 -3 1 -3t1 3v170q0 24 5 254q2 110 8 323t6 224zM764 254q2 -2 2 0q-3 37 -6 117q-2 51 -2 172
q2 16 2 49v24v13v12q-2 16 -2 49q-2 8 -2 25q-1 4 -2 12t-2 12v13q-2 4 -2 10q-1 4 -2.5 12t-2.5 12q-2 18 -10 45q-10 50 -26 84q-1 3 -7 15q-2 4 -6 8l-4 6q-4 4 -6 4l-8 4h-2l-4 -4v-6q0 -6 2 -8q0 -6 2 -10q1 -3 3 -8.5t3 -8.5l2 -6q27 -65 35 -119q8 -38 16 -110
q0 -4 1 -13.5t1 -13.5t1 -12t1 -12v-27v-12q0 -2 1 -6t1 -5q0 -63 2 -90q2 -46 21 -227z" />
    <glyph glyph-name="i" unicode="i" horiz-adv-x="487" 
d="M604 555q6 -3 19 -16q11 -18 8 -35q-12 -73 -28.5 -138t-46.5 -135t-68 -120t-95 -81.5t-125 -29.5q-52 2 -91 57.5t-58 133t-30.5 155.5t-14.5 132l-2 54q-3 283 12 465q1 3 2 8t6.5 17.5t12.5 21t20 14t29 1.5q17 -3 26.5 -5.5t32 -9t36 -15t29 -21t22.5 -30.5t5 -40
q-5 -121 -8 -412q-16 -438 31 -448q53 -11 105.5 57.5t90.5 176.5t60 233q1 7 7.5 10t12.5 0zM215 211h2q-3 21 -6 51q0 21 -2 33v16q0 3 -1 10t-1 11q-4 102 -4 178q0 133 2 199q4 128 8 186q0 30 -6 39l-6 8q-5 1 -9 -6t-6 -18q-2 -6 -2 -19l-2 -8q-5 -234 6 -447
q1 -6 2.5 -20.5t2.5 -20.5v-20q2 -6 2 -18q1 -6 2 -17.5t2 -17.5v-8q0 -1 1 -4t1 -5q0 -10 2 -14q5 -41 6 -51q3 -24 6 -37zM123 1184q4 40 47 48q48 10 88 -24q33 -30 35 -75q2 -34 -23 -44t-51 -3l-26 6q-3 1 -8.5 3t-18.5 10t-22.5 18t-16 26.5t-4.5 34.5zM215 1122
q2 2 0 2q-1 1 -3.5 5t-4.5 6q-4 4 -8 16q-3 9 0 18q5 15 6 17q0 2 -4 6l-6 4q-11 6 -15 2l-2 -2q-7 -22 -2 -35q3 -15 12 -24q1 -1 2.5 -2t2.5 -2q1 0 2 -1.5t2 -1.5t2 -1t2 -1t2 -1t2 -1t3 -1t3 -1q2 0 4 -2z" />
    <glyph glyph-name="j" unicode="j" horiz-adv-x="333" 
d="M172 1104q4 -1 10.5 -2.5t24 -8t31.5 -14t26.5 -20.5t14.5 -27q6 -33 -10 -451.5t-29 -545.5q0 -6 -1 -16.5t-7 -39.5t-15.5 -55.5t-28 -57t-42.5 -51t-62 -31t-84 -3.5q-2 0 -6 1t-14 5t-18.5 10.5t-17.5 20t-13.5 30t-3.5 43t10 58.5q29 107 118 252l2 649v135
q-2 76 21.5 107t93.5 12zM10 -143q45 8 45 200q-94 -176 -55 -198zM188 709q3 119 0 219q0 33 -8 45l-6 10q-6 1 -9 -8.5t-3 -22.5l-2 -30q6 -213 6 -527v-92q-2 -14 -2 -41v-37q0 -22 -2 -32v-29q0 -8 -1 -23t-1 -20q0 -3 1 -3t1 3q3 20 6 59q0 6 1 19t1 20q1 6 2 21t2 22
q2 34 5.5 108t4.5 103q4 152 4 236zM123 1249q28 18 60.5 12t56.5 -34t16 -56q-6 -21 -21.5 -29t-32.5 -5t-30.5 8.5t-21.5 11.5q-3 2 -8 5.5t-15.5 14.5t-15.5 21.5t-3.5 24.5t15.5 26zM190 1174l3 2q-6 6 -7 8l-6 12q-2 10 -2 31q0 4 -6 4h-8q-8 0 -12 -4l-2 -2
q4 -19 8 -25q8 -12 12 -16q8 -8 12 -8z" />
    <glyph glyph-name="k" unicode="k" horiz-adv-x="882" 
d="M977 555q16 -12 20 -20q10 -13 7 -29q-11 -69 -29 -137t-47 -136.5t-64 -120t-83 -83t-101 -29.5q-6 -1 -16.5 -1.5t-42 3.5t-62 15.5t-71.5 41t-75.5 72.5t-69.5 117t-58 168q-7 -290 -2 -346v-7.5t-2.5 -16t-6.5 -20t-13.5 -16t-22.5 -8.5q-139 -14 -156 70
q-12 61 -10 568.5t14 639.5q0 3 0.5 7.5t3.5 16.5t7.5 21.5t13.5 18t20 10.5q18 3 48.5 -1t65.5 -15t58 -37.5t19 -63.5q-14 -94 -29 -586q20 42 46.5 90t66.5 110.5t90.5 117.5t99.5 84q18 9 39 6q43 -4 76 -37q6 -6 5 -14t-9 -13q-171 -105 -293 -286q7 -100 22 -185.5
t35.5 -145.5t45.5 -109t50.5 -79.5t50.5 -53t47 -33.5t39 -17t27 -7l10 -1q23 -6 66.5 58.5t88 179t62.5 229.5q0 7 6.5 10t12.5 0zM209 1149q1 17 0 29.5t-3 19t-4 10.5t-4 5l-1 1q-11 3 -15 -34l-2 -37q-8 -254 -8 -623q1 -35 2 -104t2 -99q1 -12 2 -36t2 -35q0 -11 1 -29
t1 -24q2 -4 2 0v167q0 14 2 105.5t4 144.5q2 105 19 539zM561 94h2q-52 61 -53 62q-4 4 -8 12q-4 2 -8 10q-14 18 -17 25q-17 22 -33 55q-36 77 -49 125q-17 62 -24 121q-3 18 -11 26l-6 5q-12 0 -12 -19v-12v-6q14 -89 47 -166q16 -42 64 -121q37 -50 63 -76q15 -15 27 -24
q4 -5 11 -11z" />
    <glyph glyph-name="l" unicode="l" horiz-adv-x="522" 
d="M637 553l10 -10q17 -17 10 -41q-14 -85 -48 -171t-82.5 -161.5t-116.5 -122.5t-142 -47q-56 0 -96.5 55t-59 133t-28.5 156t-11 133l-1 55q0 17 0.5 47t6 116.5t15.5 165t32 174t52 164t79 114.5t110 45l25 -2q72 -18 89 -130q14 -99 -20 -261q-38 -181 -158 -283
l-6 -156q-16 -432 31 -448q17 -5 44.5 11.5t61.5 56t67 94t63.5 134.5t47.5 169q2 8 9.5 11t15.5 -1zM387 1284q-46 -19 -78 -500q69 84 90 201q47 253 0 294q-6 5 -12 5zM250 1049q0 4 -1 9.5t-1 8.5q0 2 -1 4.5t-1 3.5l-2 2q-6 1 -12 -7t-9 -19q-5 -20 -6 -23v-10
q-4 -15 -8 -41q0 -15 -4 -39t-4 -39q-2 -2 -2 -8v-10q-2 -6 -2 -19q-7 -61 -11 -141q0 -23 -2 -33v-33v-61v-31v-6v-8v-12q0 -9 1 -28t1 -28v-24q2 -8 2 -25q0 -8 1 -23t1 -22q6 -45 9 -80q0 -5 1 -16.5t1 -16.5q1 -5 2 -14t2 -14q4 -35 6 -43q0 -3 1 -3t1 3q-4 28 -4 59
q-2 6 -2 21q0 3 -1 9t-1 9q0 31 -2 45v25v24q-2 16 -2 51v29v27v57q2 86 14 240q12 118 31 219q4 24 4 31z" />
    <glyph glyph-name="m" unicode="m" horiz-adv-x="1409" 
d="M1507 553q16 -16 17 -18q9 -12 6 -29q-14 -85 -44 -172.5t-72 -163.5t-99.5 -123.5t-118.5 -46.5q-52 1 -91.5 56.5t-58.5 133.5t-31 155.5t-14 132.5l-2 54q0 7 -0.5 19t-1.5 48t-3.5 70t-5.5 77.5t-8 79t-11 65.5t-14.5 46t-18.5 13q-34 -10 -61.5 -89.5t-42 -186
t-25 -211t-13.5 -176.5l-3 -72q0 -3 -1.5 -7.5t-7 -16.5t-13.5 -21.5t-23 -18t-33 -10.5q-28 -2 -101 -2q-4 0 -10 1.5t-22 8.5t-28.5 17.5t-23.5 32t-12 49.5q-2 35 -5 143.5t-5.5 201.5t-3.5 101q-1 5 -13 -20q-58 -121 -129 -342q-39 -120 -61 -215q-2 -5 -4.5 -13.5
t-12.5 -30t-20.5 -37.5t-27.5 -29.5t-35 -12.5q-31 0 -54.5 38t-30.5 76l-8 37q-26 197 -32 385t1 278l7 89q0 6 4 21t12.5 36.5t28.5 34t47 6.5q60 -12 112 -53.5t48 -87.5q-29 -264 -39 -420q22 85 46 159.5t57.5 155t72.5 124t78 34.5q5 -1 14 -3.5t32 -15.5t41 -31.5
t34 -54.5t18 -81l14 -428q1 15 2.5 41t8.5 102t16.5 146t26.5 157t38 151.5t52 113t67 57.5q77 17 132 4.5t91.5 -55t55.5 -96.5t25 -121q5 -59 7 -126t2 -104l-1 -37q-17 -434 30 -448q14 -4 38 19.5t52 69t55 103.5t50 130.5t35 142.5q2 8 9 11t13 -1zM215 797q3 27 -4 37
l-6 6q-5 1 -9 -5.5t-6 -15.5l-4 -24q-8 -205 0 -398q0 -25 2 -37v-16q0 -12 2 -16q0 -19 3 -31q0 -21 2 -29q0 -4 1 -12t1 -12t1 -11t1 -10q4 -28 4 -35l1 -1q1 0 1 3q0 28 -2 46v28q-2 10 -2 33v158q1 33 3 98t3 80q1 33 4 88.5t4 75.5zM631 262h2q-3 22 -6 76
q-3 41 -6 113q-1 44 -5.5 127.5t-5.5 115.5q-1 12 -5 19t-7 9l-4 1q-4 1 -7 -2.5t-4 -8.5t-1.5 -10t0.5 -8v-4q9 -123 26 -280q4 -27 23 -148zM1145 213l1 -1q1 0 1 3q-2 11 -6 119q-4 106 -4 180q-2 33 -2 100q0 17 -2 25v12v15q0 4 -1.5 12t-1.5 12t-1 12.5t-1 12.5
q-3 51 -12 98q-6 48 -18 88q-9 30 -19 37q-2 3 -4 4t-3 0h-1q-11 0 -6 -27q4 -12 4 -18q0 -1 1 -3t1 -3v-2q17 -62 27 -125q9 -62 12 -117q2 -22 4 -62t2 -44q2 -41 6 -92q13 -184 23 -236z" />
    <glyph glyph-name="n" unicode="n" horiz-adv-x="1087" 
d="M1186 555q4 -2 18 -16q11 -18 8 -35q-14 -86 -44.5 -172.5t-72.5 -162.5t-99.5 -123t-118.5 -46q-52 1 -91 56.5t-58 133.5t-31 155.5t-15 132.5l-2 54q0 8 -1 22t-3.5 55t-5.5 78.5t-8.5 84.5t-11.5 82t-15 62.5t-19 33.5q-53 32 -130 -129q-102 -216 -216 -694
q-24 -133 -69 -133q-32 0 -55 38t-30 76l-7 37q-27 203 -34.5 393t-0.5 278l6 89q0 6 4 21.5t13.5 37.5t29.5 35t47 7q60 -14 112 -55t46 -87q-19 -171 -29 -327q147 496 291 524q76 15 133.5 0t92 -55.5t54 -93t25.5 -119.5q5 -59 6.5 -126t0.5 -104l-1 -37
q-16 -434 31 -448q24 -6 70.5 58.5t93.5 179.5t65 229q1 7 8 10t13 0zM217 811q1 14 -2 22.5t-7 10.5l-3 2q-7 1 -11.5 -9t-5.5 -20v-10q-2 -150 2 -328q1 -54 9 -174h2q0 77 6 221q7 176 10 285zM819 217q1 -3 2.5 -2.5t-0.5 2.5q-1 14 -2 55.5t-2 61.5q0 23 -1 81t-1 91
v96v49q0 4 -1 12.5t-1 12.5v12q0 8 -2 12q-4 65 -10 95q-3 20 -17 84q-8 27 -18 34l-8 7q-10 -2 -6 -29q1 -3 2 -9t2 -8q0 -4 2 -6v-2q1 -2 2 -7t2 -7q1 -3 2 -8t2 -8q0 -2 1 -7.5t1 -7.5q1 -3 2 -8t2 -8q0 -2 1 -7t1 -7q1 -3 2 -8t2 -7q0 -11 4 -31q0 -5 1 -14t1 -14
q1 -5 2 -14.5t2 -14.5q0 -5 1.5 -14.5t1.5 -14.5v-6v-6q2 -4 2 -14q0 -8 1 -25.5t1 -25.5q0 -9 1 -26t1 -24q4 -66 4 -90q9 -166 18 -225z" />
    <glyph glyph-name="o" unicode="o" horiz-adv-x="894" 
d="M981 555q3 5 9 3.5t9 -7.5q9 -22 -8 -66q-6 -12 -14 -20q-99 -106 -242 -135q-64 -366 -362 -361q-71 2 -127.5 26t-90 60.5t-57.5 81t-34 88.5t-15 80.5t-5 58.5l1 23q3 170 92 182q27 3 58 -4q-66 128 -48 279q6 59 26 105t46.5 72t57.5 43.5t60 23t53.5 7.5t39.5 1
l14 -2q58 -3 106 -29t80 -64.5t56 -90.5t37 -103.5t20.5 -107.5t9.5 -98.5t1 -80.5q-3 -58 -9 -119q110 36 236 154zM209 125q2 0 2 2q-9 15 -18 49q-2 6 -6 18.5t-5 16.5q-1 6 -6 41q-6 44 -6 86q4 53 8 80q0 13 -6 16l-6 4q-10 5 -14 -8l-5 -12q-5 -48 3 -111q0 -5 6 -47
q2 -16 10 -39q2 -6 22 -61q1 -2 3.5 -5t3.5 -5q4 -8 4 -11q6 -6 10 -14zM389 51q46 -2 87.5 69.5t62.5 205.5q-154 23 -263 129q0 -13 -4 -37q-6 -51 -6 -105t8 -117.5t37.5 -104t77.5 -40.5zM551 510q2 265 -24 378t-103 134q-51 14 -89.5 -34t-54.5 -118t-12 -133v-16.5
t5 -41.5t14 -60.5t29.5 -67t48.5 -67t75 -55t105 -36.5q6 53 6 117zM664 520q2 33 2 103q-3 103 -21 188q-5 23 -14 37l-10 6q-11 -3 -7 -29l4 -26q14 -75 19 -127q6 -62 6 -119q-5 -98 -6 -104q0 -20 -4 -48q-1 -4 -2 -11.5t-2 -10.5q0 -8 -2 -10q0 -9 -2 -13
q-9 -64 -33 -141q0 -2 -4 -14q0 -5 -4 -13q-4 -16 -6 -22l-15 -35l2 -2q26 54 45 115l6 18q1 2 2.5 6t2.5 7.5t2 7.5q0 1 1 4.5t1 5.5q1 2 2 5t2 5q1 4 2 11.5t2 11.5q12 43 18 94q10 53 13 100z" />
    <glyph glyph-name="p" unicode="p" horiz-adv-x="870" 
d="M528 1057q151 -1 232 -143t67 -375q-7 -112 -43 -198t-89 -134t-112.5 -71t-119.5 -19q-108 8 -176 135q-10 -324 -4 -402v-7t-2.5 -15.5t-6.5 -20.5t-13.5 -16t-22.5 -8q-139 -14 -156 70q-12 60 -10 560t14 629q0 3 0.5 7.5t3.5 16.5t7.5 21.5t13.5 18t20 10.5
q17 3 48 -1t66 -15t58 -37t19 -62q-7 -50 -9 -92q87 151 215 148zM211 905q2 32 -4 56l-6 12q-3 1 -5.5 -1.5t-4.5 -8.5t-3.5 -11.5t-3.5 -13.5l-2 -37q-16 -331 -12 -627q2 -18 2 -57q0 -37 2 -53v-49q2 -14 2 -43q0 -7 1 -20t1 -19q0 -23 2 -33q0 -13 1 -30t1 -23
q0 -3 1 -3t1 3v71v45v54q0 158 4 250q1 51 11 278q7 153 12 260zM633 526q3 21 5.5 53.5t5 93.5t-3 116t-17 106.5t-39.5 80.5t-68 25q-38 -4 -70 -23.5t-53.5 -50.5t-38 -63.5t-27.5 -71.5t-16.5 -63.5t-9.5 -50.5q-4 -143 -8 -213q2 -23 6.5 -53t17.5 -73t30.5 -77
t48 -59.5t67.5 -26.5q27 -1 50.5 14.5t40 45t29.5 60t22 71.5t14 67t9.5 58.5t4.5 33.5zM723 815q-10 0 -10 -18l2 -19q9 -46 12 -90q2 -29 2 -82q0 -25 -4 -71v-19q-2 -4 -2 -16q0 -2 -1 -7.5t-1 -7.5q-2 -6 -2 -16q-7 -42 -23 -98q-1 -7 -4 -19l-4 -16l-10 -25h2
q20 41 31 78q4 8 6 14q0 3 4 15q5 21 8 28q4 20 12 66q6 33 9 70q4 50 4 71q0 58 -11 133q-3 18 -12 27z" />
    <glyph glyph-name="q" unicode="q" horiz-adv-x="921" 
d="M662 1116q17 3 47.5 -1t65 -15t57.5 -37t18 -62q-12 -86 -28.5 -573t-8.5 -578v-7t-2.5 -15.5t-7 -20.5t-14 -16t-23.5 -8q-137 -15 -154 70q-12 58 -12 569q-21 -47 -46 -86t-59 -73t-77 -51.5t-92 -14.5q-4 0 -11.5 0.5t-29 5.5t-41.5 13.5t-46.5 26t-48 41.5t-40.5 62
t-28.5 84.5t-9 112.5t14.5 143q19 104 59.5 188t89.5 135.5t105.5 83t109 37.5t98.5 -7.5t75 -45.5q13 34 39 39zM190 647q18 81 54 160q37 82 75 137q10 14 15 29l-2 10q-8 9 -25 -8l-14 -19q-2 -3 -31 -49q-4 -8 -12 -24.5t-12 -24.5q-25 -59 -37 -96q-23 -71 -35 -166
q-5 -67 -2 -125v-12q0 -9 2 -13v-20q4 -24 4 -31h2v103q0 30 6 71q3 37 12 78zM602 668q4 236 8 313q-8 37 -25 56t-31 19l-13 1q-82 -16 -167 -175q-87 -163 -119 -354q-33 -195 23 -257q22 -24 56 -23q49 2 90.5 32.5t69.5 74t51 103t35.5 108.5t21.5 102zM745 885
q2 26 -4 55l-6 10q-6 3 -10 -10q-3 -6 -6 -22l-4 -39q-17 -360 -17 -627q1 -36 2 -105.5t2 -99.5q1 -27 4 -68.5t3 -56.5q0 -3 1 -3t1 3v72v47v51v58q0 8 1 28.5t1 32.5v31q2 12 2 32q0 12 1 34t1 34q7 216 28 543z" />
    <glyph glyph-name="r" unicode="r" horiz-adv-x="679" 
d="M639 1071l11 -5.5t22.5 -20t24.5 -37.5t9 -59t-16 -83q-1 -4 -3.5 -10.5t-12 -23t-21.5 -30t-32 -25.5t-43 -15q-51 -7 -78 16q-8 12 2 19q76 59 98 133q7 26 3 38t-11 14l-8 1q-13 3 -38.5 -24t-57.5 -79t-64 -118.5t-59.5 -152t-42.5 -169.5v-26q-2 -167 -27.5 -290.5
t-75.5 -123.5q-22 0 -40.5 15.5t-29 38t-18 45t-9.5 37.5l-3 16q-29 204 -31.5 421.5t9.5 332.5l12 116q0 6 4 21t14 36t31.5 34t50.5 7q65 -12 121.5 -53.5t50.5 -87.5q-11 -64 -23 -154q27 54 55.5 98.5t65.5 86.5t78.5 59t81.5 2zM252 913q2 20 -4 43l-6 9q-3 1 -5.5 -1
t-4.5 -6.5t-3.5 -8t-3.5 -9.5l-4 -29q-16 -257 -16 -471q0 -112 2 -153q3 -66 6 -94h2v53v35v18v10v10q3 77 6 189q8 134 31 405z" />
    <glyph glyph-name="s" unicode="s" horiz-adv-x="745" 
d="M848 518q2 -5 -1 -10.5t-9 -5.5q-52 -5 -161.5 -26t-197.5 -52q47 -55 75 -98.5t46 -93t9 -96.5t-46 -91q-2 -3 -6 -7.5t-18.5 -18t-31 -24.5t-43 -23t-54.5 -18.5t-66 -6.5t-78 10q-3 1 -7.5 2t-17.5 6.5t-25.5 12t-29 19t-29.5 26.5t-24 35.5t-16.5 45.5t-4.5 56.5
t11 68.5q23 82 102 148q-57 48 -92 83t-71 94.5t-44 121.5q-1 7 -2.5 18.5t-0.5 46t7.5 66.5t25.5 73.5t49 74t84 60.5t124 40q6 1 17 3t41.5 4t58.5 -1t62 -16.5t58 -37.5t40.5 -68t15.5 -103q-4 -54 -32 -103.5t-69 -85.5t-71 -56.5t-59 -35.5q36 -45 63 -72
q163 55 361 72q19 0 32 -10q14 -11 25 -27zM387 993q-29 1 -61.5 -14.5t-58 -46.5t-37.5 -71.5t2.5 -97.5t60.5 -118q4 -5 12 -16.5t12 -16.5q20 9 45 25t59 42t60.5 62.5t34.5 75.5q18 92 -23 134t-106 42zM299 47q4 0 10.5 0.5t23.5 7t30 17.5t23.5 36.5t10.5 59.5
q0 67 -110 156q-69 -53 -84 -111q-1 -3 -2.5 -9t-4 -23t-2 -33t5.5 -35t15.5 -32.5t32 -23.5t51.5 -10zM502 244q-3 8 -12 24t-11 21q-26 42 -65 84q-15 19 -78 82l-10 10l-7 4l-4 6q-3 3 -10 9.5t-10 9.5l-10 10q-2 2 -5.5 5t-5.5 5q-9 9 -18 21q-44 47 -66 83
q-27 49 -38 89q-5 10 -5 14q-4 8 -4 10l-4 8q0 2 -2 4v2q-3 7 -6 7l-2 2q-3 1 -4.5 -1t-3.5 -8q-2 0 -2 -4v-6v-12v-6q0 -2 2 -4q0 -9 2 -11l2 -10q5 -18 33 -71q14 -24 20 -31q2 -2 5 -7.5t5 -7.5q6 -6 7 -8l6 -6q1 -2 4.5 -6.5t5.5 -7.5l6 -6l6 -6q2 -2 5 -6.5t5 -6.5
q1 -1 3.5 -3t3.5 -3l6 -6q13 -13 22 -25q4 -3 12.5 -10t12.5 -10l12 -12q6 -3 10 -11q20 -15 23 -18q18 -18 22 -21q3 -3 10 -9.5t11 -10.5l8 -8l6 -6l4 -4q1 -2 4.5 -5.5t4.5 -5.5q2 -1 5 -4t5 -4q4 -8 16 -20q1 -1 3 -4.5t3 -4.5q8 -8 9 -10q2 -4 8 -10q1 -1 3 -4t3 -4
q0 -1 1 -3t1 -3l4 -4q1 -1 3 -4.5t3 -4.5q11 -16 19 -37q9 -18 12 -36q4 -24 4 -35q-6 -28 -6 -29q0 -4 -2 -6v-4q0 -2 -2 -4q0 -4 -2 -6q0 -1 -1 -2t-1 -2q-6 -13 -23 -35q-1 -3 -1 -3.5t3 1.5q1 1 3 4t3 4q4 4 4 6q4 4 4 6q13 18 17 27q8 23 10 37q3 24 -2 43
q-3 21 -12 45z" />
    <glyph glyph-name="t" unicode="t" horiz-adv-x="522" 
d="M651 549q22 -19 19 -49q-15 -85 -49 -170.5t-82.5 -160.5t-116.5 -122t-141 -47q-56 0 -96.5 55t-59 133.5t-29 157.5t-11.5 134l-1 55q-10 206 22 610q-18 -2 -52 -5t-52 -5q-98 -12 -119 6q-8 8 -16.5 21.5t-14.5 28.5t-0.5 27t25.5 13q27 3 61 3t54 -0.5t64.5 -3
t56.5 -3.5q3 44 6 65q0 3 1.5 8t6.5 17.5t12 21t20 14t29 1.5q17 -4 21.5 -4.5t26 -6.5t31.5 -11t28 -15t26 -21t14.5 -27.5t4.5 -35.5v-12q121 0 180 -4q33 -3 47 -21q11 -14 -1 -22.5t-29 -8.5q-99 -3 -201 -6q-28 -517 -29 -633q-14 -432 33 -446q16 -6 43.5 10.5
t61.5 55.5t67 93.5t63.5 134.5t47.5 169q1 9 9.5 12t14.5 -2zM231 1016q3 34 -4 47l-6 10q-5 1 -8.5 -6t-6.5 -19q-1 -3 -1 -4l-2 -32q-12 -157 -15 -295q-2 -95 2 -236q2 -71 15 -172q6 -46 20 -104l1 -1q1 0 1 3q-13 68 -18 141q-1 16 -2 48.5t-2 49.5q0 74 2 113
q0 78 8 238q5 99 16 219z" />
    <glyph glyph-name="u" unicode="u" horiz-adv-x="1054" 
d="M1153 555q10 -6 16 -16q12 -15 9 -35q-12 -73 -28.5 -138t-46 -135t-67.5 -120t-94.5 -81.5t-124.5 -29.5q-52 2 -91.5 57.5t-58.5 133t-30.5 155.5t-13.5 132l-2 54q-3 34 -3 70q-159 -550 -315 -602q-60 -20 -105 16t-66.5 101.5t-34.5 134t-15 118.5l-2 50
q-8 134 -8 255t4 175l4 55q0 6 4 21.5t13.5 37.5t29.5 35t47 7q60 -14 112 -55t46 -87q-31 -290 -37 -458q-21 -328 18 -328q12 0 43 56t71 152.5t80 211.5t75 249.5t51 249.5q0 3 1.5 8t6.5 17.5t11.5 21t19.5 14t28 1.5q21 -4 33 -7t39.5 -12.5t43 -21.5t28 -33t10.5 -47
q-7 -79 -10 -412q-16 -438 33 -448q52 -11 104.5 57.5t90 176t61.5 233.5q1 7 7.5 10t12.5 0zM215 799q2 22 -4 35l-6 8q-4 1 -7 -2t-5.5 -7.5t-4.5 -11.5l-2 -24q-2 -8 -2 -29q-2 -10 -2 -29q0 -5 -1 -14t-1 -14v-27q0 -10 -2 -14v-13v-26v-51q0 -98 6 -174q0 -6 1 -18
t1 -17q0 -7 2 -11v-8q0 -2 1 -7.5t1 -8.5q0 -5 1.5 -15t1.5 -14q4 -20 4 -28q4 -16 4 -23q1 -4 2 -11.5t2 -11.5q3 -18 6 -30h2q-3 15 -6 43v8v6q0 2 -1 7t-1 7q0 5 -1 16.5t-1 16.5q-4 90 -4 156q0 58 4 176q8 108 12 160zM754 231h2q-1 7 -2 22t-2 23q0 2 -1 6.5t-1 6.5
v14q-2 10 -2 33q-7 79 -7 153q0 118 2 175q0 38 5 161q2 13 -5 33l-6 8q-9 0 -16 -22l-2 -23q-5 -181 8 -387q3 -46 8 -69q0 -5 1 -15.5t1 -15.5q1 -4 2 -13.5t2 -13.5q0 -10 4 -22q0 -4 1.5 -11t1.5 -10q3 -21 6 -33z" />
    <glyph glyph-name="v" unicode="v" horiz-adv-x="800" 
d="M780 518q5 -2 6.5 -6.5t-2.5 -7.5q-25 -25 -75 -27l-7 -33q-20 -113 -48.5 -200t-59 -135t-63 -79.5t-60.5 -40.5t-51 -12t-36 1l-13 4q-43 12 -80 38.5t-60 56t-40 57t-24 45.5l-7 18q-18 52 -34 141t-25.5 182.5t-15.5 177t-9.5 142t-3.5 59.5q0 3 0.5 7t4 15t9 18.5
t17.5 13t28 3.5q24 -3 39.5 -6.5t41 -13t41 -23.5t28.5 -39.5t14 -58.5q17 -325 38 -475q40 -284 109 -279q35 1 83 127t85 308q-36 16 -69 44t-65 77t-41.5 112.5t1.5 151.5q10 57 27.5 101t37.5 68.5t42.5 41.5t42.5 22t36.5 7t26.5 1l10 -2q45 -5 67 -70t20.5 -166.5
t-9 -185t-20.5 -168.5q27 -9 63 -12zM276 158q2 -3 3 0q0 3 -5 8q0 4 -2 6v4q-4 8 -4 12q-4 8 -4 13q-7 20 -14 61q-16 88 -23 158q-12 135 -20 346q0 23 -8 35l-6 6q-6 1 -9.5 -6t-5.5 -17v-24q10 -201 41 -400q2 -15 7 -38.5t7 -32.5q1 -2 2.5 -7.5t2.5 -7.5q0 -6 2 -8
q0 -4 2 -6q0 -3 1 -7.5t1 -6.5q4 -8 4 -15q15 -51 28 -73zM664 948q-1 3 0.5 23.5t-7.5 44.5t-28 24q-17 0 -37 -24.5t-36.5 -68.5t-23.5 -103.5t3 -130.5q1 -9 4.5 -24.5t26.5 -53.5t59 -64q36 193 39 377z" />
    <glyph glyph-name="w" unicode="w" horiz-adv-x="960" 
d="M950 502q6 -2 6.5 -9.5t-6.5 -9.5q-18 -6 -49 -6l-2 -33q-27 -377 -169 -453q-55 -29 -105 -9q-34 10 -61 47t-41.5 83t-24 90.5t-12.5 74.5l-3 30q2 -55 -19.5 -137t-57.5 -131q-18 -25 -57 -34t-69 -5l-30 4q-48 10 -83 58t-54 112.5t-29 154t-11.5 167t2 168t7 141
t8.5 100.5q1 15 13.5 26t27.5 11q31 0 60.5 -4.5t63 -15t54 -35t19.5 -58.5l-21 -190q-40 -458 39 -491q2 0 4 -1l12 4q55 38 79 283q11 112 14 262q0 14 12 23t27 6q107 -25 112 -74q0 -1 -4 -153.5t11.5 -266t64.5 -114.5q32 0 74 107.5t67 269.5q-21 8 -42 20.5
t-46.5 34.5t-44 51t-34.5 69t-19 89t2 112q7 56 20.5 99.5t29.5 68t34.5 41t35 22t30.5 8t22 1.5l8 -2q27 -3 47 -36t29.5 -88.5t14.5 -114.5t4.5 -132t-2.5 -122t-5 -103q26 -7 47 -10zM223 184l1 -2q1 0 1 2q-15 51 -22 99q0 12 -2 16q0 12 -2 18q0 5 -1 17t-1 20
q-4 50 -4 78q-3 75 4 168q8 108 14 156q5 25 -2 32l-6 9q-4 1 -9 -4.5t-8 -14.5l-4 -22q-12 -117 -12 -211q0 -16 1 -46t1 -44q3 -41 6 -78q6 -53 23 -121q12 -48 22 -72zM549 592q2 6 -4 12l-8 4q-12 0 -15 -6l-2 -10v-78q4 -43 6 -61q5 -43 15 -74h2v16q-2 6 -2 23v55
q1 23 4 65.5t4 53.5zM827 553q24 200 11 377q0 4 -1 10.5t-4.5 23.5t-8 30t-13 23.5t-18.5 10.5q-20 0 -40.5 -42.5t-30 -114t6.5 -166.5q1 -4 2.5 -10.5t8.5 -25.5t17 -36.5t28.5 -40t41.5 -39.5z" />
    <glyph glyph-name="x" unicode="x" horiz-adv-x="690" 
d="M778 561q29 -5 45 -41q-11 -72 -26.5 -139.5t-41.5 -137.5t-57 -122t-75 -86t-93 -35q-168 -2 -305 223q-105 -198 -116 -209q-12 -14 -27.5 -15t-48.5 5q-20 2 -23 16.5t4 28.5l6 14q9 18 146 283q-28 71 -59.5 161.5t-57.5 172t-46.5 150.5t-34.5 115l-13 46
q-1 3 -1.5 8t0 17.5t3.5 22t13 17.5t26 7q24 -2 39 -4t44 -10.5t48.5 -23t40 -42t31.5 -65.5q65 -237 96 -326q152 297 229 438q6 12 17 17t22 0q21 -9 33.5 -27t1.5 -35q-12 -23 -118 -245t-136 -287q22 -59 46.5 -114t58.5 -120t71.5 -103.5t69.5 -37.5q36 2 99.5 155
t88.5 328zM420 125q2 -1 3 0t-1 2l-8 8q0 2 -4 6l-2 2q0 1 -1 2t-1 2q-2 4 -11 13q0 2 -4 6l-4 8q-2 2 -10 14q-2 3 -5 8.5t-5 8.5q-1 1 -3.5 4t-3.5 4q-1 2 -2 5t-2 5q-7 11 -10 19q-31 60 -43 88q-28 62 -41 100q-41 106 -76 219q-9 32 -28.5 103t-28.5 104q-8 33 -18 43
l-9 6q-10 0 -6 -31l6 -30q49 -173 86 -277q8 -22 23.5 -60.5t21.5 -53.5q13 -33 43 -99q47 -95 80 -147q32 -50 64 -82z" />
    <glyph glyph-name="y" unicode="y" horiz-adv-x="882" 
d="M743 1104q11 -2 28 -7t47 -23.5t34 -41.5q7 -38 -8.5 -462t-32.5 -533q-9 -55 -20.5 -92.5t-35.5 -74t-60 -56t-94 -28.5t-136 -1q-5 0 -12.5 1.5t-30.5 6.5t-40.5 14.5t-42.5 26t-35 40t-18.5 57t5.5 77.5q13 56 52 96.5t93 61.5t99.5 31t93.5 14q0 338 2 477
q-165 -483 -328 -522q-60 -15 -105 15.5t-66.5 85t-34.5 111t-15 97.5l-2 41q-8 112 -8 214t4 148l4 46q0 3 2 11.5t8.5 22.5t16.5 25.5t27.5 18.5t39.5 4q59 -10 111.5 -45.5t46.5 -73.5q-31 -242 -37 -381q-21 -275 18 -275q22 0 84 116t133 312t101 375q5 47 30.5 65.5
t81.5 4.5zM207 330h2q0 9 -4 37q-1 3 -2 10.5t-2 11.5q0 4 -1 13.5t-1 13.5q-2 10 -2 30q0 2 -1 7.5t-1 7.5v16q0 5 -1 16.5t-1 16.5v35q0 98 4 145q2 56 10 135q0 21 -4 29l-6 6q-13 3 -17 -16l-4 -21q-4 -66 -4 -94v-22q0 -15 -2 -23v-41q4 -100 8 -145q1 -5 2 -15.5
t2 -15.5q0 -8 2 -14q0 -9 2 -13q0 -4 1 -12t1 -12q5 -20 5 -23q4 -16 4 -20q4 -12 4 -17q4 -20 6 -26zM629 66v67q-229 -10 -264 -129q-11 -41 -6.5 -69t19.5 -44.5t31.5 -25.5t28.5 -12l13 -3q44 -8 77.5 5t51.5 36.5t29.5 57.5t15 61t4.5 56zM756 340q8 235 8 522
q0 29 -6 53l-8 11q-13 3 -13 -33l-2 -37q6 -370 0 -602q-4 -138 -8 -197q-3 -35 -6 -69q-3 -15 -6 -27q-4 -16 -6 -22q0 -3 1 -3t1 3q9 18 16 65q7 53 12 94q13 149 17 242z" />
    <glyph glyph-name="z" unicode="z" horiz-adv-x="737" 
d="M240 573q6 1 16.5 1.5t43 1.5t63.5 -1t73 -9.5t78 -19.5t72.5 -34.5t61.5 -53t39.5 -76t12.5 -101.5q1 -10 0 -28t-14 -70.5t-38 -102.5t-82 -113.5t-136 -113.5q-9 -6 -24 -15.5t-59 -28t-86 -25.5t-95.5 5t-95.5 51q-49 46 -59.5 117.5t27 147.5t118.5 126
q143 90 331 58q-24 167 -315 145q-31 -3 -51 23q-25 36 -25 98q3 23 23 33q117 55 204.5 108.5t129 91.5t66 67.5t28.5 44.5l4 15q-1 46 -57 57t-142.5 -8t-149.5 -37.5t-120 -39.5q-12 -5 -24 1.5t-13 18.5q-18 163 82 185q42 9 104.5 14t142 0t145.5 -23.5t110 -63.5
t41 -112q-3 -52 -48 -105t-108 -92.5t-125 -71.5t-105 -48zM360 1034q2 0 0 2h-14q-6 2 -18 2h-52q-60 -3 -110 -16q-8 0 -8 -8l-2 -8q3 -11 12 -11h6q109 27 121 29q19 3 40.5 6t24.5 4zM78 -82q22 -58 101 -47q88 13 174 96q110 104 132 250q-63 14 -116 13t-88 -9l-35 -8
q-72 -25 -115.5 -64.5t-54.5 -78t-12 -73.5t6 -57zM608 266v4v4v13q-3 62 -28 104q-17 27 -33 43q-32 28 -43 33q-41 26 -90 35q-10 2 -27 2q-3 0 -8.5 -1t-7.5 -1l-6 -6l-3 -2q0 -11 25 -15q2 -1 5 -2t5 -2h9l8 -2q40 -11 61 -22q23 -9 51 -33q17 -15 37 -47q12 -24 19 -52
q0 -2 1 -4.5t1 -3.5v-6q2 -4 2 -14q2 -2 2 -6v-6v-7v-2v0v-2v-2q0 -5 -1 -13.5t-1 -12.5q0 -11 -4 -27q-5 -41 -23 -90q-13 -37 -35 -74q-9 -15 -39 -55q-30 -34 -67 -62q-2 -2 -1.5 -2.5t3.5 0.5q6 6 8 7q2 0 6 4q2 2 4 2q2 2 6.5 5t6.5 5q6 6 10 8q36 32 51 53q1 1 3 4.5
t3 4.5t3 4t3 4t3 4t3 4t2.5 3t2.5 3q2 2 2 4q1 1 3 4t3 4q5 10 6 11q0 1 1 3t1 3l4 4q1 2 2 5.5t2 4.5q25 51 35 94q8 31 10 51q4 16 4 27v6z" />
    <glyph glyph-name="exclamdown" unicode="&#xa1;" horiz-adv-x="301" 
d="M170 1092q26 0 43.5 -17.5t15.5 -42.5q-1 -25 -20 -41t-45 -16q-27 2 -44 19t-16 42q2 25 21 41t45 15zM166 1044q-2 5 -4 7l-4 6q-9 6 -13 6h-2q-6 -7 -10 -25q0 -8 2 -12q0 -6 4 -10q8 -8 13 -8q0 -2 4 -2h4v2l-6 6q0 4 -2 6v6q1 2 3 5t3 5zM197 174v-43v-31v-49
q0 -3 -1 -10t-1 -10v-21q-5 -31 -13 -59q-17 -47 -57 -47q-25 0 -37 57l-8 59q-1 5 -2 18t-2 19q0 7 -1 22t-1 23t-1 25t-1 25v28v27q0 119 6 242q2 25 7.5 106.5t8.5 120.5q4 31 8 88q4 24 4 33q5 25 5 26q15 73 39 97q5 4 10 5.5t8 0.5h2q29 -3 39 -115q8 -83 4 -250
q-1 -16 -2 -45t-2 -52.5t-2 -43.5q-3 -78 -6 -133q0 -47 -4 -113zM170 682q2 17 -0.5 28t-5.5 13l-4 2q-6 1 -9.5 -6t-5.5 -17l-4 -24q-11 -238 -8 -414q0 -143 8 -217h2v113q1 15 2.5 47.5t2.5 61.5t2 55q6 115 20 358z" />
    <glyph glyph-name="cent" unicode="&#xa2;" horiz-adv-x="651" 
d="M131 156q-11 17 -29 61q-13 48 -16 68q-8 46 -10 71q-4 50 -4 74v39v35q4 101 10 151q9 78 33 148q6 17 28 69q3 5 10.5 15.5t10.5 15.5q8 14 22 31q23 26 58 47q24 17 61 29q2 0 6 2q4 0 8 2h9q6 2 22 2h2q4 37 13 37q14 0 20 -33h2h6h4h13q2 0 6 -1t6 -1h4q2 0 4 -2h6
q2 -2 4 -2t4 -2q1 0 4.5 -1t4.5 -1q3 -2 10 -5.5t10 -5.5q24 -12 43 -34q18 -21 31 -47q13 -20 20 -50q7 -21 11 -49q2 -16 2 -43q-3 -38 -21 -41q-6 -2 -14 0q-17 9 -27 31q-1 4 -6 20t-10 27q-3 16 -10 33q-2 3 -8 16t-9 19q-5 16 -18 32q-6 10 -21 25q-2 0 -6 4
q-1 0 -3 1t-3 1v2q-13 5 -31 -2q2 -12 2 -47v-49q0 -26 -0.5 -193.5t-3 -328t-8.5 -246.5l12 -6l2 2q12 4 21 10q6 4 20 18q1 1 19 25q3 5 8 16.5t8 16.5q0 1 1 4t1 4q4 4 4 8q1 3 3 8.5t3 8.5q4 9 11 28.5t10 26.5q2 2 2 4q4 8 8 12q9 18 25 15q24 -3 34 -19q6 -19 -2 -51
q-1 -2 -6.5 -23.5t-11.5 -37.5q-15 -36 -20 -44q-10 -20 -35 -45q-22 -22 -49 -34q-3 -1 -13 -4t-16 -3q-4 -2 -12 -2q-2 0 -6 -1t-5 -1q-5 0 -12 1t-10 1q-3 -19 -10 -22h-4q-5 4 -9 22h-18q-8 0 -12 2h-15q-2 1 -7 2.5t-7 2.5q-4 0 -16 4q-3 0 -5 2h-4q-1 1 -4 2t-4 2
q-1 0 -4 1t-4 1q-4 2 -8 6q-2 0 -10 4q-1 1 -4.5 2t-4.5 2q-5 2 -11.5 8t-8.5 7t-5 4t-5 4q-1 1 -5.5 4.5t-5.5 5.5q-7 3 -10 10l-10 10q-17 20 -35 52zM227 530q-1 -13 -2 -40t-2 -41q0 -53 2 -80q0 -39 6 -76q6 -39 15 -68q10 -30 24 -57q15 -24 33 -39q16 -16 39 -29
q2 0 2 -2v6q-11 194 -2 732q0 14 1 38t1 35q-36 -42 -41 -51q-19 -23 -35 -59q-19 -50 -28 -117q-9 -53 -13 -152zM143 535v-29v-53q3 -54 9 -97q12 -91 36 -149q8 -25 23 -47q6 -6 8 -10q0 -1 1 -2.5t1 -2.5l4 -4q2 -3 11 -12h2q-1 2 -7 8q-2 4 -8 10q0 3 -4 7q0 1 -1 3
t-1 3q-2 2 -2 4l-2 2q-1 1 -2 4t-2 4q-16 35 -23 68q-19 68 -22 182q-3 52 0 104l2 13v14v27q2 8 2 24l2 6v6q0 11 2 15q8 91 43 184q8 27 8 39l-2 10q-5 5 -12 -2q-8 -8 -12 -16q-1 -1 -2 -4t-2 -4q-4 -8 -5 -9l-2 -6v-4q-10 -29 -20 -67q-1 -3 -2 -8.5t-2 -8.5
q0 -4 -4 -16q-1 -5 -2 -16.5t-2 -16.5q0 -1 -1 -4t-1 -4v-8q-2 -6 -2 -17q-3 -6 -3 -16q0 -2 -1 -7t-1 -7v-9v-8q0 -10 -2 -14v-16v-15v-14v-6v-8z" />
    <glyph glyph-name="sterling" unicode="&#xa3;" horiz-adv-x="733" 
d="M545 39q-4 -4 -10 -4q-21 -9 -52 -12q-23 -5 -59 -5q-42 0 -62 2q-7 0 -16 3h-6h-8q-5 1 -16 2t-15 2q-30 3 -57 6q-8 0 -24 1t-21 1h-19h-14h-2q-2 -2 -4 -2h-2h-4h-7q-10 0 -16 2q-6 0 -8 2q-6 0 -10 4q-19 11 -21 22q-5 9 -2 15q0 6 4 18q14 21 35 33q13 7 27 10
q20 4 30 4q4 2 21 2q-1 5 -2 16t-2 17q-4 66 -4 156q-2 68 -6 198q-29 2 -74 7q-47 2 -47 18q0 36 78 33h43v28q0 4 -1.5 11t-1.5 10q-33 0 -69 4q-47 5 -47 21q0 32 78 32q10 -2 41 -2q0 49 2 72q7 126 26 199q7 36 29 94q14 32 20 43q10 23 25 41q12 18 29 35q2 3 7 8t7 8
l18 12q2 3 17 13q1 1 4 3t4 3q4 0 4 2q1 0 3 1t3 1l8 4q5 0 9 4q3 1 8.5 2t7.5 2q2 2 6 2t6 2h8q20 3 43 0h7q20 -4 30 -8q19 -8 33 -16q25 -17 45 -39q29 -32 43 -74q2 -8 6 -23.5t6 -23.5v-8q0 -1 1 -3t1 -3v-11q3 -12 3 -24q3 -45 -7 -99q-3 -23 -12 -47q-11 -30 -22 -45
q-15 -20 -35 -35q-19 -13 -39 -16q-12 -2 -33 -2q-17 4 -25 6q-18 9 -18 21v4q1 1 2.5 4t3.5 4q4 4 8 6q2 2 4 2q1 0 3.5 1t3.5 1q3 2 7 4t10.5 5t10.5 5q12 6 19 13q15 20 18 30q5 10 8 25q1 4 6 29q5 50 5 67q0 5 -1 17t-1 18l-3 8v9q0 4 -2 6v8q-11 38 -22 53
q-13 20 -27 31v0v0q-10 9 -22 9t-22.5 -6.5t-21 -19t-19.5 -25.5t-17.5 -29t-13.5 -27t-9 -21q-1 -3 -4 -9t-4 -9q-21 -50 -29 -113q-10 -59 -14 -152q-2 -16 -2 -49q135 -7 137 -26q1 -2 0.5 -5.5t-10.5 -10t-31 -9.5q-8 -2 -98 -6v-49q134 -4 137 -27q1 -2 0.5 -5
t-10.5 -9t-31 -10q-40 -5 -98 -5v-12v-49q-1 -17 -2 -49.5t-2 -48.5q-7 -118 -16 -172q-2 -19 -11 -60h11q4 -2 16 -2q3 0 8 -1t8 -1q12 -1 35.5 -3t34.5 -3t30 -2t29 -2q21 0 49 4h7h6h10h18q20 -4 25 -14q0 -2 2 -4q2 -4 2 -15q-5 -28 -35 -49q-8 -4 -14 -6q-4 -4 -8 -4z
M297 883q12 56 22 84q7 23 7 39l-4 10q-9 6 -21 -19q-2 -4 -5 -10.5t-3 -7.5l-4 -8q-16 -62 -17 -66q0 -3 -1 -8.5t-1 -7.5q-1 -3 -2 -9t-2 -8q0 -12 -4 -32q0 -11 -2 -17v-14q-2 -10 -2 -31q0 -20 -2 -30v-29q0 -85 4 -199q4 -118 4 -147q3 -59 0 -90h2q6 41 6 123
q1 27 2 88t2 92q0 48 3 100v25q0 16 2 26v25q0 8 2 12v12q8 66 14 97z" />
    <glyph glyph-name="dieresis" unicode="&#xa8;" horiz-adv-x="413" 
d="M129 1077q-23 0 -39.5 13.5t-17.5 35.5t13 37t36 17t39 -12t18 -35q1 -22 -13 -38t-36 -18zM291 1069q-21 -1 -37 12.5t-18 34.5q-1 22 13 37.5t36 17.5t38.5 -12.5t16.5 -34.5q2 -22 -12 -38t-37 -17z" />
    <glyph glyph-name="acute" unicode="&#xb4;" horiz-adv-x="335" 
d="M231 1217q12 4 25 -9q18 -18 -2 -55q-11 -21 -31 -35q-29 -20 -55 -31q-34 -15 -57 -12h-13q-8 4 -10 4q-9 6 -12 15q-4 6 -4 14t2 12q5 10 8 13q8 8 24 16l15 9q15 8 22 13q72 40 76 41q4 5 12 5z" />
    <glyph glyph-name="questiondown" unicode="&#xbf;" horiz-adv-x="708" 
d="M391 -111q-133 -5 -228 80.5t-91 218.5q2 53 24.5 116t62.5 129.5t72 115t78 110.5t56 76q69 101 63 166q0 12 12 16.5t19 -4.5q32 -35 32 -100.5t-38 -144.5q-34 -67 -86 -151t-82.5 -133.5t-52 -121.5t-17.5 -147q0 -8 1.5 -21t12.5 -45.5t28 -57.5t52.5 -44t83.5 -17
q6 0 16.5 1t36.5 10t45.5 26t35 54t14.5 88t-29 82.5t-66 41.5t-90 0q-6 -1 -10 3t-4 12q5 60 66 104q23 20 49 10q180 -49 180 -198q0 -72 -25.5 -126.5t-61.5 -81.5t-72 -43.5t-62 -20.5zM537 240q15 -12 24 -27q11 -15 14 -27q8 -19 13 -51v-4v-6v-8v-13l2 -2q6 30 6 45
v15q-2 4 -2 8q0 6 -2 8q-4 25 -10 35q-4 12 -21 33q-13 17 -29 26q-26 23 -61 37q-8 2 -16 -2l-4 -6q-3 -12 4 -16q1 -1 3 -2t3 -2h2q44 -14 74 -41zM154 131q-2 10 -2 31v18q0 2 1 8t1 9v10q2 2 2 8q1 3 2 9t2 9q0 1 1 4.5t1 4.5q0 2 1 5t1 5q2 4 6 16q5 14 16.5 40.5
t14.5 33.5q8 17 39 72q35 62 77 125q11 15 15 28l-4 11q-4 6 -23 -9l-12 -18q-37 -57 -55 -90q-39 -71 -45 -84q-30 -73 -33 -80q-15 -50 -19 -74q-3 -38 0 -65q0 -22 9 -54q8 -33 28 -67q0 -1 1 0t1 2l-16 37l-6 24q0 3 -1 8t-1 7t-1 4.5t-1 3.5v4v4zM375 1030
q0 24 19 40.5t44 16.5q27 -2 44 -19t16 -42q0 -24 -19.5 -40.5t-44.5 -14.5q-26 0 -43 17t-16 42zM428 995l2 2l-2 2l-2 2v5q-4 4 -4 12t2 12q4 4 4 8q1 1 -4 6l-6 5l-8 4h-4l-3 -2h-2q0 -3 -1 -8t-1 -7v-12q2 -9 11 -18l2 -2q1 -1 2 -2.5t2 -2.5q1 0 3 -1t3 -1z" />
    <glyph glyph-name="Agrave" unicode="&#xc0;" 
d="M123 6q-47 16 -49 86v19q-17 554 100 853q105 267 307 269q59 1 108.5 -27t84.5 -74t63 -113.5t45.5 -139.5t30 -159t18 -163t9 -162t3.5 -146.5v-124t1 -87.5q0 -10 -6 -23t-19 -14q-159 -13 -155 57q1 28 2.5 73.5t3.5 185.5t-4 247h-351q-3 -85 -11 -271.5t-9 -207.5
q0 -36 -11.5 -56.5t-22.5 -23.5l-11 -2q-78 -12 -127 4zM709 844q-9 0 -9 -27q2 -8 2 -18l3 -8q8 -45 20 -127q1 -7 2 -19.5t2 -22.5t2 -18q1 -5 2 -15t2 -14q0 -5 1 -14t1 -14q11 -132 13 -197q0 -27 2 -41v-37v-65v-27v-24v-37q0 -3 1 -3t1 3q0 9 4 49q0 23 2 33
q0 25 2 37v41q2 14 2 43v22v25v47q0 109 -8 200q-7 72 -23 185q-3 17 -8 24q-3 10 -6 13l-6 4zM322 670q-3 -16 -3 -41h7q38 -2 166.5 -0.5t169.5 0.5q-31 510 -177 528q-6 0 -15.5 -3t-35 -29t-46 -72t-40.5 -146.5t-26 -236.5zM188 575q-6 -78 -6 -206q0 -29 2 -43v-21
v-18q1 -12 2 -36t2 -34v-6v-8q0 -9 2 -15v-24q5 -35 5 -39h2v53q-2 10 -2 35v37v43q2 14 2 45q0 28 4 98q6 102 18 207q9 81 29 188q4 10 4 27q0 12 -2 14q0 2 -1 5t-1 4l-2 2q-5 3 -10 -4.5t-9 -18.5l-8 -29q-1 -5 -3 -16t-3 -16q-4 -24 -4 -35q-3 -18 -6 -33q0 -13 -4 -33
q0 -10 -2 -16v-16q-1 -5 -2 -15.5t-2 -15.5q-1 -9 -2.5 -30t-2.5 -30zM416 1327q-9 6 -16.5 15t-11.5 14l-3 6q-9 16 -9.5 30t3.5 20l4 5q12 12 25 8l12 -4q4 -1 76 -41q6 -4 36 -22q16 -8 25 -17q4 -4 8 -12q2 -4 2 -12l-4 -14q-3 -9 -12 -15q-2 0 -10 -4h-13
q-23 -3 -57 12q-26 11 -55 31z" />
    <glyph glyph-name="Aacute" unicode="&#xc1;" 
d="M123 6q-47 16 -49 86v19q-17 554 100 853q105 267 307 269q59 1 108.5 -27t84.5 -74t63 -113.5t45.5 -139.5t30 -159t18 -163t9 -162t3.5 -146.5v-124t1 -87.5q0 -10 -6 -23t-19 -14q-159 -13 -155 57q1 28 2.5 73.5t3.5 185.5t-4 247h-351q-3 -85 -11 -271.5t-9 -207.5
q0 -36 -11.5 -56.5t-22.5 -23.5l-11 -2q-78 -12 -127 4zM709 844q-9 0 -9 -27q2 -8 2 -18l3 -8q8 -45 20 -127q1 -7 2 -19.5t2 -22.5t2 -18q1 -5 2 -15t2 -14q0 -5 1 -14t1 -14q11 -132 13 -197q0 -27 2 -41v-37v-65v-27v-24v-37q0 -3 1 -3t1 3q0 9 4 49q0 23 2 33
q0 25 2 37v41q2 14 2 43v22v25v47q0 109 -8 200q-7 72 -23 185q-3 17 -8 24q-3 10 -6 13l-6 4zM322 670q-3 -16 -3 -41h7q38 -2 166.5 -0.5t169.5 0.5q-31 510 -177 528q-6 0 -15.5 -3t-35 -29t-46 -72t-40.5 -146.5t-26 -236.5zM188 575q-6 -78 -6 -206q0 -29 2 -43v-21
v-18q1 -12 2 -36t2 -34v-6v-8q0 -9 2 -15v-24q5 -35 5 -39h2v53q-2 10 -2 35v37v43q2 14 2 45q0 28 4 98q6 102 18 207q9 81 29 188q4 10 4 27q0 12 -2 14q0 2 -1 5t-1 4l-2 2q-5 3 -10 -4.5t-9 -18.5l-8 -29q-1 -5 -3 -16t-3 -16q-4 -24 -4 -35q-3 -18 -6 -33q0 -13 -4 -33
q0 -10 -2 -16v-16q-1 -5 -2 -15.5t-2 -15.5q-1 -9 -2.5 -30t-2.5 -30zM522 1444q15 0 25 -10q18 -19 -2 -54q-13 -22 -31 -34q-20 -17 -55 -31q-38 -15 -58 -15q-3 0 -7 1.5t-5 1.5q-6 0 -10 4q-6 2 -14 14q-3 4 -3 12q0 7 3 13q0 6 8 14t24 16q25 15 37 23q13 6 39.5 22
t36.5 19q4 2 12 4z" />
    <glyph glyph-name="Acircumflex" unicode="&#xc2;" 
d="M123 6q-47 16 -49 86v19q-17 554 100 853q105 267 307 269q59 1 108.5 -27t84.5 -74t63 -113.5t45.5 -139.5t30 -159t18 -163t9 -162t3.5 -146.5v-124t1 -87.5q0 -10 -6 -23t-19 -14q-159 -13 -155 57q1 28 2.5 73.5t3.5 185.5t-4 247h-351q-3 -85 -11 -271.5t-9 -207.5
q0 -36 -11.5 -56.5t-22.5 -23.5l-11 -2q-78 -12 -127 4zM709 844q-9 0 -9 -27q2 -8 2 -18l3 -8q8 -45 20 -127q1 -7 2 -19.5t2 -22.5t2 -18q1 -5 2 -15t2 -14q0 -5 1 -14t1 -14q11 -132 13 -197q0 -27 2 -41v-37v-65v-27v-24v-37q0 -3 1 -3t1 3q0 9 4 49q0 23 2 33
q0 25 2 37v41q2 14 2 43v22v25v47q0 109 -8 200q-7 72 -23 185q-3 17 -8 24q-3 10 -6 13l-6 4zM322 670q-3 -16 -3 -41h7q38 -2 166.5 -0.5t169.5 0.5q-31 510 -177 528q-6 0 -15.5 -3t-35 -29t-46 -72t-40.5 -146.5t-26 -236.5zM188 575q-6 -78 -6 -206q0 -29 2 -43v-21
v-18q1 -12 2 -36t2 -34v-6v-8q0 -9 2 -15v-24q5 -35 5 -39h2v53q-2 10 -2 35v37v43q2 14 2 45q0 28 4 98q6 102 18 207q9 81 29 188q4 10 4 27q0 12 -2 14q0 2 -1 5t-1 4l-2 2q-5 3 -10 -4.5t-9 -18.5l-8 -29q-1 -5 -3 -16t-3 -16q-4 -24 -4 -35q-3 -18 -6 -33q0 -13 -4 -33
q0 -10 -2 -16v-16q-1 -5 -2 -15.5t-2 -15.5q-1 -9 -2.5 -30t-2.5 -30zM553 1298q-21 3 -49 17q-17 7 -45 31v0q-23 -19 -47 -27q-20 -10 -52 -14h-10q-4 2 -10 2q-8 3 -12 10q-4 4 -4 10v8q0 8 6 11q5 5 20 14q6 3 31 18q61 34 63 35q3 2 5 2q4 2 12 2q10 0 14 -2l4 -2
q6 -3 60 -41q7 -4 28 -20q15 -9 21 -15q4 -8 4 -10q3 -7 0 -10l-4 -10q-6 -6 -15 -9h-10h-10z" />
    <glyph glyph-name="Atilde" unicode="&#xc3;" 
d="M123 6q-47 16 -49 86v19q-17 554 100 853q105 267 307 269q59 1 108.5 -27t84.5 -74t63 -113.5t45.5 -139.5t30 -159t18 -163t9 -162t3.5 -146.5v-124t1 -87.5q0 -10 -6 -23t-19 -14q-159 -13 -155 57q1 28 2.5 73.5t3.5 185.5t-4 247h-351q-3 -85 -11 -271.5t-9 -207.5
q0 -36 -11.5 -56.5t-22.5 -23.5l-11 -2q-78 -12 -127 4zM709 844q-9 0 -9 -27q2 -8 2 -18l3 -8q8 -45 20 -127q1 -7 2 -19.5t2 -22.5t2 -18q1 -5 2 -15t2 -14q0 -5 1 -14t1 -14q11 -132 13 -197q0 -27 2 -41v-37v-65v-27v-24v-37q0 -3 1 -3t1 3q0 9 4 49q0 23 2 33
q0 25 2 37v41q2 14 2 43v22v25v47q0 109 -8 200q-7 72 -23 185q-3 17 -8 24q-3 10 -6 13l-6 4zM322 670q-3 -16 -3 -41h7q38 -2 166.5 -0.5t169.5 0.5q-31 510 -177 528q-6 0 -15.5 -3t-35 -29t-46 -72t-40.5 -146.5t-26 -236.5zM188 575q-6 -78 -6 -206q0 -29 2 -43v-21
v-18q1 -12 2 -36t2 -34v-6v-8q0 -9 2 -15v-24q5 -35 5 -39h2v53q-2 10 -2 35v37v43q2 14 2 45q0 28 4 98q6 102 18 207q9 81 29 188q4 10 4 27q0 12 -2 14q0 2 -1 5t-1 4l-2 2q-5 3 -10 -4.5t-9 -18.5l-8 -29q-1 -5 -3 -16t-3 -16q-4 -24 -4 -35q-3 -18 -6 -33q0 -13 -4 -33
q0 -10 -2 -16v-16q-1 -5 -2 -15.5t-2 -15.5q-1 -9 -2.5 -30t-2.5 -30zM442 1376q18 7 38.5 10.5t44 2.5t41.5 -15t24 -41q5 -33 -15 -35q-9 -2 -21.5 11t-29.5 12q-4 0 -31.5 -7.5t-53 -11.5t-55.5 8.5t-46 45.5q-1 2 -3 5t-5.5 11.5t-4 15.5t4 14t14.5 9q16 4 46 -19
t52 -16z" />
    <glyph glyph-name="Adieresis" unicode="&#xc4;" 
d="M123 6q-47 16 -49 86v19q-17 554 100 853q105 267 307 269q59 1 108.5 -27t84.5 -74t63 -113.5t45.5 -139.5t30 -159t18 -163t9 -162t3.5 -146.5v-124t1 -87.5q0 -10 -6 -23t-19 -14q-159 -13 -155 57q1 28 2.5 73.5t3.5 185.5t-4 247h-351q-3 -85 -11 -271.5t-9 -207.5
q0 -36 -11.5 -56.5t-22.5 -23.5l-11 -2q-78 -12 -127 4zM709 844q-9 0 -9 -27q2 -8 2 -18l3 -8q8 -45 20 -127q1 -7 2 -19.5t2 -22.5t2 -18q1 -5 2 -15t2 -14q0 -5 1 -14t1 -14q11 -132 13 -197q0 -27 2 -41v-37v-65v-27v-24v-37q0 -3 1 -3t1 3q0 9 4 49q0 23 2 33
q0 25 2 37v41q2 14 2 43v22v25v47q0 109 -8 200q-7 72 -23 185q-3 17 -8 24q-3 10 -6 13l-6 4zM322 670q-3 -16 -3 -41h7q38 -2 166.5 -0.5t169.5 0.5q-31 510 -177 528q-6 0 -15.5 -3t-35 -29t-46 -72t-40.5 -146.5t-26 -236.5zM188 575q-6 -78 -6 -206q0 -29 2 -43v-21
v-18q1 -12 2 -36t2 -34v-6v-8q0 -9 2 -15v-24q5 -35 5 -39h2v53q-2 10 -2 35v37v43q2 14 2 45q0 28 4 98q6 102 18 207q9 81 29 188q4 10 4 27q0 12 -2 14q0 2 -1 5t-1 4l-2 2q-5 3 -10 -4.5t-9 -18.5l-8 -29q-1 -5 -3 -16t-3 -16q-4 -24 -4 -35q-3 -18 -6 -33q0 -13 -4 -33
q0 -10 -2 -16v-16q-1 -5 -2 -15.5t-2 -15.5q-1 -9 -2.5 -30t-2.5 -30zM379 1294q-22 -2 -38 11.5t-17 35.5t13 38t36 18q22 0 39 -14t18 -35q1 -22 -13.5 -37t-37.5 -17zM543 1284q-22 -1 -38 13t-18 34q-1 22 13.5 37.5t36.5 17.5q21 1 37 -12.5t18 -34.5q1 -22 -13 -37.5
t-36 -17.5z" />
    <glyph glyph-name="Aring" unicode="&#xc5;" 
d="M123 6q-47 16 -49 86v19q-17 554 100 853q105 267 307 269q59 1 108.5 -27t84.5 -74t63 -113.5t45.5 -139.5t30 -159t18 -163t9 -162t3.5 -146.5v-124t1 -87.5q0 -10 -6 -23t-19 -14q-159 -13 -155 57q1 28 2.5 73.5t3.5 185.5t-4 247h-351q-3 -85 -11 -271.5t-9 -207.5
q0 -36 -11.5 -56.5t-22.5 -23.5l-11 -2q-78 -12 -127 4zM709 844q-9 0 -9 -27q2 -8 2 -18l3 -8q8 -45 20 -127q1 -7 2 -19.5t2 -22.5t2 -18q1 -5 2 -15t2 -14q0 -5 1 -14t1 -14q11 -132 13 -197q0 -27 2 -41v-37v-65v-27v-24v-37q0 -3 1 -3t1 3q0 9 4 49q0 23 2 33
q0 25 2 37v41q2 14 2 43v22v25v47q0 109 -8 200q-7 72 -23 185q-3 17 -8 24q-3 10 -6 13l-6 4zM322 670q-3 -16 -3 -41h7q38 -2 166.5 -0.5t169.5 0.5q-31 510 -177 528q-6 0 -15.5 -3t-35 -29t-46 -72t-40.5 -146.5t-26 -236.5zM188 575q-6 -78 -6 -206q0 -29 2 -43v-21
v-18q1 -12 2 -36t2 -34v-6v-8q0 -9 2 -15v-24q5 -35 5 -39h2v53q-2 10 -2 35v37v43q2 14 2 45q0 28 4 98q6 102 18 207q9 81 29 188q4 10 4 27q0 12 -2 14q0 2 -1 5t-1 4l-2 2q-5 3 -10 -4.5t-9 -18.5l-8 -29q-1 -5 -3 -16t-3 -16q-4 -24 -4 -35q-3 -18 -6 -33q0 -13 -4 -33
q0 -10 -2 -16v-16q-1 -5 -2 -15.5t-2 -15.5q-1 -9 -2.5 -30t-2.5 -30zM481 1294q-26 0 -44.5 18.5t-18.5 43.5q0 26 18.5 43.5t44.5 17.5q27 0 45.5 -17.5t18.5 -43.5q0 -25 -19 -43.5t-45 -18.5zM481 1382q-10 0 -17 -7.5t-7 -18.5q0 -9 7 -17t17 -8t18.5 8t8.5 17
q0 10 -8 18t-19 8z" />
    <glyph glyph-name="AE" unicode="&#xc6;" horiz-adv-x="1447" 
d="M123 6q-47 16 -49 86v19q-17 554 100 853q105 267 307 269q70 0 123 -35q-15 38 27 41q133 9 332 2q247 -4 352 -16q39 0 55 -23q11 -14 -3 -22.5t-32 -8.5q-170 -3 -377 -16q24 -54 0 -139q-34 -113 -53 -266h203h13.5t21.5 -5.5t12 -15.5q0 -6 -2 -15.5t-15.5 -25
t-37.5 -16.5h-12q-13 0 -33.5 -0.5t-45 -1t-55 -0.5h-57.5q-9 -82 -12 -170q-4 -97 9.5 -197t44 -170t69.5 -70h13.5t33.5 4t49 12t55.5 25.5t57.5 42.5q55 53 118 184q25 54 32 54q8 1 9 -43q1 -21 -6.5 -54t-29.5 -79.5t-55 -88t-92 -75.5t-132 -45q-129 -18 -217 43v-6
q0 -10 -6 -23t-19 -14q-159 -13 -155 57q1 20 2.5 55t3.5 143.5t-2 199.5q0 12 -1 36.5t-1 38.5v33h-351q-3 -85 -11 -271.5t-9 -207.5q0 -36 -11.5 -56.5t-22.5 -23.5l-11 -2q-78 -12 -127 4zM768 686q-5 -129 8 -250q10 -86 33 -178q8 -32 18 -63q1 -2 2 -6.5t2 -6.5
t2.5 -6t2.5 -6l6 -18q2 -3 3 -3t-1 3q-28 109 -35 145q-1 4 -2 12.5t-2 12.5t-2 12.5t-2 13.5q-1 8 -6 53q-2 4 -2 15q0 2 -1 7t-1 7v14q-3 6 -3 15q0 20 -2 30v29q-2 40 2 125q1 25 11 125q11 75 20 119q1 9 25 106q8 25 8 49l-4 11q-4 4 -11 -4.5t-12 -20.5q-2 -4 -8 -22
l-2 -11q-40 -155 -47 -309zM760 1141q-53 -8 -88 -6q31 -36 57 -97q12 52 31 103zM322 670q-3 -16 -3 -41h7q38 -2 166.5 -0.5t169.5 0.5q-31 510 -177 528q-6 0 -15.5 -3t-35 -29t-46 -72t-40.5 -146.5t-26 -236.5zM188 575q-6 -78 -6 -206q0 -29 2 -43v-21v-18
q1 -12 2 -36t2 -34v-6v-8q0 -9 2 -15v-24q5 -35 5 -39h2v53q-2 10 -2 35v37v43q2 14 2 45q0 28 4 98q6 102 18 207q9 81 29 188q4 10 4 27q0 12 -2 14q0 2 -1 5t-1 4l-2 2q-5 3 -10 -4.5t-9 -18.5l-8 -29q-1 -5 -3 -16t-3 -16q-4 -24 -4 -35q-3 -18 -6 -33q0 -13 -4 -33
q0 -10 -2 -16v-16q-1 -5 -2 -15.5t-2 -15.5q-1 -9 -2.5 -30t-2.5 -30z" />
    <glyph glyph-name="Ccedilla" unicode="&#xc7;" horiz-adv-x="798" 
d="M479 0q-79 2 -143.5 26t-106.5 63.5t-73.5 90t-47.5 106t-25.5 110.5t-10.5 104.5t0 88t4 61.5l2 22q1 7 2 20t8 52t16.5 77t27.5 89t40.5 95t57 88.5t75.5 75.5t97 50t120 18h6.5t17.5 -1t24.5 -5t28.5 -12t29 -20.5t25.5 -31.5t18.5 -45.5t9 -62t-5 -80.5
q-6 -24 -26 -44.5t-48 -29.5q-11 -3 -20.5 5t-6.5 20q26 118 19.5 170.5t-28.5 59.5l-21 7q-47 -1 -86.5 -31.5t-64.5 -78.5t-44.5 -105.5t-29 -115t-16 -105t-8.5 -77.5l-1 -29q-4 -124 1.5 -214.5t25 -166.5t59 -119.5t100.5 -54.5q6 0 17 1t42.5 17.5t60.5 47.5t63.5 100
t58.5 165q2 6 7.5 8.5t10.5 -3.5q49 -70 35 -156q-10 -59 -34 -104.5t-51 -71.5t-61.5 -43t-59 -23t-48.5 -8q2 -2 2 -8q2 -4 2 -15q-1 -2 -2 -6t-2 -6q15 -20 15 -43q-2 -2 -2 -8q0 -23 -19.5 -36t-42.5 -13q-18 0 -34.5 7t-16.5 24q-2 6 -2 20q0 16 16 16h8l3 -2
q3 -2 5 -4t3 -6q1 -1 2 -3t2 -3v-2q4 -12 8 -12q6 4 12 18.5t6 22.5q-2 0 -4.5 -1t-3.5 -1q-29 -3 -33 18q0 18 21 18q7 0 14 7q0 1 1 3t1 3v4q-2 4 -2 8zM217 885q-43 -150 -43 -367v-12v-12q0 -5 1 -14t1 -13q0 -3 2 -11t2 -12v-12q0 -2 1 -5t1 -5q4 -33 33 -150
q1 -4 4 -13t4 -13t4 -12.5t4 -12.5q2 -7 8 -18.5t7 -16.5q1 -3 2.5 -2.5t-0.5 2.5q-2 8 -13 49.5t-20 71.5q-1 3 -2 10t-2 11q-1 3 -2 10t-2 10q-1 2 -6 45q0 4 -2 6v7v10q0 4 -2 12t-2 12v25q-2 8 -2 24q0 219 53 394q9 30 6 39l-4 10q-5 3 -18 -16q-2 -3 -3 -5l-8 -16z
" />
    <glyph glyph-name="Egrave" unicode="&#xc8;" horiz-adv-x="784" 
d="M53 1147q-9 8 -18 21.5t-15.5 29.5t0 28t27.5 13q133 9 330 2q247 -4 352 -16q39 0 55 -23q12 -14 -1 -22.5t-31 -8.5q-168 -3 -379 -16q27 -52 2 -139q-34 -113 -53 -266h200h14.5t22 -5.5t12.5 -15.5q0 -6 -2.5 -15.5t-16 -25t-36.5 -16.5h-12q-13 0 -33.5 -0.5
t-45.5 -1t-56 -0.5h-58q-9 -82 -12 -170q-6 -153 30.5 -295t94.5 -142h13.5t33.5 4t49 12t55.5 25.5t57.5 42.5q54 52 117 182q28 57 34 56q8 0 9 -43q1 -16 -5 -42.5t-18.5 -62.5t-37.5 -73t-58.5 -70.5t-85 -59t-113.5 -34.5q-192 -29 -297 126.5t-96 446.5q12 330 92 568
q-101 -12 -121 6zM184 686q-8 -124 6 -250q12 -90 35 -178q5 -21 19 -63q0 -5 4 -13q0 -4 4 -12q1 -2 2 -6t2 -7t2 -5q2 -4 2 0q-24 73 -35 145q-1 4 -3 12.5t-3 12.5q0 4 -1 12.5t-1 13.5q-4 15 -8 53v15q-2 4 -2 14t-2 14v15q0 5 -1 15t-1 15q0 19 -2 29q0 82 2 125
q3 64 12 125q1 5 18 119q13 59 27 106q9 37 6 49l-2 11q-5 4 -10.5 -3.5t-11.5 -21.5q-5 -10 -9 -22l-4 -11q-38 -146 -45 -309zM330 1354q-8 6 -15.5 15t-11.5 15l-4 5q-9 16 -9.5 30t3.5 19l4 6q8 8 25 8l12 -4q4 -1 76 -41q21 -14 36 -23q18 -9 25 -16q8 -8 8 -12
q2 -4 2 -15l-2 -12q-6 -8 -14 -14q-1 -1 -4.5 -2t-5.5 -2h-13q-21 -3 -57 12q-26 11 -55 31z" />
    <glyph glyph-name="Eacute" unicode="&#xc9;" horiz-adv-x="784" 
d="M53 1147q-9 8 -18 21.5t-15.5 29.5t0 28t27.5 13q133 9 330 2q247 -4 352 -16q39 0 55 -23q12 -14 -1 -22.5t-31 -8.5q-168 -3 -379 -16q27 -52 2 -139q-34 -113 -53 -266h200h14.5t22 -5.5t12.5 -15.5q0 -6 -2.5 -15.5t-16 -25t-36.5 -16.5h-12q-13 0 -33.5 -0.5
t-45.5 -1t-56 -0.5h-58q-9 -82 -12 -170q-6 -153 30.5 -295t94.5 -142h13.5t33.5 4t49 12t55.5 25.5t57.5 42.5q54 52 117 182q28 57 34 56q8 0 9 -43q1 -16 -5 -42.5t-18.5 -62.5t-37.5 -73t-58.5 -70.5t-85 -59t-113.5 -34.5q-192 -29 -297 126.5t-96 446.5q12 330 92 568
q-101 -12 -121 6zM184 686q-8 -124 6 -250q12 -90 35 -178q5 -21 19 -63q0 -5 4 -13q0 -4 4 -12q1 -2 2 -6t2 -7t2 -5q2 -4 2 0q-24 73 -35 145q-1 4 -3 12.5t-3 12.5q0 4 -1 12.5t-1 13.5q-4 15 -8 53v15q-2 4 -2 14t-2 14v15q0 5 -1 15t-1 15q0 19 -2 29q0 82 2 125
q3 64 12 125q1 5 18 119q13 59 27 106q9 37 6 49l-2 11q-5 4 -10.5 -3.5t-11.5 -21.5q-5 -10 -9 -22l-4 -11q-38 -146 -45 -309zM440 1444q15 0 25 -10q18 -19 -2 -54q-11 -22 -31 -34q-20 -17 -55 -31q-34 -15 -58 -15q-2 0 -6 1.5t-6 1.5q-6 0 -10 4q-8 3 -12 14
q-4 4 -4 12q0 9 2 13q3 9 8 14q8 8 24 16q25 15 39 23q10 5 37 21.5t37 19.5q4 2 12 4z" />
    <glyph glyph-name="Ecircumflex" unicode="&#xca;" horiz-adv-x="784" 
d="M53 1147q-9 8 -18 21.5t-15.5 29.5t0 28t27.5 13q133 9 330 2q247 -4 352 -16q39 0 55 -23q12 -14 -1 -22.5t-31 -8.5q-168 -3 -379 -16q27 -52 2 -139q-34 -113 -53 -266h200h14.5t22 -5.5t12.5 -15.5q0 -6 -2.5 -15.5t-16 -25t-36.5 -16.5h-12q-13 0 -33.5 -0.5
t-45.5 -1t-56 -0.5h-58q-9 -82 -12 -170q-6 -153 30.5 -295t94.5 -142h13.5t33.5 4t49 12t55.5 25.5t57.5 42.5q54 52 117 182q28 57 34 56q8 0 9 -43q1 -16 -5 -42.5t-18.5 -62.5t-37.5 -73t-58.5 -70.5t-85 -59t-113.5 -34.5q-192 -29 -297 126.5t-96 446.5q12 330 92 568
q-101 -12 -121 6zM184 686q-8 -124 6 -250q12 -90 35 -178q5 -21 19 -63q0 -5 4 -13q0 -4 4 -12q1 -2 2 -6t2 -7t2 -5q2 -4 2 0q-24 73 -35 145q-1 4 -3 12.5t-3 12.5q0 4 -1 12.5t-1 13.5q-4 15 -8 53v15q-2 4 -2 14t-2 14v15q0 5 -1 15t-1 15q0 19 -2 29q0 82 2 125
q3 64 12 125q1 5 18 119q13 59 27 106q9 37 6 49l-2 11q-5 4 -10.5 -3.5t-11.5 -21.5q-5 -10 -9 -22l-4 -11q-38 -146 -45 -309zM477 1305q-28 3 -51 18q-28 14 -43 29h-2q-14 -11 -45 -27q-27 -12 -51 -12q-7 -3 -13 0q-6 0 -8 2q-9 3 -14 8q-2 4 -4 10v8q5 9 8 11
q0 1 18 14q15 9 33 18q42 26 62 37h4q9 5 14 2q8 0 12 -2l4 -2q7 -4 27.5 -18t32.5 -21q6 -5 17 -12.5t14 -9.5q17 -13 18 -15q6 -6 6 -10v-10l-6 -8q-4 -8 -12 -8q-4 -2 -11 -2h-10z" />
    <glyph glyph-name="Edieresis" unicode="&#xcb;" horiz-adv-x="784" 
d="M53 1147q-9 8 -18 21.5t-15.5 29.5t0 28t27.5 13q133 9 330 2q247 -4 352 -16q39 0 55 -23q12 -14 -1 -22.5t-31 -8.5q-168 -3 -379 -16q27 -52 2 -139q-34 -113 -53 -266h200h14.5t22 -5.5t12.5 -15.5q0 -6 -2.5 -15.5t-16 -25t-36.5 -16.5h-12q-13 0 -33.5 -0.5
t-45.5 -1t-56 -0.5h-58q-9 -82 -12 -170q-6 -153 30.5 -295t94.5 -142h13.5t33.5 4t49 12t55.5 25.5t57.5 42.5q54 52 117 182q28 57 34 56q8 0 9 -43q1 -16 -5 -42.5t-18.5 -62.5t-37.5 -73t-58.5 -70.5t-85 -59t-113.5 -34.5q-192 -29 -297 126.5t-96 446.5q12 330 92 568
q-101 -12 -121 6zM184 686q-8 -124 6 -250q12 -90 35 -178q5 -21 19 -63q0 -5 4 -13q0 -4 4 -12q1 -2 2 -6t2 -7t2 -5q2 -4 2 0q-24 73 -35 145q-1 4 -3 12.5t-3 12.5q0 4 -1 12.5t-1 13.5q-4 15 -8 53v15q-2 4 -2 14t-2 14v15q0 5 -1 15t-1 15q0 19 -2 29q0 82 2 125
q3 64 12 125q1 5 18 119q13 59 27 106q9 37 6 49l-2 11q-5 4 -10.5 -3.5t-11.5 -21.5q-5 -10 -9 -22l-4 -11q-38 -146 -45 -309zM303 1315q-22 0 -38 14t-17 35t13 36t36 17t38 -11.5t17 -35.5t-13 -37.5t-36 -17.5zM467 1307q-22 -1 -38.5 13t-18.5 34q0 22 14 38t37 17
q21 1 37 -12.5t18 -34.5q1 -22 -13 -37.5t-36 -17.5z" />
    <glyph glyph-name="Igrave" unicode="&#xcc;" horiz-adv-x="552" 
d="M168 1137q-1 0 -11 -2.5t-15 -3t-14 -1.5t-14.5 0t-12 4.5t-9.5 8.5q-7 11 -14 30.5t-6 39.5t18 22q67 8 195 4q145 -4 207 -14q22 -3 32 -23q5 -16 -2 -24.5t-18 -8.5l-117 -6q36 -15 31 -80q-14 -265 -19 -520q-1 -30 -2.5 -89.5t-2.5 -95.5t-4 -87t-7 -94
q-9 -101 -25 -136h88h4.5t9 -1t11.5 -2.5t9 -5t3 -7.5q0 -2 -0.5 -5t-3 -10.5t-6.5 -13t-12 -10.5t-19 -6l-278 -2q-17 2 -17 18q-2 45 21 45h121q-22 33 -43 127q-31 123 -51 347q-15 217 6 546q5 42 18 64q-17 -4 -51 -8zM295 987q-12 -292 -6 -479q2 -121 14 -250
q0 -3 1 -3t1 3q0 33 -2 53v37v19v20v43v47v49q0 8 1 26t1 26q2 83 19 413q2 22 -5 43l-6 8q-6 1 -10 -6t-6 -18zM242 1364q-8 6 -16 15t-12 15l-3 5q-9 16 -9.5 30t3.5 19l4 6q12 12 24 8l13 -2q10 -5 38 -21.5t38 -21.5l17.5 -10.5t18.5 -11.5q20 -10 25 -15q2 -2 8 -14
q2 -4 2 -12l-2 -15q-6 -9 -14 -12q-4 -4 -10 -4q-4 -2 -13 -2q-27 0 -57 12q-26 11 -55 31z" />
    <glyph glyph-name="Iacute" unicode="&#xcd;" horiz-adv-x="552" 
d="M168 1137q-1 0 -11 -2.5t-15 -3t-14 -1.5t-14.5 0t-12 4.5t-9.5 8.5q-7 11 -14 30.5t-6 39.5t18 22q67 8 195 4q145 -4 207 -14q22 -3 32 -23q5 -16 -2 -24.5t-18 -8.5l-117 -6q36 -15 31 -80q-14 -265 -19 -520q-1 -30 -2.5 -89.5t-2.5 -95.5t-4 -87t-7 -94
q-9 -101 -25 -136h88h4.5t9 -1t11.5 -2.5t9 -5t3 -7.5q0 -2 -0.5 -5t-3 -10.5t-6.5 -13t-12 -10.5t-19 -6l-278 -2q-17 2 -17 18q-2 45 21 45h121q-22 33 -43 127q-31 123 -51 347q-15 217 6 546q5 42 18 64q-17 -4 -51 -8zM295 987q-12 -292 -6 -479q2 -121 14 -250
q0 -3 1 -3t1 3q0 33 -2 53v37v19v20v43v47v49q0 8 1 26t1 26q2 83 19 413q2 22 -5 43l-6 8q-6 1 -10 -6t-6 -18zM375 1436q14 3 26 -9q16 -18 -2 -55q-12 -21 -30 -35q-34 -21 -56 -30q-32 -13 -59 -13q-8 0 -12 2q-3 0 -11 4q-9 5 -12 13q-2 6 -2 14v12l10 15q1 0 23 14
q8 5 39 23q13 7 38 23t35 20q7 2 13 2z" />
    <glyph glyph-name="Icircumflex" unicode="&#xce;" horiz-adv-x="552" 
d="M168 1137q-1 0 -11 -2.5t-15 -3t-14 -1.5t-14.5 0t-12 4.5t-9.5 8.5q-7 11 -14 30.5t-6 39.5t18 22q67 8 195 4q145 -4 207 -14q22 -3 32 -23q5 -16 -2 -24.5t-18 -8.5l-117 -6q36 -15 31 -80q-14 -265 -19 -520q-1 -30 -2.5 -89.5t-2.5 -95.5t-4 -87t-7 -94
q-9 -101 -25 -136h88h4.5t9 -1t11.5 -2.5t9 -5t3 -7.5q0 -2 -0.5 -5t-3 -10.5t-6.5 -13t-12 -10.5t-19 -6l-278 -2q-17 2 -17 18q-2 45 21 45h121q-22 33 -43 127q-31 123 -51 347q-15 217 6 546q5 42 18 64q-17 -4 -51 -8zM295 987q-12 -292 -6 -479q2 -121 14 -250
q0 -3 1 -3t1 3q0 33 -2 53v37v19v20v43v47v49q0 8 1 26t1 26q2 83 19 413q2 22 -5 43l-6 8q-6 1 -10 -6t-6 -18zM403 1305q-25 3 -49 18q-22 10 -45 29v0q-16 -13 -47 -27q-24 -12 -51 -12q-7 -3 -10 0q-7 0 -11 2q-10 3 -12 8q-4 4 -4 10v8q0 8 6 11q4 4 21 14l30 18
l32.5 19.5t31.5 17.5h2q11 4 14 2q9 0 15 -2l2 -2q9 -4 30.5 -18.5t30.5 -20.5q5 -4 29 -22q13 -8 20 -15q4 -8 4 -10v-10l-4 -8q-8 -8 -14 -8q-2 -2 -10 -2h-11z" />
    <glyph glyph-name="Idieresis" unicode="&#xcf;" horiz-adv-x="552" 
d="M168 1137q-1 0 -11 -2.5t-15 -3t-14 -1.5t-14.5 0t-12 4.5t-9.5 8.5q-7 11 -14 30.5t-6 39.5t18 22q67 8 195 4q145 -4 207 -14q22 -3 32 -23q5 -16 -2 -24.5t-18 -8.5l-117 -6q36 -15 31 -80q-14 -265 -19 -520q-1 -30 -2.5 -89.5t-2.5 -95.5t-4 -87t-7 -94
q-9 -101 -25 -136h88h4.5t9 -1t11.5 -2.5t9 -5t3 -7.5q0 -2 -0.5 -5t-3 -10.5t-6.5 -13t-12 -10.5t-19 -6l-278 -2q-17 2 -17 18q-2 45 21 45h121q-22 33 -43 127q-31 123 -51 347q-15 217 6 546q5 42 18 64q-17 -4 -51 -8zM295 987q-12 -292 -6 -479q2 -121 14 -250
q0 -3 1 -3t1 3q0 33 -2 53v37v19v20v43v47v49q0 8 1 26t1 26q2 83 19 413q2 22 -5 43l-6 8q-6 1 -10 -6t-6 -18zM229 1315q-22 -1 -38.5 13t-18.5 34q0 22 14 38t37 17q22 1 38 -13t18 -34q1 -22 -13.5 -37.5t-36.5 -17.5zM393 1307q-23 -1 -39 12t-18 35t12.5 37.5
t36.5 15.5q23 1 39 -12t18 -35t-12.5 -37.5t-36.5 -15.5z" />
    <glyph glyph-name="Ntilde" unicode="&#xd1;" horiz-adv-x="931" 
d="M90 240q-18 172 -18 346q-4 355 47 596q18 61 45 63q52 3 94.5 -35t32.5 -88q-46 -196 -53 -516q0 -11 -1 -33.5t-1 -35.5q13 91 30 170.5t46.5 166.5t65.5 149t89.5 103t116.5 43q69 1 120.5 -33t80 -89.5t46.5 -123.5t22.5 -135.5t5.5 -124t-2 -91.5l-3 -35
q-14 -218 -57 -379q-41 -168 -88 -158q-8 2 -14 7t-11 14.5t-8.5 19t-6 23.5t-4 24.5t-3 25.5t-2 23t-1 21.5t-0.5 15.5q-13 184 -10 344q12 413 -72 513q-19 23 -34 22q-35 0 -65.5 -24t-54 -70.5t-44 -100t-35 -126.5t-26.5 -136.5t-20 -143t-13.5 -132t-9.5 -118.5
t-5 -88t-2 -53q4 -50 -26 -57q-43 -9 -78 2t-45 49q-17 63 -29 185zM698 1008q-6 -3 -6 -11q0 -6 2 -8v-6v-4q3 -12 6 -18l2 -11q15 -49 27 -133q2 -6 2 -16q2 -2 2 -8v-9q1 -5 2 -15t2 -15q0 -11 2 -17v-14q2 -10 2 -31q2 -4 2 -14v-14q0 -5 1 -14.5t1 -14.5v-27
q3 -15 3 -26v-52v-12v-12v-23v-45q0 -20 -3 -41v-37q0 -22 -2 -32q-4 -82 -4 -95q0 -3 1 -3t1 3q5 29 7 54q0 11 4 35q0 12 2 18v20q1 7 2 21.5t2 21.5q0 8 1 24t1 24q1 8 2 24.5t2 24.5v26q0 17 2 25v53v53q0 9 -1 28t-1 28q0 18 -2 26q0 19 -2 27q0 19 -2 27v14
q-2 4 -2 12q-2 8 -2 27q-4 16 -4 24q-2 8 -5.5 25t-5.5 25q0 2 -1 5t-1 5t-1 6t-1 6q-1 2 -2 6t-2 6q0 1 -1 5t-1 6q-8 20 -10 26l-6 6q-4 4 -4 7q-8 4 -9 4h-2zM147 694v-55v-100q2 -73 19 -252q0 -3 1 -3t1 3q-2 14 -2 53q0 3 -1 9t-1 9v19v39v22q-2 6 -2 23v47v24
q2 8 2 25v51q3 111 12 215q11 129 23 199v29q0 12 -2 14q0 4 -4 8v2q-6 1 -11 -6t-8 -18q-4 -16 -4 -21l-2 -8q0 -13 -4 -37q0 -15 -4 -35q-4 -50 -4 -69q-6 -66 -9 -127v-17v-14v-29zM502 1323q20 6 40 9t44 2t41 -15t22 -41q8 -33 -12 -35q-11 -2 -24 11t-29 12
q-3 0 -30.5 -7.5t-53 -12t-56 8t-47.5 45.5q-3 5 -7 13.5t-3.5 23.5t16.5 19q17 4 47 -18.5t52 -14.5z" />
    <glyph glyph-name="Ograve" unicode="&#xd2;" horiz-adv-x="890" 
d="M477 0q-105 0 -183.5 36.5t-119.5 95.5t-67 130t-30.5 142t-4 130t5.5 96l6 36q1 7 2 20t8 52t16.5 77t28 89.5t41 95.5t57.5 88.5t76 75.5t97.5 50t121.5 17h6.5t18 -1t25 -5t28.5 -11.5t29 -20.5t26 -31.5t19 -45t9 -61.5t-5 -80q-10 -37 -43 -60q28 -9 52.5 -23.5
t52 -40t47 -61t35.5 -85.5t19 -113.5t-3 -145.5q-8 -97 -33 -174t-58.5 -122.5t-71.5 -78t-75 -46t-66.5 -20t-47.5 -5.5h-19zM301 618q-6 -115 -1 -212t21 -168.5t54.5 -116t99.5 -55.5q5 -1 13 -2t31.5 2.5t46 13t51 35.5t51 64.5t42 105t27.5 151.5q11 86 2 150.5
t-24.5 110.5t-42 76.5t-51.5 48.5t-53.5 27t-47.5 12.5t-32 4.5h-5q-2 19 13.5 39t40.5 23q24 5 51 0q28 115 20.5 167t-30.5 59l-23 7q-48 -1 -88 -31.5t-65.5 -78t-45.5 -105.5t-30 -115.5t-16 -105.5t-8 -77zM178 377q2 -20 10 -51q2 -9 7 -26t6 -19q2 -2 2 -7q2 0 2 -4
q1 -2 2 -5t2 -5q1 -3 4 -10t4 -10q1 -1 2 -4.5t2 -4.5q1 -2 2 -5t2 -5l8 -16q15 -25 35 -53q15 -21 31 -37q1 -1 1 0t-1 2q-2 4 -8 10q-1 2 -4 6t-4 6q-2 2 -5.5 6.5t-5.5 6.5q-1 2 -10 16q-18 30 -37 76q-17 43 -26 100q-9 41 -13 115q0 39 4 121q14 98 19 122
q18 104 55 220q10 31 10 49l-4 10q-4 3 -10.5 -4.5t-11.5 -20.5l-12 -30q-21 -70 -23 -80q-13 -57 -16 -78q-19 -96 -23 -145q-15 -136 4 -246zM467 1329q-9 6 -16.5 15t-10.5 14l-4 6q-9 16 -9.5 30t3.5 20l4 5q12 12 25 8l12 -4q4 -1 76 -41q7 -5 22 -14l15 -8
q14 -7 24 -17q4 -4 8 -12q2 -4 2 -12l-2 -14q-7 -10 -14 -15q-1 0 -4.5 -1t-5.5 -1q-4 -2 -12 -2q-28 0 -58 12q-26 11 -55 31z" />
    <glyph glyph-name="Oacute" unicode="&#xd3;" horiz-adv-x="890" 
d="M477 0q-105 0 -183.5 36.5t-119.5 95.5t-67 130t-30.5 142t-4 130t5.5 96l6 36q1 7 2 20t8 52t16.5 77t28 89.5t41 95.5t57.5 88.5t76 75.5t97.5 50t121.5 17h6.5t18 -1t25 -5t28.5 -11.5t29 -20.5t26 -31.5t19 -45t9 -61.5t-5 -80q-10 -37 -43 -60q28 -9 52.5 -23.5
t52 -40t47 -61t35.5 -85.5t19 -113.5t-3 -145.5q-8 -97 -33 -174t-58.5 -122.5t-71.5 -78t-75 -46t-66.5 -20t-47.5 -5.5h-19zM301 618q-6 -115 -1 -212t21 -168.5t54.5 -116t99.5 -55.5q5 -1 13 -2t31.5 2.5t46 13t51 35.5t51 64.5t42 105t27.5 151.5q11 86 2 150.5
t-24.5 110.5t-42 76.5t-51.5 48.5t-53.5 27t-47.5 12.5t-32 4.5h-5q-2 19 13.5 39t40.5 23q24 5 51 0q28 115 20.5 167t-30.5 59l-23 7q-48 -1 -88 -31.5t-65.5 -78t-45.5 -105.5t-30 -115.5t-16 -105.5t-8 -77zM178 377q2 -20 10 -51q2 -9 7 -26t6 -19q2 -2 2 -7q2 0 2 -4
q1 -2 2 -5t2 -5q1 -3 4 -10t4 -10q1 -1 2 -4.5t2 -4.5q1 -2 2 -5t2 -5l8 -16q15 -25 35 -53q15 -21 31 -37q1 -1 1 0t-1 2q-2 4 -8 10q-1 2 -4 6t-4 6q-2 2 -5.5 6.5t-5.5 6.5q-1 2 -10 16q-18 30 -37 76q-17 43 -26 100q-9 41 -13 115q0 39 4 121q14 98 19 122
q18 104 55 220q10 31 10 49l-4 10q-4 3 -10.5 -4.5t-11.5 -20.5l-12 -30q-21 -70 -23 -80q-13 -57 -16 -78q-19 -96 -23 -145q-15 -136 4 -246zM578 1432q11 4 24 -9q18 -18 -2 -55q-11 -21 -31 -35q-25 -18 -55 -30q-29 -13 -57 -13q-9 0 -13 2q-2 0 -5.5 1t-4.5 1
q-9 6 -12 15q-4 6 -4 14t2 12q6 12 8 15q3 3 25 14q6 4 18.5 11.5l17.5 10.5q12 6 39 23t37 21q5 2 13 2z" />
    <glyph glyph-name="Ocircumflex" unicode="&#xd4;" horiz-adv-x="890" 
d="M477 0q-105 0 -183.5 36.5t-119.5 95.5t-67 130t-30.5 142t-4 130t5.5 96l6 36q1 7 2 20t8 52t16.5 77t28 89.5t41 95.5t57.5 88.5t76 75.5t97.5 50t121.5 17h6.5t18 -1t25 -5t28.5 -11.5t29 -20.5t26 -31.5t19 -45t9 -61.5t-5 -80q-10 -37 -43 -60q28 -9 52.5 -23.5
t52 -40t47 -61t35.5 -85.5t19 -113.5t-3 -145.5q-8 -97 -33 -174t-58.5 -122.5t-71.5 -78t-75 -46t-66.5 -20t-47.5 -5.5h-19zM301 618q-6 -115 -1 -212t21 -168.5t54.5 -116t99.5 -55.5q5 -1 13 -2t31.5 2.5t46 13t51 35.5t51 64.5t42 105t27.5 151.5q11 86 2 150.5
t-24.5 110.5t-42 76.5t-51.5 48.5t-53.5 27t-47.5 12.5t-32 4.5h-5q-2 19 13.5 39t40.5 23q24 5 51 0q28 115 20.5 167t-30.5 59l-23 7q-48 -1 -88 -31.5t-65.5 -78t-45.5 -105.5t-30 -115.5t-16 -105.5t-8 -77zM178 377q2 -20 10 -51q2 -9 7 -26t6 -19q2 -2 2 -7q2 0 2 -4
q1 -2 2 -5t2 -5q1 -3 4 -10t4 -10q1 -1 2 -4.5t2 -4.5q1 -2 2 -5t2 -5l8 -16q15 -25 35 -53q15 -21 31 -37q1 -1 1 0t-1 2q-2 4 -8 10q-1 2 -4 6t-4 6q-2 2 -5.5 6.5t-5.5 6.5q-1 2 -10 16q-18 30 -37 76q-17 43 -26 100q-9 41 -13 115q0 39 4 121q14 98 19 122
q18 104 55 220q10 31 10 49l-4 10q-4 3 -10.5 -4.5t-11.5 -20.5l-12 -30q-21 -70 -23 -80q-13 -57 -16 -78q-19 -96 -23 -145q-15 -136 4 -246zM610 1286q-21 3 -49 17q-27 15 -45 30v0q-13 -11 -47 -26q-23 -11 -51 -15q-6 0 -10 2h-11q-9 4 -12 11q-4 4 -4 10v8q0 7 6 10
q6 6 21 15l30 18q59 33 64 35q2 2 4 2q4 2 12 2q10 0 14 -2l5 -2l59 -41q5 -3 29 -21q15 -9 20 -14q4 -8 4 -10q3 -5 0 -10l-4 -9q-8 -8 -14 -8q-2 -2 -10 -2h-11z" />
    <glyph glyph-name="Otilde" unicode="&#xd5;" horiz-adv-x="890" 
d="M477 0q-105 0 -183.5 36.5t-119.5 95.5t-67 130t-30.5 142t-4 130t5.5 96l6 36q1 7 2 20t8 52t16.5 77t28 89.5t41 95.5t57.5 88.5t76 75.5t97.5 50t121.5 17h6.5t18 -1t25 -5t28.5 -11.5t29 -20.5t26 -31.5t19 -45t9 -61.5t-5 -80q-10 -37 -43 -60q28 -9 52.5 -23.5
t52 -40t47 -61t35.5 -85.5t19 -113.5t-3 -145.5q-8 -97 -33 -174t-58.5 -122.5t-71.5 -78t-75 -46t-66.5 -20t-47.5 -5.5h-19zM301 618q-6 -115 -1 -212t21 -168.5t54.5 -116t99.5 -55.5q5 -1 13 -2t31.5 2.5t46 13t51 35.5t51 64.5t42 105t27.5 151.5q11 86 2 150.5
t-24.5 110.5t-42 76.5t-51.5 48.5t-53.5 27t-47.5 12.5t-32 4.5h-5q-2 19 13.5 39t40.5 23q24 5 51 0q28 115 20.5 167t-30.5 59l-23 7q-48 -1 -88 -31.5t-65.5 -78t-45.5 -105.5t-30 -115.5t-16 -105.5t-8 -77zM178 377q2 -20 10 -51q2 -9 7 -26t6 -19q2 -2 2 -7q2 0 2 -4
q1 -2 2 -5t2 -5q1 -3 4 -10t4 -10q1 -1 2 -4.5t2 -4.5q1 -2 2 -5t2 -5l8 -16q15 -25 35 -53q15 -21 31 -37q1 -1 1 0t-1 2q-2 4 -8 10q-1 2 -4 6t-4 6q-2 2 -5.5 6.5t-5.5 6.5q-1 2 -10 16q-18 30 -37 76q-17 43 -26 100q-9 41 -13 115q0 39 4 121q14 98 19 122
q18 104 55 220q10 31 10 49l-4 10q-4 3 -10.5 -4.5t-11.5 -20.5l-12 -30q-21 -70 -23 -80q-13 -57 -16 -78q-19 -96 -23 -145q-15 -136 4 -246zM506 1370q19 7 40 10.5t44 2t40.5 -15.5t22.5 -40q9 -35 -14 -37q-9 -2 -21.5 12t-29.5 13q-1 0 -30 -8.5t-53.5 -12.5
t-55.5 8.5t-48 45.5q-1 2 -3 5t-5 11.5t-3.5 15.5t4 14t14.5 9q17 5 47 -18t51 -15z" />
    <glyph glyph-name="Odieresis" unicode="&#xd6;" horiz-adv-x="890" 
d="M477 0q-105 0 -183.5 36.5t-119.5 95.5t-67 130t-30.5 142t-4 130t5.5 96l6 36q1 7 2 20t8 52t16.5 77t28 89.5t41 95.5t57.5 88.5t76 75.5t97.5 50t121.5 17h6.5t18 -1t25 -5t28.5 -11.5t29 -20.5t26 -31.5t19 -45t9 -61.5t-5 -80q-10 -37 -43 -60q28 -9 52.5 -23.5
t52 -40t47 -61t35.5 -85.5t19 -113.5t-3 -145.5q-8 -97 -33 -174t-58.5 -122.5t-71.5 -78t-75 -46t-66.5 -20t-47.5 -5.5h-19zM301 618q-6 -115 -1 -212t21 -168.5t54.5 -116t99.5 -55.5q5 -1 13 -2t31.5 2.5t46 13t51 35.5t51 64.5t42 105t27.5 151.5q11 86 2 150.5
t-24.5 110.5t-42 76.5t-51.5 48.5t-53.5 27t-47.5 12.5t-32 4.5h-5q-2 19 13.5 39t40.5 23q24 5 51 0q28 115 20.5 167t-30.5 59l-23 7q-48 -1 -88 -31.5t-65.5 -78t-45.5 -105.5t-30 -115.5t-16 -105.5t-8 -77zM178 377q2 -20 10 -51q2 -9 7 -26t6 -19q2 -2 2 -7q2 0 2 -4
q1 -2 2 -5t2 -5q1 -3 4 -10t4 -10q1 -1 2 -4.5t2 -4.5q1 -2 2 -5t2 -5l8 -16q15 -25 35 -53q15 -21 31 -37q1 -1 1 0t-1 2q-2 4 -8 10q-1 2 -4 6t-4 6q-2 2 -5.5 6.5t-5.5 6.5q-1 2 -10 16q-18 30 -37 76q-17 43 -26 100q-9 41 -13 115q0 39 4 121q14 98 19 122
q18 104 55 220q10 31 10 49l-4 10q-4 3 -10.5 -4.5t-11.5 -20.5l-12 -30q-21 -70 -23 -80q-13 -57 -16 -78q-19 -96 -23 -145q-15 -136 4 -246zM440 1294q-22 -2 -39 12t-18 35q-1 22 13 38t36 18q23 0 39.5 -13.5t17.5 -35.5t-13 -37t-36 -17zM604 1284q-23 -1 -39 13
t-18 36q-2 20 12.5 36t36.5 17q23 1 39 -12t18 -35q1 -22 -13 -37.5t-36 -17.5z" />
    <glyph glyph-name="multiply" unicode="&#xd7;" horiz-adv-x="337" 
d="M90 475l12 12l13 13q0 2 -4 6q-2 3 -15 16q-2 4 -6 8t-4 9q-4 4 -6 10q-7 13 4 24q18 21 31 21q16 0 32 -19q6 -3 15 -12q6 -3 12 -12q3 3 6.5 5.5t8 5t6.5 3.5q4 3 22 15q27 10 39 0q4 -5 8 -11q5 -14 -2 -30q0 -1 -8 -13q-1 -2 -5.5 -6.5t-6.5 -7.5t-7.5 -8t-7.5 -8
q3 -3 8.5 -10.5t8.5 -10.5q2 -3 6.5 -11t5.5 -11q13 -23 2 -37q-4 -4 -10 -8q-18 -4 -33 2q-1 1 -2.5 2l-4.5 3t-5 3q-10 5 -17 12q-2 2 -7.5 6.5t-8.5 7.5l-6 -6q-4 -4 -19 -14q-1 -1 -4 -3t-4 -3t-4 -2t-4 -2q-4 -4 -12 -6q-14 -5 -25 4q-20 17 -20 30q0 15 18 33z" />
    <glyph glyph-name="Oslash" unicode="&#xd8;" horiz-adv-x="890" 
d="M233 74q-63 49 -101.5 128t-48.5 156.5t-11 148.5t6 115l6 44q1 7 2 20t8 52t16.5 77t28 89.5t41 95.5t57.5 88.5t76 75.5t97.5 50t121.5 17h15t34 -7t45 -20.5t39 -45t25 -75.5q1 3 8 17q19 30 37 59q35 56 51 51q23 -9 11 -69q-12 -46 -35 -90q-12 -26 -36.5 -77
t-37.5 -77q38 -20 68 -52.5t56 -85t36.5 -132.5t1.5 -181q-9 -97 -34 -174t-58.5 -122.5t-71.5 -78t-74.5 -46t-66.5 -20t-48 -5.5h-18q-113 0 -194 43q-14 -26 -26.5 -40t-19 -17t-12.5 -2q-8 0 -8 14q0 31 14 76zM469 420q-21 -45 -71 -146t-52 -106q42 -88 129 -102
q5 -1 13 -2t31.5 2.5t46 13t51 35.5t51 64.5t42 105t27.5 151.5q26 265 -94 369q-101 -225 -104 -232q-12 -26 -35 -76.5t-35 -76.5zM301 618q-7 -218 12 -337q108 256 254 565l2 2q-13 6 -28 9.5t-25 5t-20.5 2.5t-12.5 1q-2 19 13.5 38.5t40.5 23.5q24 5 51 0
q28 115 20.5 167t-30.5 59l-23 7q-48 -1 -87.5 -31.5t-65 -78t-45 -105.5t-30 -115.5t-17 -105.5t-8.5 -77zM174 623q-12 -108 4 -246q8 -59 23 -96l8 -21q1 -3 4 -10t4 -10l8 -17q1 -3 4 -9t4 -9q5 -12 16 -28t13 -19q2 2 2 6q0 2 -2 4q-66 111 -76 291q-1 19 4 121
q8 135 76 342q8 25 8 49l-4 10q-4 4 -10.5 -4t-11.5 -21l-12 -30q-47 -148 -62 -303z" />
    <glyph glyph-name="Ugrave" unicode="&#xd9;" horiz-adv-x="931" 
d="M291 1055q-46 -196 -53 -516q0 -29 0.5 -76.5t4 -147.5t15.5 -164.5t31 -60.5q39 8 115 207t144 445.5t95 408.5q4 32 19.5 57.5t44.5 26.5q64 3 116 -8q22 -5 30.5 -30.5t6.5 -53.5q-8 -134 -22 -596q-4 -236 -15 -377q0 -2 -2.5 -29t-5.5 -46t-8.5 -43.5t-15.5 -38
t-23 -13.5q-10 0 -20 6.5t-17.5 19t-13.5 25.5t-11.5 31t-9 30t-7.5 28l-5 20q-35 139 -49 358q-6 92 -6 189q-37 -129 -76 -240t-85 -217t-96 -172t-96 -76q-41 -8 -75 16t-54.5 69t-36 101.5t-22.5 114.5t-11 106t-5 79v30q-4 355 47 596q19 62 45 64q52 3 94.5 -35
t32.5 -88zM737 1030q-6 -318 4 -547q3 -104 9 -178q2 -27 4.5 -64t3.5 -44h2q0 38 -2 63v39q0 7 -1 22.5t-1 22.5v219q3 234 10 473q0 37 -6 49l-6 9q-6 1 -9.5 -8t-5.5 -23zM199 977q3 36 0 47l-6 10q-4 3 -10 -5.5t-9 -20.5l-6 -31q-7 -49 -16 -154q-6 -76 -9 -139
q-3 -119 4 -233q0 -2 1.5 -6.5t1.5 -6.5v-12q2 -8 2 -25q1 -4 2 -11t2 -11q0 -15 2 -23q6 -40 12 -75q4 -27 11.5 -63.5t8.5 -39.5q2 -5 4 -3l-1 3q-14 75 -21 139q0 4 -1 12.5t-1 12.5t-1 12.5t-1 12.5t-1 12t-1 12v12q0 2 -1 7t-1 8q-2 35 -2 108v31v29q0 9 1 29t1 30
q4 78 8 117q7 87 27 215zM477 1343q-8 6 -15.5 15t-11.5 14l-4 6q-8 16 -8.5 30t2.5 20l4 6q12 12 27 8l12 -2q10 -4 36 -20t38 -23q21 -12 39 -21q5 -4 12.5 -9t9.5 -7q8 -8 11 -14v-13l-2 -14q-2 -7 -13 -12q-8 -4 -10 -4q-6 -3 -12 -3q-28 0 -60 13q-19 8 -55 30z" />
    <glyph glyph-name="Uacute" unicode="&#xda;" horiz-adv-x="931" 
d="M291 1055q-46 -196 -53 -516q0 -29 0.5 -76.5t4 -147.5t15.5 -164.5t31 -60.5q39 8 115 207t144 445.5t95 408.5q4 32 19.5 57.5t44.5 26.5q64 3 116 -8q22 -5 30.5 -30.5t6.5 -53.5q-8 -134 -22 -596q-4 -236 -15 -377q0 -2 -2.5 -29t-5.5 -46t-8.5 -43.5t-15.5 -38
t-23 -13.5q-10 0 -20 6.5t-17.5 19t-13.5 25.5t-11.5 31t-9 30t-7.5 28l-5 20q-35 139 -49 358q-6 92 -6 189q-37 -129 -76 -240t-85 -217t-96 -172t-96 -76q-41 -8 -75 16t-54.5 69t-36 101.5t-22.5 114.5t-11 106t-5 79v30q-4 355 47 596q19 62 45 64q52 3 94.5 -35
t32.5 -88zM737 1030q-6 -318 4 -547q3 -104 9 -178q2 -27 4.5 -64t3.5 -44h2q0 38 -2 63v39q0 7 -1 22.5t-1 22.5v219q3 234 10 473q0 37 -6 49l-6 9q-6 1 -9.5 -8t-5.5 -23zM199 977q3 36 0 47l-6 10q-4 3 -10 -5.5t-9 -20.5l-6 -31q-7 -49 -16 -154q-6 -76 -9 -139
q-3 -119 4 -233q0 -2 1.5 -6.5t1.5 -6.5v-12q2 -8 2 -25q1 -4 2 -11t2 -11q0 -15 2 -23q6 -40 12 -75q4 -27 11.5 -63.5t8.5 -39.5q2 -5 4 -3l-1 3q-14 75 -21 139q0 4 -1 12.5t-1 12.5t-1 12.5t-1 12.5t-1 12t-1 12v12q0 2 -1 7t-1 8q-2 35 -2 108v31v29q0 9 1 29t1 30
q4 78 8 117q7 87 27 215zM575 1430q13 3 25 -9q18 -18 -2 -55q-11 -21 -31 -35q-28 -20 -53 -31q-30 -12 -59 -12q-9 0 -13 2q-2 0 -5.5 1t-4.5 1q-9 6 -12 15q-4 6 -4 14t2 12q5 10 8 13q1 2 25 16q10 6 38 22q68 40 74 43q4 3 12 3z" />
    <glyph glyph-name="Ucircumflex" unicode="&#xdb;" horiz-adv-x="931" 
d="M291 1055q-46 -196 -53 -516q0 -29 0.5 -76.5t4 -147.5t15.5 -164.5t31 -60.5q39 8 115 207t144 445.5t95 408.5q4 32 19.5 57.5t44.5 26.5q64 3 116 -8q22 -5 30.5 -30.5t6.5 -53.5q-8 -134 -22 -596q-4 -236 -15 -377q0 -2 -2.5 -29t-5.5 -46t-8.5 -43.5t-15.5 -38
t-23 -13.5q-10 0 -20 6.5t-17.5 19t-13.5 25.5t-11.5 31t-9 30t-7.5 28l-5 20q-35 139 -49 358q-6 92 -6 189q-37 -129 -76 -240t-85 -217t-96 -172t-96 -76q-41 -8 -75 16t-54.5 69t-36 101.5t-22.5 114.5t-11 106t-5 79v30q-4 355 47 596q19 62 45 64q52 3 94.5 -35
t32.5 -88zM737 1030q-6 -318 4 -547q3 -104 9 -178q2 -27 4.5 -64t3.5 -44h2q0 38 -2 63v39q0 7 -1 22.5t-1 22.5v219q3 234 10 473q0 37 -6 49l-6 9q-6 1 -9.5 -8t-5.5 -23zM199 977q3 36 0 47l-6 10q-4 3 -10 -5.5t-9 -20.5l-6 -31q-7 -49 -16 -154q-6 -76 -9 -139
q-3 -119 4 -233q0 -2 1.5 -6.5t1.5 -6.5v-12q2 -8 2 -25q1 -4 2 -11t2 -11q0 -15 2 -23q6 -40 12 -75q4 -27 11.5 -63.5t8.5 -39.5q2 -5 4 -3l-1 3q-14 75 -21 139q0 4 -1 12.5t-1 12.5t-1 12.5t-1 12.5t-1 12t-1 12v12q0 2 -1 7t-1 8q-2 35 -2 108v31v29q0 9 1 29t1 30
q4 78 8 117q7 87 27 215zM602 1276q-26 4 -49 18q-25 13 -45 29v0q-13 -11 -45 -27q-27 -12 -51 -12q-6 -3 -13 0q-6 0 -8 2q-9 3 -14 8q-2 5 -4 11v8q4 8 6 10t9.5 6.5t10.5 7.5q25 15 33 19q42 26 62 37h4q8 4 14 2q8 0 12 -2l4 -2q7 -4 27.5 -18t32.5 -21q25 -20 30 -23
l7.5 -5t7 -5t4.5 -4t6 -10q0 -7 -2 -11l-4 -8q-4 -8 -14 -8q-2 -2 -9 -2h-12z" />
    <glyph glyph-name="Udieresis" unicode="&#xdc;" horiz-adv-x="931" 
d="M291 1055q-46 -196 -53 -516q0 -29 0.5 -76.5t4 -147.5t15.5 -164.5t31 -60.5q39 8 115 207t144 445.5t95 408.5q4 32 19.5 57.5t44.5 26.5q64 3 116 -8q22 -5 30.5 -30.5t6.5 -53.5q-8 -134 -22 -596q-4 -236 -15 -377q0 -2 -2.5 -29t-5.5 -46t-8.5 -43.5t-15.5 -38
t-23 -13.5q-10 0 -20 6.5t-17.5 19t-13.5 25.5t-11.5 31t-9 30t-7.5 28l-5 20q-35 139 -49 358q-6 92 -6 189q-37 -129 -76 -240t-85 -217t-96 -172t-96 -76q-41 -8 -75 16t-54.5 69t-36 101.5t-22.5 114.5t-11 106t-5 79v30q-4 355 47 596q19 62 45 64q52 3 94.5 -35
t32.5 -88zM737 1030q-6 -318 4 -547q3 -104 9 -178q2 -27 4.5 -64t3.5 -44h2q0 38 -2 63v39q0 7 -1 22.5t-1 22.5v219q3 234 10 473q0 37 -6 49l-6 9q-6 1 -9.5 -8t-5.5 -23zM199 977q3 36 0 47l-6 10q-4 3 -10 -5.5t-9 -20.5l-6 -31q-7 -49 -16 -154q-6 -76 -9 -139
q-3 -119 4 -233q0 -2 1.5 -6.5t1.5 -6.5v-12q2 -8 2 -25q1 -4 2 -11t2 -11q0 -15 2 -23q6 -40 12 -75q4 -27 11.5 -63.5t8.5 -39.5q2 -5 4 -3l-1 3q-14 75 -21 139q0 4 -1 12.5t-1 12.5t-1 12.5t-1 12.5t-1 12t-1 12v12q0 2 -1 7t-1 8q-2 35 -2 108v31v29q0 9 1 29t1 30
q4 78 8 117q7 87 27 215zM414 1309q-22 -1 -38 13t-18 36q-1 20 13.5 35.5t36.5 17.5t38 -11.5t17 -35.5t-13 -37.5t-36 -17.5zM578 1300q-22 -2 -39.5 12t-18.5 36q0 22 14 38t37 17q22 0 38.5 -14t17.5 -35q2 -20 -12.5 -36.5t-36.5 -17.5z" />
    <glyph glyph-name="Yacute" unicode="&#xdd;" horiz-adv-x="952" 
d="M813 1186q30 -41 46.5 -103.5t18.5 -143t0 -131.5t-8 -127q-1 -18 -2 -26q-6 -60 -14 -119.5t-25 -140t-38.5 -150t-55.5 -141t-74.5 -122t-97.5 -84.5t-123 -37q-9 -1 -24 -0.5t-53 10t-66 27.5t-48.5 60t-15.5 101q4 60 47.5 115.5t109.5 96t125 67.5t116 45
q23 150 34.5 336t12.5 297v110q-2 -16 -5.5 -43.5t-18 -107.5t-31.5 -153t-46 -163t-61.5 -156t-78.5 -113t-97 -52q-48 -4 -87 10.5t-66.5 41.5t-48.5 69.5t-33.5 87t-20 101.5t-10 105.5t-2 107.5t2.5 99t5 87q1 5 2.5 13t11 29.5t24.5 39.5t44 37t67 28q39 9 53 -18.5
t8 -59.5l-5 -31l-14 -144q-27 -383 60 -466q18 -18 42 -20q32 -3 67 66t64 172t55 207.5t48.5 186.5t35.5 95q3 5 9 13t24.5 23.5t37.5 21t46.5 -6.5t52.5 -47zM248 455q2 -1 3 0t-1 2q-10 14 -21 35q-2 3 -5.5 11t-4.5 11q-2 4 -5 14.5t-5 14.5q-17 68 -23 139
q-11 113 7 309q3 21 -5 33l-6 6q-4 1 -8 -4.5t-6 -13.5l-4 -23q-8 -91 -4 -201q3 -85 16 -159q17 -75 35 -113q14 -33 37 -61zM430 -63q126 19 191 374q-55 -18 -100.5 -39.5t-76 -42.5t-55 -44t-37 -44.5t-22.5 -42.5t-11.5 -38.5t-3 -32.5t1.5 -25q7 -36 35.5 -52
t53.5 -14zM793 741q7 138 2 222q0 25 -11 47l-8 8q-10 0 -10 -31v-33q4 -53 4 -153q-4 -94 -8 -139q-8 -112 -29 -232q-11 -64 -39 -168q-2 -9 -8 -29t-8 -30q-3 -8 -7.5 -22t-6.5 -19q1 -2 2 -2q33 85 47 137q6 18 8 22q1 3 6 23q0 2 1 6t1 6q1 2 2 6.5t2 6.5q1 4 3 13
t3 13q18 79 23 111q11 53 18 117q4 27 13 120zM563 1419q17 0 27 -10q16 -16 -4 -53q-11 -21 -29 -35q-26 -19 -55 -31q-37 -15 -60 -12h-12q-2 1 -5 2t-5 2q-9 6 -12 14q-5 7 -5 13q0 5 3 14q4 8 8 12q6 7 24 17q4 2 39 22q63 37 74 41q6 4 12 4z" />
    <glyph glyph-name="germandbls" unicode="&#xdf;" horiz-adv-x="954" 
d="M217 -29q-117 -7 -131 74q-9 61 -13 503t5 611q0 19 16 43q30 43 88 43q53 -2 106 -7.5t138 -29.5t142.5 -62t92.5 -111.5t15 -170.5q-15 -61 -26 -88q-51 -123 -150 -186q8 1 22.5 2t56 -1.5t78.5 -9.5t82 -27t76 -49.5t50.5 -82t15.5 -119.5q-9 -178 -189 -274
q-49 -26 -100.5 -39.5t-77.5 -13.5l-27 -1q-7 0 -18.5 0.5t-41.5 8.5t-53.5 22t-43 45.5t-21.5 75.5v6.5t2 15t5.5 18.5t12 15t19.5 8q17 1 25.5 -15t12 -40.5t5.5 -28.5q15 -29 39 -38.5t47.5 -2t45 19t35.5 23.5l13 11q53 45 81.5 97.5t30.5 95t-3 78t-15 55.5l-10 20
q-20 28 -51.5 37.5t-65.5 2t-60.5 -18.5t-51.5 -25q-26 -14 -54.5 -6.5t-41.5 32.5q-9 12 -19 43q-3 10 6 19q22 19 46 47t58.5 80t57.5 128.5t25 162.5q1 52 -18 91t-53.5 62t-71.5 35.5t-80 18.5q3 -12 0 -31q-9 -94 -20.5 -550.5t-4.5 -549.5v-7.5t-2 -16.5t-5.5 -21.5
t-12 -17.5t-19.5 -9zM774 375q7 -40 2 -68q0 -10 -2 -16q0 -7 -4 -15q0 -4 -4 -16v-2l-2 -4q0 -1 -1 -3.5t-1 -4.5q-10 -24 -25 -49q-21 -36 -53 -72l-12 -12q0 -3 -4 -7q-1 -1 -3 -2t-3 -2q-14 -14 -17 -16q0 -4 2 -2l25 20q2 2 7 6.5t7 6.5l4 4l4 4l8 8q2 2 5.5 5t5.5 5
q1 1 4 4.5t4 4.5t2 3t2 3l2 2l2 2q4 4 8 12q4 4 6 4q0 1 5 6q5 10 8 13q4 8 8 14q0 2 4 6q0 1 1 3t1 3q4 4 4 6l2 4q0 1 1 2.5t1 2.5q1 2 3 7t3 7l7 14q0 6 2 8l2 9q8 27 8 65v6v8q-2 6 -2 17q-1 5 -3 15.5t-3 15.5q-11 27 -11 28q-9 19 -14 25q-6 12 -18 18h-9
q-10 -8 -2 -20q0 -4 2 -6q0 -1 1 -2t1 -2t1.5 -2.5t1.5 -2.5q20 -33 26 -71zM528 713q-2 -2 2 -2q1 3 11 18l6 12q1 2 4 6.5t4 6.5q6 12 8 14q0 2 1 4.5t1 3.5l4 8q5 8 9 19q4 12 8 18q15 47 20 80q6 43 0 80q0 6 -4 10l-2 2q-2 2 -4 2q-2 2 -4 2h-2q-7 -2 -12 -12v-8l2 -2
v-2q0 -4 1 -12.5t1 -12.5v-12v-12v-13v-10q0 -2 -1 -6t-1 -6v-6v-2v-2q-1 -10 -19 -78q-4 -8 -4 -15l-4 -8q0 -4 -2 -8q-3 -7 -8 -25l-8.5 -17t-6.5 -15zM166 1006q-4 -253 0 -570q0 -71 2 -102q0 -57 2 -84q0 -13 1 -35.5t1 -30.5q0 -10 1 -26t1 -21q0 -3 1 -3t1 3
q0 132 6 381q6 237 13 494q1 24 -2.5 38.5t-6.5 17.5l-4 3q-4 1 -7.5 -5t-5 -16t-2.5 -20t-1 -17v-7z" />
    <glyph glyph-name="agrave" unicode="&#xe0;" horiz-adv-x="851" 
d="M967 553l18 -18q6 -12 6 -29q-15 -91 -37.5 -173t-57.5 -162t-86.5 -126.5t-111.5 -44.5q-145 5 -186 354q-15 -49 -33.5 -92.5t-46.5 -89t-59 -77t-74 -50.5t-90 -16q-4 0 -11.5 1t-29 6.5t-41.5 14.5t-46.5 28.5t-48 45.5t-40.5 68t-28.5 93t-9 124.5t14.5 158.5
q17 101 50 185.5t74 140t88.5 95.5t95 56t92 17t81 -17t60.5 -51q0 2 2 2q0 3 1.5 8t6.5 17.5t11.5 21.5t19.5 14.5t29 2.5l14 -3q14 -4 18.5 -5t19.5 -5.5t22 -7.5t20 -9.5t20 -12t16 -14.5t13.5 -18t7.5 -21t2 -25q-6 -74 -6 -414q-12 -428 31 -448q21 -10 57.5 55t73 179
t55.5 231q2 8 9.5 11t13.5 -1zM66 530q8 41 24 86q6 25 33 89q17 35 45 86q9 18 49 75q33 46 53 66q14 19 19 33v10q-6 9 -27 -8q-2 -2 -6 -6.5t-6 -6.5l-6 -6q-76 -97 -127 -205q-25 -59 -37 -96q0 -2 -1 -5t-1 -5q-2 -2 -2 -6q-2 -2 -2 -6q-1 -3 -6 -23q-5 -15 -5 -20
q-1 -2 -2 -5.5t-2 -5.5q0 -6 -2 -10q-14 -77 -14 -139v-14v-13v-22q1 -6 2 -19t2 -18h2q-4 51 4 115q0 3 1 9t1 9q0 2 1 5.5t1 4.5q0 6 2 10v11q2 4 2 10q5 15 5 20zM502 657q0 140 2 199q-3 38 -13 64t-23 36t-25 14t-21 2l-8 -1q-82 -18 -165 -193q-85 -180 -115 -390
q-30 -214 27 -283q22 -26 56 -25q47 2 88 34.5t68.5 77t51 109.5t36.5 115t23.5 113t12.5 83.5t5 44.5zM655 172h2q-10 45 -16 125q-4 54 -4 86q-2 33 -2 98q-2 134 12 402q3 31 -4 41l-6 8q-6 1 -9 -6t-5 -19l-5 -28q-7 -156 -4 -258q0 -104 7 -207q5 -79 16 -152
q3 -17 6.5 -34.5t7 -33.5t4.5 -22zM385 1180q-9 6 -16.5 14.5t-10.5 13.5l-4 6q-9 16 -9.5 30t3.5 20l4 6q8 8 25 8l12 -4q11 -4 74 -41q14 -8 39 -23q20 -12 24 -16q6 -6 9 -12q2 -4 2 -13l-5 -14q-3 -8 -12 -14q-1 -1 -4.5 -2t-5.5 -2h-12q-23 -3 -60 12q-25 11 -53 31z
" />
    <glyph glyph-name="aacute" unicode="&#xe1;" horiz-adv-x="851" 
d="M967 553l18 -18q6 -12 6 -29q-15 -91 -37.5 -173t-57.5 -162t-86.5 -126.5t-111.5 -44.5q-145 5 -186 354q-15 -49 -33.5 -92.5t-46.5 -89t-59 -77t-74 -50.5t-90 -16q-4 0 -11.5 1t-29 6.5t-41.5 14.5t-46.5 28.5t-48 45.5t-40.5 68t-28.5 93t-9 124.5t14.5 158.5
q17 101 50 185.5t74 140t88.5 95.5t95 56t92 17t81 -17t60.5 -51q0 2 2 2q0 3 1.5 8t6.5 17.5t11.5 21.5t19.5 14.5t29 2.5l14 -3q14 -4 18.5 -5t19.5 -5.5t22 -7.5t20 -9.5t20 -12t16 -14.5t13.5 -18t7.5 -21t2 -25q-6 -74 -6 -414q-12 -428 31 -448q21 -10 57.5 55t73 179
t55.5 231q2 8 9.5 11t13.5 -1zM66 530q8 41 24 86q6 25 33 89q17 35 45 86q9 18 49 75q33 46 53 66q14 19 19 33v10q-6 9 -27 -8q-2 -2 -6 -6.5t-6 -6.5l-6 -6q-76 -97 -127 -205q-25 -59 -37 -96q0 -2 -1 -5t-1 -5q-2 -2 -2 -6q-2 -2 -2 -6q-1 -3 -6 -23q-5 -15 -5 -20
q-1 -2 -2 -5.5t-2 -5.5q0 -6 -2 -10q-14 -77 -14 -139v-14v-13v-22q1 -6 2 -19t2 -18h2q-4 51 4 115q0 3 1 9t1 9q0 2 1 5.5t1 4.5q0 6 2 10v11q2 4 2 10q5 15 5 20zM502 657q0 140 2 199q-3 38 -13 64t-23 36t-25 14t-21 2l-8 -1q-82 -18 -165 -193q-85 -180 -115 -390
q-30 -214 27 -283q22 -26 56 -25q47 2 88 34.5t68.5 77t51 109.5t36.5 115t23.5 113t12.5 83.5t5 44.5zM655 172h2q-10 45 -16 125q-4 54 -4 86q-2 33 -2 98q-2 134 12 402q3 31 -4 41l-6 8q-6 1 -9 -6t-5 -19l-5 -28q-7 -156 -4 -258q0 -104 7 -207q5 -79 16 -152
q3 -17 6.5 -34.5t7 -33.5t4.5 -22zM520 1274q17 0 25 -10q18 -17 -2 -54q-13 -20 -31 -34q-20 -17 -55 -31q-37 -15 -58 -12h-12q-2 1 -5.5 2t-4.5 2q-10 7 -15 14q-2 6 -2 12q0 9 2 15q0 3 9 12q8 8 24 16q25 15 37 23q72 40 76 41q4 4 12 4z" />
    <glyph glyph-name="acircumflex" unicode="&#xe2;" horiz-adv-x="851" 
d="M967 553l18 -18q6 -12 6 -29q-15 -91 -37.5 -173t-57.5 -162t-86.5 -126.5t-111.5 -44.5q-145 5 -186 354q-15 -49 -33.5 -92.5t-46.5 -89t-59 -77t-74 -50.5t-90 -16q-4 0 -11.5 1t-29 6.5t-41.5 14.5t-46.5 28.5t-48 45.5t-40.5 68t-28.5 93t-9 124.5t14.5 158.5
q17 101 50 185.5t74 140t88.5 95.5t95 56t92 17t81 -17t60.5 -51q0 2 2 2q0 3 1.5 8t6.5 17.5t11.5 21.5t19.5 14.5t29 2.5l14 -3q14 -4 18.5 -5t19.5 -5.5t22 -7.5t20 -9.5t20 -12t16 -14.5t13.5 -18t7.5 -21t2 -25q-6 -74 -6 -414q-12 -428 31 -448q21 -10 57.5 55t73 179
t55.5 231q2 8 9.5 11t13.5 -1zM66 530q8 41 24 86q6 25 33 89q17 35 45 86q9 18 49 75q33 46 53 66q14 19 19 33v10q-6 9 -27 -8q-2 -2 -6 -6.5t-6 -6.5l-6 -6q-76 -97 -127 -205q-25 -59 -37 -96q0 -2 -1 -5t-1 -5q-2 -2 -2 -6q-2 -2 -2 -6q-1 -3 -6 -23q-5 -15 -5 -20
q-1 -2 -2 -5.5t-2 -5.5q0 -6 -2 -10q-14 -77 -14 -139v-14v-13v-22q1 -6 2 -19t2 -18h2q-4 51 4 115q0 3 1 9t1 9q0 2 1 5.5t1 4.5q0 6 2 10v11q2 4 2 10q5 15 5 20zM502 657q0 140 2 199q-3 38 -13 64t-23 36t-25 14t-21 2l-8 -1q-82 -18 -165 -193q-85 -180 -115 -390
q-30 -214 27 -283q22 -26 56 -25q47 2 88 34.5t68.5 77t51 109.5t36.5 115t23.5 113t12.5 83.5t5 44.5zM655 172h2q-10 45 -16 125q-4 54 -4 86q-2 33 -2 98q-2 134 12 402q3 31 -4 41l-6 8q-6 1 -9 -6t-5 -19l-5 -28q-7 -156 -4 -258q0 -104 7 -207q5 -79 16 -152
q3 -17 6.5 -34.5t7 -33.5t4.5 -22zM541 1145q-24 3 -49 16q-19 8 -46 31v0q-23 -19 -47 -27q-20 -10 -51 -14h-10q-4 2 -10 2q-11 5 -13 10q-4 5 -4 11v8q4 8 6 10q3 3 21 14q5 2 17 9.5t14 9.5q61 34 63 35q2 2 4 2q4 2 13 2q10 0 14 -2l4 -2l59 -41q5 -3 15.5 -10.5
t15.5 -10.5q16 -12 18 -14l5 -10q4 -7 0 -11l-5 -10q-5 -5 -14 -8h-8h-12z" />
    <glyph glyph-name="atilde" unicode="&#xe3;" horiz-adv-x="851" 
d="M967 553l18 -18q6 -12 6 -29q-15 -91 -37.5 -173t-57.5 -162t-86.5 -126.5t-111.5 -44.5q-145 5 -186 354q-15 -49 -33.5 -92.5t-46.5 -89t-59 -77t-74 -50.5t-90 -16q-4 0 -11.5 1t-29 6.5t-41.5 14.5t-46.5 28.5t-48 45.5t-40.5 68t-28.5 93t-9 124.5t14.5 158.5
q17 101 50 185.5t74 140t88.5 95.5t95 56t92 17t81 -17t60.5 -51q0 2 2 2q0 3 1.5 8t6.5 17.5t11.5 21.5t19.5 14.5t29 2.5l14 -3q14 -4 18.5 -5t19.5 -5.5t22 -7.5t20 -9.5t20 -12t16 -14.5t13.5 -18t7.5 -21t2 -25q-6 -74 -6 -414q-12 -428 31 -448q21 -10 57.5 55t73 179
t55.5 231q2 8 9.5 11t13.5 -1zM66 530q8 41 24 86q6 25 33 89q17 35 45 86q9 18 49 75q33 46 53 66q14 19 19 33v10q-6 9 -27 -8q-2 -2 -6 -6.5t-6 -6.5l-6 -6q-76 -97 -127 -205q-25 -59 -37 -96q0 -2 -1 -5t-1 -5q-2 -2 -2 -6q-2 -2 -2 -6q-1 -3 -6 -23q-5 -15 -5 -20
q-1 -2 -2 -5.5t-2 -5.5q0 -6 -2 -10q-14 -77 -14 -139v-14v-13v-22q1 -6 2 -19t2 -18h2q-4 51 4 115q0 3 1 9t1 9q0 2 1 5.5t1 4.5q0 6 2 10v11q2 4 2 10q5 15 5 20zM502 657q0 140 2 199q-3 38 -13 64t-23 36t-25 14t-21 2l-8 -1q-82 -18 -165 -193q-85 -180 -115 -390
q-30 -214 27 -283q22 -26 56 -25q47 2 88 34.5t68.5 77t51 109.5t36.5 115t23.5 113t12.5 83.5t5 44.5zM655 172h2q-10 45 -16 125q-4 54 -4 86q-2 33 -2 98q-2 134 12 402q3 31 -4 41l-6 8q-6 1 -9 -6t-5 -19l-5 -28q-7 -156 -4 -258q0 -104 7 -207q5 -79 16 -152
q3 -17 6.5 -34.5t7 -33.5t4.5 -22zM430 1225q19 7 40 10.5t44.5 2.5t41 -15t22.5 -41q8 -33 -15 -35q-9 -2 -21.5 10.5t-29.5 11.5q-3 0 -30 -7.5t-52.5 -11.5t-56 8.5t-47.5 45.5q-3 5 -7.5 13.5t-3.5 23.5t17 19q17 4 46.5 -19t51.5 -16z" />
    <glyph glyph-name="adieresis" unicode="&#xe4;" horiz-adv-x="851" 
d="M967 553l18 -18q6 -12 6 -29q-15 -91 -37.5 -173t-57.5 -162t-86.5 -126.5t-111.5 -44.5q-145 5 -186 354q-15 -49 -33.5 -92.5t-46.5 -89t-59 -77t-74 -50.5t-90 -16q-4 0 -11.5 1t-29 6.5t-41.5 14.5t-46.5 28.5t-48 45.5t-40.5 68t-28.5 93t-9 124.5t14.5 158.5
q17 101 50 185.5t74 140t88.5 95.5t95 56t92 17t81 -17t60.5 -51q0 2 2 2q0 3 1.5 8t6.5 17.5t11.5 21.5t19.5 14.5t29 2.5l14 -3q14 -4 18.5 -5t19.5 -5.5t22 -7.5t20 -9.5t20 -12t16 -14.5t13.5 -18t7.5 -21t2 -25q-6 -74 -6 -414q-12 -428 31 -448q21 -10 57.5 55t73 179
t55.5 231q2 8 9.5 11t13.5 -1zM66 530q8 41 24 86q6 25 33 89q17 35 45 86q9 18 49 75q33 46 53 66q14 19 19 33v10q-6 9 -27 -8q-2 -2 -6 -6.5t-6 -6.5l-6 -6q-76 -97 -127 -205q-25 -59 -37 -96q0 -2 -1 -5t-1 -5q-2 -2 -2 -6q-2 -2 -2 -6q-1 -3 -6 -23q-5 -15 -5 -20
q-1 -2 -2 -5.5t-2 -5.5q0 -6 -2 -10q-14 -77 -14 -139v-14v-13v-22q1 -6 2 -19t2 -18h2q-4 51 4 115q0 3 1 9t1 9q0 2 1 5.5t1 4.5q0 6 2 10v11q2 4 2 10q5 15 5 20zM502 657q0 140 2 199q-3 38 -13 64t-23 36t-25 14t-21 2l-8 -1q-82 -18 -165 -193q-85 -180 -115 -390
q-30 -214 27 -283q22 -26 56 -25q47 2 88 34.5t68.5 77t51 109.5t36.5 115t23.5 113t12.5 83.5t5 44.5zM655 172h2q-10 45 -16 125q-4 54 -4 86q-2 33 -2 98q-2 134 12 402q3 31 -4 41l-6 8q-6 1 -9 -6t-5 -19l-5 -28q-7 -156 -4 -258q0 -104 7 -207q5 -79 16 -152
q3 -17 6.5 -34.5t7 -33.5t4.5 -22zM371 1157q-23 -1 -39.5 13t-18.5 36q-2 20 12.5 36.5t36.5 17.5q22 2 39.5 -12t18.5 -36t-13 -37.5t-36 -17.5zM532 1149q-22 -2 -38 11.5t-17 35.5t13 37.5t36 17.5q22 0 39 -14t17 -35q2 -21 -12.5 -36.5t-37.5 -16.5z" />
    <glyph glyph-name="aring" unicode="&#xe5;" horiz-adv-x="851" 
d="M967 553l18 -18q6 -12 6 -29q-15 -91 -37.5 -173t-57.5 -162t-86.5 -126.5t-111.5 -44.5q-145 5 -186 354q-15 -49 -33.5 -92.5t-46.5 -89t-59 -77t-74 -50.5t-90 -16q-4 0 -11.5 1t-29 6.5t-41.5 14.5t-46.5 28.5t-48 45.5t-40.5 68t-28.5 93t-9 124.5t14.5 158.5
q17 101 50 185.5t74 140t88.5 95.5t95 56t92 17t81 -17t60.5 -51q0 2 2 2q0 3 1.5 8t6.5 17.5t11.5 21.5t19.5 14.5t29 2.5l14 -3q14 -4 18.5 -5t19.5 -5.5t22 -7.5t20 -9.5t20 -12t16 -14.5t13.5 -18t7.5 -21t2 -25q-6 -74 -6 -414q-12 -428 31 -448q21 -10 57.5 55t73 179
t55.5 231q2 8 9.5 11t13.5 -1zM66 530q8 41 24 86q6 25 33 89q17 35 45 86q9 18 49 75q33 46 53 66q14 19 19 33v10q-6 9 -27 -8q-2 -2 -6 -6.5t-6 -6.5l-6 -6q-76 -97 -127 -205q-25 -59 -37 -96q0 -2 -1 -5t-1 -5q-2 -2 -2 -6q-2 -2 -2 -6q-1 -3 -6 -23q-5 -15 -5 -20
q-1 -2 -2 -5.5t-2 -5.5q0 -6 -2 -10q-14 -77 -14 -139v-14v-13v-22q1 -6 2 -19t2 -18h2q-4 51 4 115q0 3 1 9t1 9q0 2 1 5.5t1 4.5q0 6 2 10v11q2 4 2 10q5 15 5 20zM502 657q0 140 2 199q-3 38 -13 64t-23 36t-25 14t-21 2l-8 -1q-82 -18 -165 -193q-85 -180 -115 -390
q-30 -214 27 -283q22 -26 56 -25q47 2 88 34.5t68.5 77t51 109.5t36.5 115t23.5 113t12.5 83.5t5 44.5zM655 172h2q-10 45 -16 125q-4 54 -4 86q-2 33 -2 98q-2 134 12 402q3 31 -4 41l-6 8q-6 1 -9 -6t-5 -19l-5 -28q-7 -156 -4 -258q0 -104 7 -207q5 -79 16 -152
q3 -17 6.5 -34.5t7 -33.5t4.5 -22zM479 1139q-26 0 -44.5 17.5t-18.5 43.5q0 25 18.5 43.5t44.5 18.5t45 -18.5t19 -43.5q0 -26 -18.5 -43.5t-45.5 -17.5zM479 1225q-10 0 -18 -8t-8 -17q0 -10 7.5 -18t18.5 -8t19 8t8 18q0 9 -8.5 17t-18.5 8z" />
    <glyph glyph-name="ae" unicode="&#xe6;" horiz-adv-x="1427" 
d="M1331 553q11 -7 19 -18q9 -12 6 -29q-12 -70 -31.5 -137t-51 -135t-70.5 -118.5t-92.5 -82.5t-113.5 -33q-66 0 -125 16q-12 -5 -26.5 -9t-22.5 -5l-8 -2q-145 5 -186 354q-15 -49 -33.5 -92.5t-46.5 -89t-59 -77t-74 -50.5t-90 -16q-4 0 -11.5 1t-29 6.5t-41.5 14.5
t-46.5 28.5t-48 45.5t-40.5 68t-28.5 93t-9 124.5t14.5 158.5q17 101 50 185.5t74 140t88.5 95.5t95 56t92 17t81 -17t60.5 -51q0 2 2 2q0 3 1 8t6 17.5t11.5 21.5t19.5 14.5t29 2.5q4 -1 20.5 -5t28.5 -7.5t28.5 -9.5t30 -15t23.5 -20q87 60 193 57h8.5t20.5 -4t28.5 -11
t29.5 -23t27 -38.5t17 -60t4 -84.5q-4 -76 -34.5 -147t-76 -123.5t-98 -90.5t-104.5 -55v-64q14 -128 62 -206t118 -82q50 -1 110 65.5t109 177t68 228.5q2 8 9 11t13 -1zM844 526q0 -10 -2 -26q86 36 158 126.5t83 196.5q5 47 2.5 78t-9.5 49t-14.5 27t-13.5 11l-6 3
q-50 6 -88 -34.5t-60 -111t-33.5 -136.5t-16.5 -136v-47zM182 530q7 34 25 86q6 25 33 89q17 35 45 86q9 18 49 75q33 46 53 66q14 19 19 33v10q-6 9 -27 -8q-2 -2 -6 -6.5t-6 -6.5l-7 -6q-76 -97 -127 -205q-21 -49 -36 -96q0 -2 -1 -5t-1 -5q-2 -2 -2 -6q-3 -3 -3 -6
q-1 -3 -6 -23q-4 -12 -4 -20q-1 -2 -2 -5.5t-2 -5.5q0 -6 -2 -10q-14 -77 -14 -139v-14v-13v-22q1 -6 2 -19t2 -18h2q-4 51 4 115q0 3 1 9t1 9q0 2 1 5.5t1 4.5q0 6 2 10v11q2 4 2 10q4 12 4 20zM618 657q0 111 3 199q-3 38 -13.5 64t-23 36t-25 14t-21.5 2l-8 -1
q-82 -18 -165 -193q-84 -180 -114 -390q-31 -214 27 -283q22 -26 56 -25q37 2 70.5 22.5t58 50t47 74.5t37 85t27.5 93t20 87t13.5 78.5t7.5 56t3 30.5zM823 127q2 -4 2 0q-15 23 -26 47q-20 41 -29 70q-1 2 -2 5t-2 5q0 2 -1 5t-1 5q-1 3 -3 10.5t-3 10.5q-2 7 -5 23.5
t-5 23.5q-1 4 -3.5 21t-3.5 26v27q-2 8 -2 24q-3 95 21 213q18 88 55 191q8 20 8 40l-2 11q-9 5 -24 -21l-11 -26q-28 -82 -38 -136q-19 -85 -23 -127q-12 -119 4 -215q9 -46 21 -84q4 -16 24 -67q4 -8 6 -14q5 -10 8 -13q5 -10 13 -22q9 -15 22 -33z" />
    <glyph glyph-name="ccedilla" unicode="&#xe7;" horiz-adv-x="645" 
d="M750 553q12 -6 18 -18q9 -12 6 -29q-14 -88 -42 -172t-70.5 -161t-106 -124.5t-137.5 -48.5q-84 -1 -151 26.5t-105.5 71.5t-66 97.5t-38 107.5t-15.5 98.5t-4 72.5l1 28q0 7 1 19.5t5.5 51t11.5 75.5t22 87.5t34 93.5t50.5 87.5t69 75.5t90.5 50t115 19q5 0 13.5 -0.5
t30 -7t38 -18t29 -37t10.5 -60.5q0 -13 -8 -18q-28 -35 -57 -29q10 46 2.5 68.5t-21.5 26.5l-14 5q-56 1 -98 -52.5t-61.5 -130t-31 -153t-12.5 -130.5l-2 -54q-3 -172 48 -282.5t136 -116.5q50 -1 110 65.5t109 177t68 228.5q2 8 9.5 11t13.5 -1zM236 831q11 28 8 41l-2 9
q-8 6 -25 -19l-10 -26q-25 -63 -41 -131q-19 -80 -23 -123q-14 -107 0 -209q3 -24 17 -82q14 -43 24 -66q0 -1 2 -6.5t4 -7.5q5 -10 5 -12q3 -4 6.5 -12.5t5.5 -10.5q9 -15 22 -33q-19 38 -24 47q-16 40 -25 68q-1 2 -2 5t-2 5q0 7 -2 11q-4 12 -4 20q-3 11 -8 45
q-8 62 -8 98q0 88 24 205q20 96 58 184z" />
    <glyph glyph-name="egrave" unicode="&#xe8;" horiz-adv-x="675" 
d="M782 553q13 -7 19 -18q9 -12 6 -29q-14 -88 -42 -172t-70.5 -161t-106 -124.5t-137.5 -48.5q-84 -1 -151 26.5t-105.5 71.5t-66 97.5t-38 107.5t-15.5 98.5t-4 72.5l1 28q0 7 1 19.5t5.5 51t11.5 75.5t22 87.5t34 93.5t50.5 87.5t69 75.5t90.5 50t115 19q6 0 16 -0.5
t35 -11.5t43 -31.5t31.5 -67t9.5 -110.5q-6 -101 -57.5 -192t-120 -147t-139.5 -79q4 -152 55 -248t129 -102q50 -1 110 65.5t109 177t68 228.5q2 8 9 11t13 -1zM494 991q-40 5 -73.5 -21t-54 -74t-36 -101.5t-23.5 -116t-11.5 -103.5t-4.5 -77q86 35 160.5 126t85.5 199
q4 47 1.5 78t-10 49t-15 27t-13.5 11zM274 127q1 -3 2.5 -2.5t-0.5 2.5q-4 5 -8 12.5t-9 18t-9 16.5q-20 41 -29 70q0 2 -1 5t-1 5q-1 2 -2 5t-2 5q-1 3 -3 10.5t-3 10.5q-1 6 -4 22t-4 25q-6 21 -6 47q-2 10 -2 27q0 4 -1.5 12t-1.5 12q0 90 21 213q18 88 55 191
q11 28 8 40l-2 11q-11 5 -22 -21l-12 -26q-23 -68 -39 -136q-15 -69 -21 -127q-13 -104 2 -215q9 -46 21 -84q8 -27 24 -67q4 -8 8 -14q1 -2 3.5 -6.5t3.5 -6.5q8 -16 12 -22q9 -15 22 -33zM403 1196q-8 6 -15.5 15t-11.5 15l-3 5q-9 16 -9.5 29t3.5 18l4 6q8 10 24 10
l13 -4q8 -3 19.5 -9t28.5 -16.5t27 -15.5q7 -5 22 -13l15 -9q16 -8 25 -17q5 -5 8 -14q2 -4 2 -12l-2 -13q-8 -12 -14 -14q-1 -1 -5 -2t-6 -2q-8 0 -12 -2q-22 0 -57 14q-37 15 -56 31z" />
    <glyph glyph-name="eacute" unicode="&#xe9;" horiz-adv-x="675" 
d="M782 553q13 -7 19 -18q9 -12 6 -29q-14 -88 -42 -172t-70.5 -161t-106 -124.5t-137.5 -48.5q-84 -1 -151 26.5t-105.5 71.5t-66 97.5t-38 107.5t-15.5 98.5t-4 72.5l1 28q0 7 1 19.5t5.5 51t11.5 75.5t22 87.5t34 93.5t50.5 87.5t69 75.5t90.5 50t115 19q6 0 16 -0.5
t35 -11.5t43 -31.5t31.5 -67t9.5 -110.5q-6 -101 -57.5 -192t-120 -147t-139.5 -79q4 -152 55 -248t129 -102q50 -1 110 65.5t109 177t68 228.5q2 8 9 11t13 -1zM494 991q-40 5 -73.5 -21t-54 -74t-36 -101.5t-23.5 -116t-11.5 -103.5t-4.5 -77q86 35 160.5 126t85.5 199
q4 47 1.5 78t-10 49t-15 27t-13.5 11zM274 127q1 -3 2.5 -2.5t-0.5 2.5q-4 5 -8 12.5t-9 18t-9 16.5q-20 41 -29 70q0 2 -1 5t-1 5q-1 2 -2 5t-2 5q-1 3 -3 10.5t-3 10.5q-1 6 -4 22t-4 25q-6 21 -6 47q-2 10 -2 27q0 4 -1.5 12t-1.5 12q0 90 21 213q18 88 55 191
q11 28 8 40l-2 11q-11 5 -22 -21l-12 -26q-23 -68 -39 -136q-15 -69 -21 -127q-13 -104 2 -215q9 -46 21 -84q8 -27 24 -67q4 -8 8 -14q1 -2 3.5 -6.5t3.5 -6.5q8 -16 12 -22q9 -15 22 -33zM535 1278q12 4 24 -8q18 -19 -2 -56q-13 -20 -31 -34q-29 -20 -55 -31
q-30 -12 -59 -12q-9 0 -11 2q-2 0 -5.5 1t-4.5 1q-8 6 -14 14q-2 6 -2 14q0 9 2 13q0 4 8 12q3 5 25 16q4 2 16 10t20 13q10 5 38 21.5t38 21.5q5 2 13 2z" />
    <glyph glyph-name="ecircumflex" unicode="&#xea;" horiz-adv-x="675" 
d="M782 553q13 -7 19 -18q9 -12 6 -29q-14 -88 -42 -172t-70.5 -161t-106 -124.5t-137.5 -48.5q-84 -1 -151 26.5t-105.5 71.5t-66 97.5t-38 107.5t-15.5 98.5t-4 72.5l1 28q0 7 1 19.5t5.5 51t11.5 75.5t22 87.5t34 93.5t50.5 87.5t69 75.5t90.5 50t115 19q6 0 16 -0.5
t35 -11.5t43 -31.5t31.5 -67t9.5 -110.5q-6 -101 -57.5 -192t-120 -147t-139.5 -79q4 -152 55 -248t129 -102q50 -1 110 65.5t109 177t68 228.5q2 8 9 11t13 -1zM494 991q-40 5 -73.5 -21t-54 -74t-36 -101.5t-23.5 -116t-11.5 -103.5t-4.5 -77q86 35 160.5 126t85.5 199
q4 47 1.5 78t-10 49t-15 27t-13.5 11zM274 127q1 -3 2.5 -2.5t-0.5 2.5q-4 5 -8 12.5t-9 18t-9 16.5q-20 41 -29 70q0 2 -1 5t-1 5q-1 2 -2 5t-2 5q-1 3 -3 10.5t-3 10.5q-1 6 -4 22t-4 25q-6 21 -6 47q-2 10 -2 27q0 4 -1.5 12t-1.5 12q0 90 21 213q18 88 55 191
q11 28 8 40l-2 11q-11 5 -22 -21l-12 -26q-23 -68 -39 -136q-15 -69 -21 -127q-13 -104 2 -215q9 -46 21 -84q8 -27 24 -67q4 -8 8 -14q1 -2 3.5 -6.5t3.5 -6.5q8 -16 12 -22q9 -15 22 -33zM571 1141q-24 3 -49 16q-6 3 -45 29v0q-28 -19 -45 -25q-32 -14 -51 -14h-12
q-2 0 -5.5 1t-5.5 1q-4 2 -12 10l-4 8v11q1 2 3 5t3 5q2 2 9.5 6.5t11.5 7.5q9 4 32 19q8 4 30.5 17.5t31.5 16.5q2 0 4 2q6 3 12 3q10 0 15 -5h4l59 -41q7 -6 31 -20q3 -2 7 -5.5t6.5 -5.5t4.5 -3q2 -2 4 -7t2 -6q0 -6 -2 -8l-4 -10q-5 -5 -14 -8h-8h-13z" />
    <glyph glyph-name="edieresis" unicode="&#xeb;" horiz-adv-x="675" 
d="M782 553q13 -7 19 -18q9 -12 6 -29q-14 -88 -42 -172t-70.5 -161t-106 -124.5t-137.5 -48.5q-84 -1 -151 26.5t-105.5 71.5t-66 97.5t-38 107.5t-15.5 98.5t-4 72.5l1 28q0 7 1 19.5t5.5 51t11.5 75.5t22 87.5t34 93.5t50.5 87.5t69 75.5t90.5 50t115 19q6 0 16 -0.5
t35 -11.5t43 -31.5t31.5 -67t9.5 -110.5q-6 -101 -57.5 -192t-120 -147t-139.5 -79q4 -152 55 -248t129 -102q50 -1 110 65.5t109 177t68 228.5q2 8 9 11t13 -1zM494 991q-40 5 -73.5 -21t-54 -74t-36 -101.5t-23.5 -116t-11.5 -103.5t-4.5 -77q86 35 160.5 126t85.5 199
q4 47 1.5 78t-10 49t-15 27t-13.5 11zM274 127q1 -3 2.5 -2.5t-0.5 2.5q-4 5 -8 12.5t-9 18t-9 16.5q-20 41 -29 70q0 2 -1 5t-1 5q-1 2 -2 5t-2 5q-1 3 -3 10.5t-3 10.5q-1 6 -4 22t-4 25q-6 21 -6 47q-2 10 -2 27q0 4 -1.5 12t-1.5 12q0 90 21 213q18 88 55 191
q11 28 8 40l-2 11q-11 5 -22 -21l-12 -26q-23 -68 -39 -136q-15 -69 -21 -127q-13 -104 2 -215q9 -46 21 -84q8 -27 24 -67q4 -8 8 -14q1 -2 3.5 -6.5t3.5 -6.5q8 -16 12 -22q9 -15 22 -33zM377 1147q-22 -2 -39.5 12t-18.5 35q-1 22 14 37.5t38 17.5q22 1 37.5 -13
t17.5 -36q2 -20 -12.5 -36t-36.5 -17zM541 1137q-23 -1 -39.5 13t-18.5 36q-2 20 12.5 36t36.5 17q23 2 40 -11.5t18 -35.5t-13 -37.5t-36 -17.5z" />
    <glyph glyph-name="igrave" unicode="&#xec;" horiz-adv-x="487" 
d="M160 1145q-8 6 -16 15t-12 14l-3 6q-9 16 -9.5 30t3.5 20l4 5q8 8 25 8l12 -4q4 -1 76 -41q6 -4 36 -22q16 -8 25 -17q4 -4 8 -12q2 -4 2 -12l-2 -15q-6 -8 -14 -14q-1 -1 -4.5 -2t-5.5 -2h-13q-21 -3 -57 12q-26 11 -55 31zM604 555q6 -3 19 -16q11 -18 8 -35
q-12 -73 -28.5 -138t-46.5 -135t-68 -120t-95 -81.5t-125 -29.5q-52 2 -91 57.5t-58 133t-30.5 155.5t-14.5 132l-2 54q-3 283 12 465q1 3 2 8t6.5 17.5t12.5 21t20 14t29 1.5q17 -3 26.5 -5.5t32 -9t36 -15t29 -21t22.5 -30.5t5 -40q-5 -121 -8 -412q-16 -438 31 -448
q53 -11 105.5 57.5t90.5 176.5t60 233q1 7 7.5 10t12.5 0zM215 211h2q-3 21 -6 51q0 21 -2 33v16q0 3 -1 10t-1 11q-4 102 -4 178q0 133 2 199q4 128 8 186q0 30 -6 39l-6 8q-5 1 -9 -6t-6 -18q-2 -6 -2 -19l-2 -8q-5 -234 6 -447q1 -6 2.5 -20.5t2.5 -20.5v-20q2 -6 2 -18
q1 -6 2 -17.5t2 -17.5v-8q0 -1 1 -4t1 -5q0 -10 2 -14q5 -41 6 -51q3 -24 6 -37z" />
    <glyph glyph-name="iacute" unicode="&#xed;" horiz-adv-x="487" 
d="M272 1278q15 0 25 -10q18 -19 -2 -56q-13 -20 -31 -34q-16 -12 -55 -31q-30 -12 -57 -12q-11 0 -13 2q-6 0 -10 4q-8 3 -14 12q-2 6 -2 14q0 9 2 13q0 6 8 14q2 2 5 4t9 5.5t10 6.5q3 2 16.5 9t20.5 12q10 5 38 21.5t38 21.5q4 2 12 4zM604 555q6 -3 19 -16q11 -18 8 -35
q-12 -73 -28.5 -138t-46.5 -135t-68 -120t-95 -81.5t-125 -29.5q-52 2 -91 57.5t-58 133t-30.5 155.5t-14.5 132l-2 54q-3 283 12 465q1 3 2 8t6.5 17.5t12.5 21t20 14t29 1.5q17 -3 26.5 -5.5t32 -9t36 -15t29 -21t22.5 -30.5t5 -40q-5 -121 -8 -412q-16 -438 31 -448
q53 -11 105.5 57.5t90.5 176.5t60 233q1 7 7.5 10t12.5 0zM215 211h2q-3 21 -6 51q0 21 -2 33v16q0 3 -1 10t-1 11q-4 102 -4 178q0 133 2 199q4 128 8 186q0 30 -6 39l-6 8q-5 1 -9 -6t-6 -18q-2 -6 -2 -19l-2 -8q-5 -234 6 -447q1 -6 2.5 -20.5t2.5 -20.5v-20q2 -6 2 -18
q1 -6 2 -17.5t2 -17.5v-8q0 -1 1 -4t1 -5q0 -10 2 -14q5 -41 6 -51q3 -24 6 -37z" />
    <glyph glyph-name="icircumflex" unicode="&#xee;" horiz-adv-x="487" 
d="M297 1122q-21 3 -49 17t-45 28v0q-25 -17 -47 -24q-30 -15 -52 -15h-10q-2 0 -5 1t-5 1q-10 5 -12 11q-2 2 -4 8v10q2 2 6 10q8 8 20 13q4 3 15.5 9.5t17.5 10.5q10 5 31 18.5t30 16.5q3 0 5 2q4 2 12 2q6 0 14 -4l4 -2q8 -3 29.5 -18t30.5 -21q10 -8 30 -20q3 -2 7 -5.5
t7 -6t5 -3.5l6 -12q0 -6 -2 -8l-4 -11q-4 -4 -15 -8h-8h-12zM604 555q6 -3 19 -16q11 -18 8 -35q-12 -73 -28.5 -138t-46.5 -135t-68 -120t-95 -81.5t-125 -29.5q-52 2 -91 57.5t-58 133t-30.5 155.5t-14.5 132l-2 54q-3 283 12 465q1 3 2 8t6.5 17.5t12.5 21t20 14t29 1.5
q17 -3 26.5 -5.5t32 -9t36 -15t29 -21t22.5 -30.5t5 -40q-5 -121 -8 -412q-16 -438 31 -448q53 -11 105.5 57.5t90.5 176.5t60 233q1 7 7.5 10t12.5 0zM215 211h2q-3 21 -6 51q0 21 -2 33v16q0 3 -1 10t-1 11q-4 102 -4 178q0 133 2 199q4 128 8 186q0 30 -6 39l-6 8
q-5 1 -9 -6t-6 -18q-2 -6 -2 -19l-2 -8q-5 -234 6 -447q1 -6 2.5 -20.5t2.5 -20.5v-20q2 -6 2 -18q1 -6 2 -17.5t2 -17.5v-8q0 -1 1 -4t1 -5q0 -10 2 -14q5 -41 6 -51q3 -24 6 -37z" />
    <glyph glyph-name="idieresis" unicode="&#xef;" horiz-adv-x="487" 
d="M133 1141q-22 -1 -37.5 13t-17.5 36q-2 20 12.5 36t36.5 17q22 2 39 -12t18 -35q0 -22 -14 -38t-37 -17zM297 1133q-22 -2 -38 11.5t-17 35.5t13 37.5t36 17.5q22 0 38 -14t17 -35q2 -20 -12.5 -36t-36.5 -17zM604 555q6 -3 19 -16q11 -18 8 -35q-12 -73 -28.5 -138
t-46.5 -135t-68 -120t-95 -81.5t-125 -29.5q-52 2 -91 57.5t-58 133t-30.5 155.5t-14.5 132l-2 54q-3 283 12 465q1 3 2 8t6.5 17.5t12.5 21t20 14t29 1.5q17 -3 26.5 -5.5t32 -9t36 -15t29 -21t22.5 -30.5t5 -40q-5 -121 -8 -412q-16 -438 31 -448q53 -11 105.5 57.5
t90.5 176.5t60 233q1 7 7.5 10t12.5 0zM215 211h2q-3 21 -6 51q0 21 -2 33v16q0 3 -1 10t-1 11q-4 102 -4 178q0 133 2 199q4 128 8 186q0 30 -6 39l-6 8q-5 1 -9 -6t-6 -18q-2 -6 -2 -19l-2 -8q-5 -234 6 -447q1 -6 2.5 -20.5t2.5 -20.5v-20q2 -6 2 -18q1 -6 2 -17.5
t2 -17.5v-8q0 -1 1 -4t1 -5q0 -10 2 -14q5 -41 6 -51q3 -24 6 -37z" />
    <glyph glyph-name="ntilde" unicode="&#xf1;" horiz-adv-x="1087" 
d="M1186 555q4 -2 18 -16q11 -18 8 -35q-14 -86 -44.5 -172.5t-72.5 -162.5t-99.5 -123t-118.5 -46q-52 1 -91 56.5t-58 133.5t-31 155.5t-15 132.5l-2 54q0 8 -1 22t-3.5 55t-5.5 78.5t-8.5 84.5t-11.5 82t-15 62.5t-19 33.5q-53 32 -130 -129q-102 -216 -216 -694
q-24 -133 -69 -133q-32 0 -55 38t-30 76l-7 37q-27 203 -34.5 393t-0.5 278l6 89q0 6 4 21.5t13.5 37.5t29.5 35t47 7q60 -14 112 -55t46 -87q-19 -171 -29 -327q147 496 291 524q76 15 133.5 0t92 -55.5t54 -93t25.5 -119.5q5 -59 6.5 -126t0.5 -104l-1 -37
q-16 -434 31 -448q24 -6 70.5 58.5t93.5 179.5t65 229q1 7 8 10t13 0zM217 811q1 14 -2 22.5t-7 10.5l-3 2q-7 1 -11.5 -9t-5.5 -20v-10q-2 -150 2 -328q1 -54 9 -174h2q0 77 6 221q7 176 10 285zM819 217q1 -3 2.5 -2.5t-0.5 2.5q-1 14 -2 55.5t-2 61.5q0 23 -1 81t-1 91
v96v49q0 4 -1 12.5t-1 12.5v12q0 8 -2 12q-4 65 -10 95q-3 20 -17 84q-8 27 -18 34l-8 7q-10 -2 -6 -29q1 -3 2 -9t2 -8q0 -4 2 -6v-2q1 -2 2 -7t2 -7q1 -3 2 -8t2 -8q0 -2 1 -7.5t1 -7.5q1 -3 2 -8t2 -8q0 -2 1 -7t1 -7q1 -3 2 -8t2 -7q0 -11 4 -31q0 -5 1 -14t1 -14
q1 -5 2 -14.5t2 -14.5q0 -5 1.5 -14.5t1.5 -14.5v-6v-6q2 -4 2 -14q0 -8 1 -25.5t1 -25.5q0 -9 1 -26t1 -24q4 -66 4 -90q9 -166 18 -225zM512 1257q19 7 39.5 10.5t44 2.5t41 -15t22.5 -41q8 -32 -12 -36q-11 -1 -24 12t-29 12q-1 0 -30 -8t-53 -11.5t-55 9t-48 45.5
q-3 5 -7 13t-3.5 23t16.5 19q17 4 46.5 -19.5t51.5 -15.5z" />
    <glyph glyph-name="ograve" unicode="&#xf2;" horiz-adv-x="894" 
d="M981 555q3 5 9 3.5t9 -7.5q9 -22 -8 -66q-6 -12 -14 -20q-99 -106 -242 -135q-64 -366 -362 -361q-71 2 -127.5 26t-90 60.5t-57.5 81t-34 88.5t-15 80.5t-5 58.5l1 23q3 170 92 182q27 3 58 -4q-66 128 -48 279q6 59 26 105t46.5 72t57.5 43.5t60 23t53.5 7.5t39.5 1
l14 -2q58 -3 106 -29t80 -64.5t56 -90.5t37 -103.5t20.5 -107.5t9.5 -98.5t1 -80.5q-3 -58 -9 -119q110 36 236 154zM209 125q2 0 2 2q-9 15 -18 49q-2 6 -6 18.5t-5 16.5q-1 6 -6 41q-6 44 -6 86q4 53 8 80q0 13 -6 16l-6 4q-10 5 -14 -8l-5 -12q-5 -48 3 -111q0 -5 6 -47
q2 -16 10 -39q2 -6 22 -61q1 -2 3.5 -5t3.5 -5q4 -8 4 -11q6 -6 10 -14zM389 51q46 -2 87.5 69.5t62.5 205.5q-154 23 -263 129q0 -13 -4 -37q-6 -51 -6 -105t8 -117.5t37.5 -104t77.5 -40.5zM551 510q2 265 -24 378t-103 134q-51 14 -89.5 -34t-54.5 -118t-12 -133v-16.5
t5 -41.5t14 -60.5t29.5 -67t48.5 -67t75 -55t105 -36.5q6 53 6 117zM664 520q2 33 2 103q-3 103 -21 188q-5 23 -14 37l-10 6q-11 -3 -7 -29l4 -26q14 -75 19 -127q6 -62 6 -119q-5 -98 -6 -104q0 -20 -4 -48q-1 -4 -2 -11.5t-2 -10.5q0 -8 -2 -10q0 -9 -2 -13
q-9 -64 -33 -141q0 -2 -4 -14q0 -5 -4 -13q-4 -16 -6 -22l-15 -35l2 -2q26 54 45 115l6 18q1 2 2.5 6t2.5 7.5t2 7.5q0 1 1 4.5t1 5.5q1 2 2 5t2 5q1 4 2 11.5t2 11.5q12 43 18 94q10 53 13 100zM385 1237q-8 5 -16 13.5t-11 13.5l-4 6q-9 16 -9.5 30t3.5 20l4 5
q10 10 25 10l12 -4q9 -4 35 -19t41 -22q7 -5 22 -14l15 -8q14 -7 24 -17q9 -9 9 -14q2 -4 2 -12l-2 -15q-6 -9 -15 -12q-4 -4 -10 -4l-4 -1q-4 -1 -8 -1q-30 0 -58 14q-35 14 -55 31z" />
    <glyph glyph-name="oacute" unicode="&#xf3;" horiz-adv-x="894" 
d="M981 555q3 5 9 3.5t9 -7.5q9 -22 -8 -66q-6 -12 -14 -20q-99 -106 -242 -135q-64 -366 -362 -361q-71 2 -127.5 26t-90 60.5t-57.5 81t-34 88.5t-15 80.5t-5 58.5l1 23q3 170 92 182q27 3 58 -4q-66 128 -48 279q6 59 26 105t46.5 72t57.5 43.5t60 23t53.5 7.5t39.5 1
l14 -2q58 -3 106 -29t80 -64.5t56 -90.5t37 -103.5t20.5 -107.5t9.5 -98.5t1 -80.5q-3 -58 -9 -119q110 36 236 154zM209 125q2 0 2 2q-9 15 -18 49q-2 6 -6 18.5t-5 16.5q-1 6 -6 41q-6 44 -6 86q4 53 8 80q0 13 -6 16l-6 4q-10 5 -14 -8l-5 -12q-5 -48 3 -111q0 -5 6 -47
q2 -16 10 -39q2 -6 22 -61q1 -2 3.5 -5t3.5 -5q4 -8 4 -11q6 -6 10 -14zM389 51q46 -2 87.5 69.5t62.5 205.5q-154 23 -263 129q0 -13 -4 -37q-6 -51 -6 -105t8 -117.5t37.5 -104t77.5 -40.5zM551 510q2 265 -24 378t-103 134q-51 14 -89.5 -34t-54.5 -118t-12 -133v-16.5
t5 -41.5t14 -60.5t29.5 -67t48.5 -67t75 -55t105 -36.5q6 53 6 117zM664 520q2 33 2 103q-3 103 -21 188q-5 23 -14 37l-10 6q-11 -3 -7 -29l4 -26q14 -75 19 -127q6 -62 6 -119q-5 -98 -6 -104q0 -20 -4 -48q-1 -4 -2 -11.5t-2 -10.5q0 -8 -2 -10q0 -9 -2 -13
q-9 -64 -33 -141q0 -2 -4 -14q0 -5 -4 -13q-4 -16 -6 -22l-15 -35l2 -2q26 54 45 115l6 18q1 2 2.5 6t2.5 7.5t2 7.5q0 1 1 4.5t1 5.5q1 2 2 5t2 5q1 4 2 11.5t2 11.5q12 43 18 94q10 53 13 100zM504 1300q14 0 26 -10q16 -18 -2 -55q-12 -21 -30 -33q-25 -18 -56 -31
q-28 -14 -59 -14q-2 0 -6 1t-6 1q-3 0 -11 4q-9 3 -12 13q-2 6 -4 14q0 8 2 12q7 14 8 15q15 10 25 16q4 2 39 22q12 6 38 21.5t36 19.5z" />
    <glyph glyph-name="ocircumflex" unicode="&#xf4;" horiz-adv-x="894" 
d="M981 555q3 5 9 3.5t9 -7.5q9 -22 -8 -66q-6 -12 -14 -20q-99 -106 -242 -135q-64 -366 -362 -361q-71 2 -127.5 26t-90 60.5t-57.5 81t-34 88.5t-15 80.5t-5 58.5l1 23q3 170 92 182q27 3 58 -4q-66 128 -48 279q6 59 26 105t46.5 72t57.5 43.5t60 23t53.5 7.5t39.5 1
l14 -2q58 -3 106 -29t80 -64.5t56 -90.5t37 -103.5t20.5 -107.5t9.5 -98.5t1 -80.5q-3 -58 -9 -119q110 36 236 154zM209 125q2 0 2 2q-9 15 -18 49q-2 6 -6 18.5t-5 16.5q-1 6 -6 41q-6 44 -6 86q4 53 8 80q0 13 -6 16l-6 4q-10 5 -14 -8l-5 -12q-5 -48 3 -111q0 -5 6 -47
q2 -16 10 -39q2 -6 22 -61q1 -2 3.5 -5t3.5 -5q4 -8 4 -11q6 -6 10 -14zM389 51q46 -2 87.5 69.5t62.5 205.5q-154 23 -263 129q0 -13 -4 -37q-6 -51 -6 -105t8 -117.5t37.5 -104t77.5 -40.5zM551 510q2 265 -24 378t-103 134q-51 14 -89.5 -34t-54.5 -118t-12 -133v-16.5
t5 -41.5t14 -60.5t29.5 -67t48.5 -67t75 -55t105 -36.5q6 53 6 117zM664 520q2 33 2 103q-3 103 -21 188q-5 23 -14 37l-10 6q-11 -3 -7 -29l4 -26q14 -75 19 -127q6 -62 6 -119q-5 -98 -6 -104q0 -20 -4 -48q-1 -4 -2 -11.5t-2 -10.5q0 -8 -2 -10q0 -9 -2 -13
q-9 -64 -33 -141q0 -2 -4 -14q0 -5 -4 -13q-4 -16 -6 -22l-15 -35l2 -2q26 54 45 115l6 18q1 2 2.5 6t2.5 7.5t2 7.5q0 1 1 4.5t1 5.5q1 2 2 5t2 5q1 4 2 11.5t2 11.5q12 43 18 94q10 53 13 100zM532 1159q-21 3 -49 17q-29 14 -45 28v0q-23 -15 -47 -26q-35 -13 -51 -13
h-10q-2 0 -5.5 1t-5.5 1q-10 5 -12 9t-4 10v10q2 2 6 10q8 8 21 13q4 3 15.5 9.5t16.5 10.5q9 5 31 18.5t31 16.5q2 0 4 2q4 2 12 2q7 0 15 -4l4 -2q8 -3 28.5 -18t30.5 -21q12 -10 31 -21q3 -2 7 -5.5t6.5 -5.5t4.5 -3l6 -12q0 -6 -2 -8l-4 -11q-5 -5 -14 -8q-6 0 -8 -2
q-2 0 -6.5 1t-6.5 1z" />
    <glyph glyph-name="otilde" unicode="&#xf5;" horiz-adv-x="894" 
d="M981 555q3 5 9 3.5t9 -7.5q9 -22 -8 -66q-6 -12 -14 -20q-99 -106 -242 -135q-64 -366 -362 -361q-71 2 -127.5 26t-90 60.5t-57.5 81t-34 88.5t-15 80.5t-5 58.5l1 23q3 170 92 182q27 3 58 -4q-66 128 -48 279q6 59 26 105t46.5 72t57.5 43.5t60 23t53.5 7.5t39.5 1
l14 -2q58 -3 106 -29t80 -64.5t56 -90.5t37 -103.5t20.5 -107.5t9.5 -98.5t1 -80.5q-3 -58 -9 -119q110 36 236 154zM209 125q2 0 2 2q-9 15 -18 49q-2 6 -6 18.5t-5 16.5q-1 6 -6 41q-6 44 -6 86q4 53 8 80q0 13 -6 16l-6 4q-10 5 -14 -8l-5 -12q-5 -48 3 -111q0 -5 6 -47
q2 -16 10 -39q2 -6 22 -61q1 -2 3.5 -5t3.5 -5q4 -8 4 -11q6 -6 10 -14zM389 51q46 -2 87.5 69.5t62.5 205.5q-154 23 -263 129q0 -13 -4 -37q-6 -51 -6 -105t8 -117.5t37.5 -104t77.5 -40.5zM551 510q2 265 -24 378t-103 134q-51 14 -89.5 -34t-54.5 -118t-12 -133v-16.5
t5 -41.5t14 -60.5t29.5 -67t48.5 -67t75 -55t105 -36.5q6 53 6 117zM664 520q2 33 2 103q-3 103 -21 188q-5 23 -14 37l-10 6q-11 -3 -7 -29l4 -26q14 -75 19 -127q6 -62 6 -119q-5 -98 -6 -104q0 -20 -4 -48q-1 -4 -2 -11.5t-2 -10.5q0 -8 -2 -10q0 -9 -2 -13
q-9 -64 -33 -141q0 -2 -4 -14q0 -5 -4 -13q-4 -16 -6 -22l-15 -35l2 -2q26 54 45 115l6 18q1 2 2.5 6t2.5 7.5t2 7.5q0 1 1 4.5t1 5.5q1 2 2 5t2 5q1 4 2 11.5t2 11.5q12 43 18 94q10 53 13 100zM399 1253q19 7 40 10.5t44.5 2t41 -15.5t22.5 -40q8 -34 -15 -36
q-9 -2 -21.5 11.5t-29.5 12.5q-1 0 -29.5 -8.5t-53.5 -12.5t-55.5 8.5t-47.5 45.5q-3 5 -7 13t-3.5 23t16.5 19q17 5 47 -18t51 -15z" />
    <glyph glyph-name="odieresis" unicode="&#xf6;" horiz-adv-x="894" 
d="M981 555q3 5 9 3.5t9 -7.5q9 -22 -8 -66q-6 -12 -14 -20q-99 -106 -242 -135q-64 -366 -362 -361q-71 2 -127.5 26t-90 60.5t-57.5 81t-34 88.5t-15 80.5t-5 58.5l1 23q3 170 92 182q27 3 58 -4q-66 128 -48 279q6 59 26 105t46.5 72t57.5 43.5t60 23t53.5 7.5t39.5 1
l14 -2q58 -3 106 -29t80 -64.5t56 -90.5t37 -103.5t20.5 -107.5t9.5 -98.5t1 -80.5q-3 -58 -9 -119q110 36 236 154zM209 125q2 0 2 2q-9 15 -18 49q-2 6 -6 18.5t-5 16.5q-1 6 -6 41q-6 44 -6 86q4 53 8 80q0 13 -6 16l-6 4q-10 5 -14 -8l-5 -12q-5 -48 3 -111q0 -5 6 -47
q2 -16 10 -39q2 -6 22 -61q1 -2 3.5 -5t3.5 -5q4 -8 4 -11q6 -6 10 -14zM389 51q46 -2 87.5 69.5t62.5 205.5q-154 23 -263 129q0 -13 -4 -37q-6 -51 -6 -105t8 -117.5t37.5 -104t77.5 -40.5zM551 510q2 265 -24 378t-103 134q-51 14 -89.5 -34t-54.5 -118t-12 -133v-16.5
t5 -41.5t14 -60.5t29.5 -67t48.5 -67t75 -55t105 -36.5q6 53 6 117zM664 520q2 33 2 103q-3 103 -21 188q-5 23 -14 37l-10 6q-11 -3 -7 -29l4 -26q14 -75 19 -127q6 -62 6 -119q-5 -98 -6 -104q0 -20 -4 -48q-1 -4 -2 -11.5t-2 -10.5q0 -8 -2 -10q0 -9 -2 -13
q-9 -64 -33 -141q0 -2 -4 -14q0 -5 -4 -13q-4 -16 -6 -22l-15 -35l2 -2q26 54 45 115l6 18q1 2 2.5 6t2.5 7.5t2 7.5q0 1 1 4.5t1 5.5q1 2 2 5t2 5q1 4 2 11.5t2 11.5q12 43 18 94q10 53 13 100zM346 1167q-22 -1 -38.5 13.5t-18.5 36.5q0 21 14 36.5t37 16.5q22 2 38 -11.5
t17 -35.5t-13 -38t-36 -18zM510 1159q-23 -1 -39 12t-18 35q-1 22 13 38t36 18q23 0 39.5 -14t17.5 -36q1 -21 -13 -36t-36 -17z" />
    <glyph glyph-name="divide" unicode="&#xf7;" horiz-adv-x="382" 
d="M285 524q23 -10 26 -26q0 -7 -2 -13q-4 -12 -22 -20q-2 -1 -7 -2t-8 -2q-12 0 -20 -2h-27h-26q-11 0 -30 1t-26 1q-10 2 -24 2q-4 2 -10 2q-1 0 -4.5 1t-4.5 1q-6 0 -12 4q-13 7 -16 21q-3 20 8 34q14 14 37 11h18h27h31q6 0 17 -1t17 -1q5 -1 15.5 -2.5t15.5 -2.5
q15 -3 27 -6zM225 399q0 -14 -11 -24t-28 -10q-15 0 -25.5 10t-10.5 24q0 15 10.5 26t25.5 11q17 0 28 -11t11 -26zM193 559q-15 0 -26 11.5t-11 25.5q0 15 11 26t26 11q17 0 27.5 -11t10.5 -26q0 -14 -10.5 -25.5t-27.5 -11.5z" />
    <glyph glyph-name="oslash" unicode="&#xf8;" horiz-adv-x="894" 
d="M164 47q-36 34 -61.5 82t-36.5 91.5t-16.5 82t-5.5 61.5l1 23q3 173 92 182q27 3 58 -4q-66 128 -48 279q7 59 27.5 105t47 72t57 43.5t59.5 23t53 7.5t39 1l14 -2q132 -8 207 -121q34 42 45 35q24 -15 13 -54q-3 -12 -19 -51q39 -90 54 -197.5t10 -185.5q-3 -58 -9 -119
q77 25 146 73.5t90 80.5q3 5 9 3.5t9 -7.5q13 -25 -8 -66q-59 -115 -256 -155q-65 -371 -362 -361q-93 3 -162 43q-44 -67 -59 -61q-7 0 -9 12q-4 23 21 84zM424 1022q-51 14 -89.5 -34t-54.5 -118t-12 -133q0 -6 0.5 -17.5t5.5 -44.5t15.5 -63.5t33 -69.5t54.5 -69
q17 32 45 82t45 80.5t22 46.5q1 2 11 21t23 44t20 39q-9 111 -37 167t-82 69zM289 139q31 -88 100 -88q46 0 88.5 71t61.5 204q-67 11 -127 36q-5 -9 -20 -36.5t-23 -44.5q-10 -19 -16.5 -29t-16.5 -29q0 -1 -47 -84zM551 629q-5 -9 -107 -201q49 -27 101 -35q6 53 6 117
v119zM563 131l2 -2q26 54 45 115l6 18q1 2 2.5 6t2.5 7.5t2 7.5l2 10q1 2 2 5t2 5l4 23q1 7 5 30.5t5.5 30.5t4.5 28t4.5 29.5t4 27t3.5 29t2.5 28t2 31t1 30t0.5 33.5q0 88 -21 188q-7 -18 -18 -37q-2 -2 -2 -4q18 -108 18 -215q0 -93 -10 -154l-6 -45q-2 -25 -7.5 -49.5
t-14.5 -53.5t-11 -38l-4 -14q-1 -2 -2 -6.5t-2 -6.5zM272 418q-10 -66 -4 -156q39 79 72 139q-41 29 -64 54q0 -13 -4 -37zM147 418q-5 -48 3 -111q9 -87 45 -157l6 -11q0 -1 1 -2t1 -2q2 2 2 4q-2 4 -5.5 16.5t-6.5 20.5q-2 6 -6 18.5t-5 16.5q-6 21 -12 127q0 15 4 41.5
t4 38.5q0 10 -6 16l-6 4q-9 6 -14 -8z" />
    <glyph glyph-name="ugrave" unicode="&#xf9;" horiz-adv-x="1054" 
d="M1153 555q10 -6 16 -16q12 -15 9 -35q-12 -73 -28.5 -138t-46 -135t-67.5 -120t-94.5 -81.5t-124.5 -29.5q-52 2 -91.5 57.5t-58.5 133t-30.5 155.5t-13.5 132l-2 54q-3 34 -3 70q-159 -550 -315 -602q-60 -20 -105 16t-66.5 101.5t-34.5 134t-15 118.5l-2 50
q-8 134 -8 255t4 175l4 55q0 6 4 21.5t13.5 37.5t29.5 35t47 7q60 -14 112 -55t46 -87q-31 -290 -37 -458q-21 -328 18 -328q12 0 43 56t71 152.5t80 211.5t75 249.5t51 249.5q0 3 1.5 8t6.5 17.5t11.5 21t19.5 14t28 1.5q21 -4 33 -7t39.5 -12.5t43 -21.5t28 -33t10.5 -47
q-7 -79 -10 -412q-16 -438 33 -448q52 -11 104.5 57.5t90 176t61.5 233.5q1 7 7.5 10t12.5 0zM215 799q2 22 -4 35l-6 8q-4 1 -7 -2t-5.5 -7.5t-4.5 -11.5l-2 -24q-2 -8 -2 -29q-2 -10 -2 -29q0 -5 -1 -14t-1 -14v-27q0 -10 -2 -14v-13v-26v-51q0 -98 6 -174q0 -6 1 -18
t1 -17q0 -7 2 -11v-8q0 -2 1 -7.5t1 -8.5q0 -5 1.5 -15t1.5 -14q4 -20 4 -28q4 -16 4 -23q1 -4 2 -11.5t2 -11.5q3 -18 6 -30h2q-3 15 -6 43v8v6q0 2 -1 7t-1 7q0 5 -1 16.5t-1 16.5q-4 90 -4 156q0 58 4 176q8 108 12 160zM754 231h2q-1 7 -2 22t-2 23q0 2 -1 6.5t-1 6.5
v14q-2 10 -2 33q-7 79 -7 153q0 118 2 175q0 38 5 161q2 13 -5 33l-6 8q-9 0 -16 -22l-2 -23q-5 -181 8 -387q3 -46 8 -69q0 -5 1 -15.5t1 -15.5q1 -4 2 -13.5t2 -13.5q0 -10 4 -22q0 -4 1.5 -11t1.5 -10q3 -21 6 -33zM449 1190q-9 6 -16.5 15t-10.5 15l-4 5
q-9 16 -9.5 29.5t3.5 18.5l4 5q8 10 24 10l13 -4q8 -3 19.5 -9t28.5 -16.5t27 -15.5q7 -5 22 -13l15 -9q16 -8 25 -17q4 -4 8 -12q2 -6 2 -14l-4 -13q-3 -8 -12 -14q-1 -1 -5 -2t-6 -2h-12q-21 -3 -57 12q-26 11 -55 31z" />
    <glyph glyph-name="uacute" unicode="&#xfa;" horiz-adv-x="1054" 
d="M1153 555q10 -6 16 -16q12 -15 9 -35q-12 -73 -28.5 -138t-46 -135t-67.5 -120t-94.5 -81.5t-124.5 -29.5q-52 2 -91.5 57.5t-58.5 133t-30.5 155.5t-13.5 132l-2 54q-3 34 -3 70q-159 -550 -315 -602q-60 -20 -105 16t-66.5 101.5t-34.5 134t-15 118.5l-2 50
q-8 134 -8 255t4 175l4 55q0 6 4 21.5t13.5 37.5t29.5 35t47 7q60 -14 112 -55t46 -87q-31 -290 -37 -458q-21 -328 18 -328q12 0 43 56t71 152.5t80 211.5t75 249.5t51 249.5q0 3 1.5 8t6.5 17.5t11.5 21t19.5 14t28 1.5q21 -4 33 -7t39.5 -12.5t43 -21.5t28 -33t10.5 -47
q-7 -79 -10 -412q-16 -438 33 -448q52 -11 104.5 57.5t90 176t61.5 233.5q1 7 7.5 10t12.5 0zM215 799q2 22 -4 35l-6 8q-4 1 -7 -2t-5.5 -7.5t-4.5 -11.5l-2 -24q-2 -8 -2 -29q-2 -10 -2 -29q0 -5 -1 -14t-1 -14v-27q0 -10 -2 -14v-13v-26v-51q0 -98 6 -174q0 -6 1 -18
t1 -17q0 -7 2 -11v-8q0 -2 1 -7.5t1 -8.5q0 -5 1.5 -15t1.5 -14q4 -20 4 -28q4 -16 4 -23q1 -4 2 -11.5t2 -11.5q3 -18 6 -30h2q-3 15 -6 43v8v6q0 2 -1 7t-1 7q0 5 -1 16.5t-1 16.5q-4 90 -4 156q0 58 4 176q8 108 12 160zM754 231h2q-1 7 -2 22t-2 23q0 2 -1 6.5t-1 6.5
v14q-2 10 -2 33q-7 79 -7 153q0 118 2 175q0 38 5 161q2 13 -5 33l-6 8q-9 0 -16 -22l-2 -23q-5 -181 8 -387q3 -46 8 -69q0 -5 1 -15.5t1 -15.5q1 -4 2 -13.5t2 -13.5q0 -10 4 -22q0 -4 1.5 -11t1.5 -10q3 -21 6 -33zM582 1264q15 0 24 -11q18 -18 -2 -53q-13 -23 -31 -35
q-17 -15 -55 -30q-37 -15 -57 -15q-6 2 -12 2q-2 1 -6 2t-5 2q-5 2 -14 15q-2 4 -2 12t2 12q0 7 8 15q7 7 25 16q25 15 37 23q10 5 27 15.5t28.5 16.5t19.5 9q5 2 13 4z" />
    <glyph glyph-name="ucircumflex" unicode="&#xfb;" horiz-adv-x="1054" 
d="M1153 555q10 -6 16 -16q12 -15 9 -35q-12 -73 -28.5 -138t-46 -135t-67.5 -120t-94.5 -81.5t-124.5 -29.5q-52 2 -91.5 57.5t-58.5 133t-30.5 155.5t-13.5 132l-2 54q-3 34 -3 70q-159 -550 -315 -602q-60 -20 -105 16t-66.5 101.5t-34.5 134t-15 118.5l-2 50
q-8 134 -8 255t4 175l4 55q0 6 4 21.5t13.5 37.5t29.5 35t47 7q60 -14 112 -55t46 -87q-31 -290 -37 -458q-21 -328 18 -328q12 0 43 56t71 152.5t80 211.5t75 249.5t51 249.5q0 3 1.5 8t6.5 17.5t11.5 21t19.5 14t28 1.5q21 -4 33 -7t39.5 -12.5t43 -21.5t28 -33t10.5 -47
q-7 -79 -10 -412q-16 -438 33 -448q52 -11 104.5 57.5t90 176t61.5 233.5q1 7 7.5 10t12.5 0zM215 799q2 22 -4 35l-6 8q-4 1 -7 -2t-5.5 -7.5t-4.5 -11.5l-2 -24q-2 -8 -2 -29q-2 -10 -2 -29q0 -5 -1 -14t-1 -14v-27q0 -10 -2 -14v-13v-26v-51q0 -98 6 -174q0 -6 1 -18
t1 -17q0 -7 2 -11v-8q0 -2 1 -7.5t1 -8.5q0 -5 1.5 -15t1.5 -14q4 -20 4 -28q4 -16 4 -23q1 -4 2 -11.5t2 -11.5q3 -18 6 -30h2q-3 15 -6 43v8v6q0 2 -1 7t-1 7q0 5 -1 16.5t-1 16.5q-4 90 -4 156q0 58 4 176q8 108 12 160zM754 231h2q-1 7 -2 22t-2 23q0 2 -1 6.5t-1 6.5
v14q-2 10 -2 33q-7 79 -7 153q0 118 2 175q0 38 5 161q2 13 -5 33l-6 8q-9 0 -16 -22l-2 -23q-5 -181 8 -387q3 -46 8 -69q0 -5 1 -15.5t1 -15.5q1 -4 2 -13.5t2 -13.5q0 -10 4 -22q0 -4 1.5 -11t1.5 -10q3 -21 6 -33zM588 1135q-21 3 -51 16q-23 15 -43 31v0
q-15 -12 -48 -27q-20 -10 -51 -14q-8 0 -10 2q-6 0 -10 2q-9 0 -13 8q-4 4 -4 10q-4 4 0 8q0 7 7 11q5 5 20 14q5 4 17 10t14 8q61 34 63 35q0 2 2 2q6 2 15 2q8 0 14 -2l2 -2q12 -6 59 -39q15 -10 31 -22q17 -11 21 -14q4 -8 4 -11v-10l-4 -8q-8 -8 -15 -8q-2 -2 -10 -2
h-10z" />
    <glyph glyph-name="udieresis" unicode="&#xfc;" horiz-adv-x="1054" 
d="M1153 555q10 -6 16 -16q12 -15 9 -35q-12 -73 -28.5 -138t-46 -135t-67.5 -120t-94.5 -81.5t-124.5 -29.5q-52 2 -91.5 57.5t-58.5 133t-30.5 155.5t-13.5 132l-2 54q-3 34 -3 70q-159 -550 -315 -602q-60 -20 -105 16t-66.5 101.5t-34.5 134t-15 118.5l-2 50
q-8 134 -8 255t4 175l4 55q0 6 4 21.5t13.5 37.5t29.5 35t47 7q60 -14 112 -55t46 -87q-31 -290 -37 -458q-21 -328 18 -328q12 0 43 56t71 152.5t80 211.5t75 249.5t51 249.5q0 3 1.5 8t6.5 17.5t11.5 21t19.5 14t28 1.5q21 -4 33 -7t39.5 -12.5t43 -21.5t28 -33t10.5 -47
q-7 -79 -10 -412q-16 -438 33 -448q52 -11 104.5 57.5t90 176t61.5 233.5q1 7 7.5 10t12.5 0zM215 799q2 22 -4 35l-6 8q-4 1 -7 -2t-5.5 -7.5t-4.5 -11.5l-2 -24q-2 -8 -2 -29q-2 -10 -2 -29q0 -5 -1 -14t-1 -14v-27q0 -10 -2 -14v-13v-26v-51q0 -98 6 -174q0 -6 1 -18
t1 -17q0 -7 2 -11v-8q0 -2 1 -7.5t1 -8.5q0 -5 1.5 -15t1.5 -14q4 -20 4 -28q4 -16 4 -23q1 -4 2 -11.5t2 -11.5q3 -18 6 -30h2q-3 15 -6 43v8v6q0 2 -1 7t-1 7q0 5 -1 16.5t-1 16.5q-4 90 -4 156q0 58 4 176q8 108 12 160zM754 231h2q-1 7 -2 22t-2 23q0 2 -1 6.5t-1 6.5
v14q-2 10 -2 33q-7 79 -7 153q0 118 2 175q0 38 5 161q2 13 -5 33l-6 8q-9 0 -16 -22l-2 -23q-5 -181 8 -387q3 -46 8 -69q0 -5 1 -15.5t1 -15.5q1 -4 2 -13.5t2 -13.5q0 -10 4 -22q0 -4 1.5 -11t1.5 -10q3 -21 6 -33zM408 1143q-23 -1 -39.5 12.5t-18.5 34.5q-1 22 13 37.5
t36 17.5q23 1 39.5 -12.5t18.5 -34.5q1 -22 -13 -37.5t-36 -17.5zM569 1135q-22 -2 -38 11.5t-17 35.5q-2 22 12.5 37.5t36.5 15.5q22 2 39.5 -12t18.5 -35q0 -22 -14.5 -37.5t-37.5 -15.5z" />
    <glyph glyph-name="yacute" unicode="&#xfd;" horiz-adv-x="882" 
d="M743 1104q11 -2 28 -7t47 -23.5t34 -41.5q7 -38 -8.5 -462t-32.5 -533q-9 -55 -20.5 -92.5t-35.5 -74t-60 -56t-94 -28.5t-136 -1q-5 0 -12.5 1.5t-30.5 6.5t-40.5 14.5t-42.5 26t-35 40t-18.5 57t5.5 77.5q13 56 52 96.5t93 61.5t99.5 31t93.5 14q0 338 2 477
q-165 -483 -328 -522q-60 -15 -105 15.5t-66.5 85t-34.5 111t-15 97.5l-2 41q-8 112 -8 214t4 148l4 46q0 3 2 11.5t8.5 22.5t16.5 25.5t27.5 18.5t39.5 4q59 -10 111.5 -45.5t46.5 -73.5q-31 -242 -37 -381q-21 -275 18 -275q22 0 84 116t133 312t101 375q5 47 30.5 65.5
t81.5 4.5zM207 330h2q0 9 -4 37q-1 3 -2 10.5t-2 11.5q0 4 -1 13.5t-1 13.5q-2 10 -2 30q0 2 -1 7.5t-1 7.5v16q0 5 -1 16.5t-1 16.5v35q0 98 4 145q2 56 10 135q0 21 -4 29l-6 6q-13 3 -17 -16l-4 -21q-4 -66 -4 -94v-22q0 -15 -2 -23v-41q4 -100 8 -145q1 -5 2 -15.5
t2 -15.5q0 -8 2 -14q0 -9 2 -13q0 -4 1 -12t1 -12q5 -20 5 -23q4 -16 4 -20q4 -12 4 -17q4 -20 6 -26zM629 66v67q-229 -10 -264 -129q-11 -41 -6.5 -69t19.5 -44.5t31.5 -25.5t28.5 -12l13 -3q44 -8 77.5 5t51.5 36.5t29.5 57.5t15 61t4.5 56zM756 340q8 235 8 522
q0 29 -6 53l-8 11q-13 3 -13 -33l-2 -37q6 -370 0 -602q-4 -138 -8 -197q-3 -35 -6 -69q-3 -15 -6 -27q-4 -16 -6 -22q0 -3 1 -3t1 3q9 18 16 65q7 53 12 94q13 149 17 242zM518 1257q14 3 25 -8q18 -18 -2 -55q-11 -21 -31 -35q-29 -20 -55 -31q-27 -12 -58 -12q-8 0 -12 2
q-2 0 -5.5 1t-4.5 1q-10 7 -13 15q-4 6 -4 14t2 12q3 6 9 15q4 4 24 14q4 4 10.5 7.5t15 7.5t13.5 7q68 40 74 43q4 2 12 2z" />
    <glyph glyph-name="ydieresis" unicode="&#xff;" horiz-adv-x="882" 
d="M743 1104q11 -2 28 -7t47 -23.5t34 -41.5q7 -38 -8.5 -462t-32.5 -533q-9 -55 -20.5 -92.5t-35.5 -74t-60 -56t-94 -28.5t-136 -1q-5 0 -12.5 1.5t-30.5 6.5t-40.5 14.5t-42.5 26t-35 40t-18.5 57t5.5 77.5q13 56 52 96.5t93 61.5t99.5 31t93.5 14q0 338 2 477
q-165 -483 -328 -522q-60 -15 -105 15.5t-66.5 85t-34.5 111t-15 97.5l-2 41q-8 112 -8 214t4 148l4 46q0 3 2 11.5t8.5 22.5t16.5 25.5t27.5 18.5t39.5 4q59 -10 111.5 -45.5t46.5 -73.5q-31 -242 -37 -381q-21 -275 18 -275q22 0 84 116t133 312t101 375q5 47 30.5 65.5
t81.5 4.5zM207 330h2q0 9 -4 37q-1 3 -2 10.5t-2 11.5q0 4 -1 13.5t-1 13.5q-2 10 -2 30q0 2 -1 7.5t-1 7.5v16q0 5 -1 16.5t-1 16.5v35q0 98 4 145q2 56 10 135q0 21 -4 29l-6 6q-13 3 -17 -16l-4 -21q-4 -66 -4 -94v-22q0 -15 -2 -23v-41q4 -100 8 -145q1 -5 2 -15.5
t2 -15.5q0 -8 2 -14q0 -9 2 -13q0 -4 1 -12t1 -12q5 -20 5 -23q4 -16 4 -20q4 -12 4 -17q4 -20 6 -26zM629 66v67q-229 -10 -264 -129q-11 -41 -6.5 -69t19.5 -44.5t31.5 -25.5t28.5 -12l13 -3q44 -8 77.5 5t51.5 36.5t29.5 57.5t15 61t4.5 56zM756 340q8 235 8 522
q0 29 -6 53l-8 11q-13 3 -13 -33l-2 -37q6 -370 0 -602q-4 -138 -8 -197q-3 -35 -6 -69q-3 -15 -6 -27q-4 -16 -6 -22q0 -3 1 -3t1 3q9 18 16 65q7 53 12 94q13 149 17 242zM371 1141q-23 -2 -40 11.5t-18 35.5q-2 22 12.5 37.5t36.5 15.5q22 2 39.5 -12t18.5 -35t-13 -36
t-36 -17zM532 1130q-21 -1 -37 13t-18 35q-1 22 13 37.5t36 17.5t39 -12.5t17 -34.5q2 -22 -12.5 -38.5t-37.5 -17.5z" />
    <glyph glyph-name="OE" unicode="&#x152;" horiz-adv-x="1525" 
d="M477 0q-105 0 -183.5 36.5t-119.5 95.5t-67 130t-30.5 142t-4 130t5.5 96l6 36q1 7 2 20t8 52t16.5 77t28 89.5t41 95.5t57.5 88.5t76 75.5t97.5 50t121.5 17h6.5t18 -1t25 -5t28.5 -11.5t29 -20.5t26 -31.5t19 -45t9 -61.5t-5 -80q-10 -37 -43 -60q73 -22 121 -81
q21 152 70 307q-101 -12 -121 6q-9 8 -18.5 21.5t-16 29.5t0 28t28.5 13q133 9 329 2q248 -4 353 -16q39 0 55 -23q11 -14 -2 -22.5t-31 -8.5q-168 -3 -379 -16q27 -52 2 -139q-34 -113 -53 -266h201h14.5t22 -5.5t12.5 -15.5q0 -6 -2.5 -15.5t-16 -25t-36.5 -16.5h-12
q-13 0 -33.5 -0.5t-45.5 -1t-56 -0.5h-58q-9 -82 -12 -170q-6 -153 30 -295t94 -142h13.5t33.5 4t49 12t55.5 25.5t57.5 42.5q54 52 117 182q28 57 34 56q8 0 9 -43q1 -21 -6.5 -54t-30 -79.5t-56 -88t-92.5 -75.5t-132 -45q-120 -19 -208 37.5t-136 177.5
q-29 -65 -72.5 -111.5t-84.5 -65.5t-77.5 -29t-58.5 -9h-23zM844 686q-5 -129 8 -250q8 -72 35 -178q8 -32 18 -63q0 -5 4 -13q0 -4 4 -12q4 -12 7 -18q0 -3 1 -3t1 3q-24 73 -35 145q-1 4 -3 12.5t-3 12.5q0 4 -1 12.5t-1 13.5q-6 22 -9 53q0 11 -2 15v14q0 2 -1 7t-1 7v15
q-2 10 -2 30q0 19 -2 29q0 82 2 125q3 54 13 125q1 5 18 119q13 59 27 106q9 37 6 49l-2 11q-9 7 -23 -25q-2 -4 -8 -22l-4 -11q-36 -138 -47 -309zM301 618q-6 -115 -1 -212t21 -168.5t54.5 -116t99.5 -55.5q5 -1 13 -2t31.5 2.5t46 13t51 35.5t51 64.5t42 105t27.5 151.5
q11 86 2 150.5t-24.5 110.5t-42 76.5t-51.5 48.5t-53.5 27t-47.5 12.5t-32 4.5h-5q-2 19 13.5 39t40.5 23q24 5 51 0q28 115 20.5 167t-30.5 59l-23 7q-48 -1 -88 -31.5t-65.5 -78t-45.5 -105.5t-30 -115.5t-16 -105.5t-8 -77zM178 377q2 -20 10 -51q2 -9 7 -26t6 -19
q2 -2 2 -7q2 0 2 -4q1 -2 2 -5t2 -5q1 -3 4 -10t4 -10q1 -1 2 -4.5t2 -4.5q1 -2 2 -5t2 -5l8 -16q15 -25 35 -53q15 -21 31 -37q1 -1 1 0t-1 2q-2 4 -8 10q-1 2 -4 6t-4 6q-2 2 -5.5 6.5t-5.5 6.5q-1 2 -10 16q-18 30 -37 76q-17 43 -26 100q-9 41 -13 115q0 39 4 121
q14 98 19 122q18 104 55 220q10 31 10 49l-4 10q-4 3 -10.5 -4.5t-11.5 -20.5l-12 -30q-21 -70 -23 -80q-13 -57 -16 -78q-18 -90 -23 -145q-15 -136 4 -246z" />
    <glyph glyph-name="oe" unicode="&#x153;" horiz-adv-x="1406" 
d="M1313 553q11 -7 16 -18q9 -12 6 -29q-14 -88 -42 -172t-70.5 -161t-106 -124.5t-137.5 -48.5q-185 -3 -285 131q-93 -165 -295 -162q-71 2 -127.5 26t-90 60.5t-57 81t-33.5 88.5t-15 80.5t-4 58.5v23q3 170 92 182q26 3 57 -4q-65 127 -47 279q6 59 26 105t46.5 72
t57.5 43.5t60 23t53.5 7.5t38.5 1l15 -2q164 -11 244 -191q105 161 284 158q6 0 16 -0.5t35 -11.5t43.5 -31.5t32 -67t9.5 -110.5q-4 -76 -35.5 -148.5t-77.5 -125t-99 -90t-104 -54.5q3 -152 53.5 -248t128.5 -102q50 -1 110 65.5t109.5 177t69.5 228.5q0 8 8 11t15 -1z
M1022 991q-48 6 -85 -34t-58 -98t-35 -135t-18.5 -129t-6.5 -97q86 35 160.5 126t85.5 199q4 47 1.5 78t-10 49t-15 27t-13.5 11zM238 137h2q-18 30 -23 47q-7 18 -10 35q-3 9 -8 39q-2 29 -2 86q4 56 8 80q2 7 -4 18l-6 4q-9 2 -17 -10l-2 -10q-5 -55 -2 -111q6 -46 6 -47
q1 -8 4 -22t4 -19q10 -32 27 -59q11 -19 23 -31zM416 51q45 -2 86.5 69.5t62.5 205.5q-153 23 -262 129q0 -13 -4 -37q-6 -51 -6 -105t8 -117.5t37.5 -104t77.5 -40.5zM578 510q2 265 -24 378t-103 134q-51 14 -89.5 -34t-54.5 -118t-12 -133v-16.5t5 -41.5t14 -60.5t29 -67
t48.5 -67t75 -55t104.5 -36.5q7 61 7 117zM803 127q1 -3 2.5 -2.5t-0.5 2.5q-5 8 -27 47q-18 36 -28 70q0 2 -1 5t-1 5l-5 10q-1 3 -3 10.5t-3 10.5q-1 6 -4 22t-4 25q-1 7 -6 47q-2 10 -2 27q0 16 -2 24q0 103 22 213q14 80 54 191q10 25 10 40l-4 11q-4 3 -11 -3.5
t-12 -17.5l-12 -26q-23 -68 -39 -136q-14 -61 -20 -127q-12 -119 4 -215q6 -46 18 -84q5 -17 25 -67q5 -5 8 -14q1 -2 3 -6.5t3 -6.5q8 -16 12 -22q6 -10 23 -33z" />
    <glyph glyph-name="Ydieresis" unicode="&#x178;" horiz-adv-x="952" 
d="M813 1186q30 -41 46.5 -103.5t18.5 -143t0 -131.5t-8 -127q-1 -18 -2 -26q-6 -60 -14 -119.5t-25 -140t-38.5 -150t-55.5 -141t-74.5 -122t-97.5 -84.5t-123 -37q-9 -1 -24 -0.5t-53 10t-66 27.5t-48.5 60t-15.5 101q4 60 47.5 115.5t109.5 96t125 67.5t116 45
q23 150 34.5 336t12.5 297v110q-2 -16 -5.5 -43.5t-18 -107.5t-31.5 -153t-46 -163t-61.5 -156t-78.5 -113t-97 -52q-48 -4 -87 10.5t-66.5 41.5t-48.5 69.5t-33.5 87t-20 101.5t-10 105.5t-2 107.5t2.5 99t5 87q1 5 2.5 13t11 29.5t24.5 39.5t44 37t67 28q39 9 53 -18.5
t8 -59.5l-5 -31l-14 -144q-27 -383 60 -466q18 -18 42 -20q32 -3 67 66t64 172t55 207.5t48.5 186.5t35.5 95q3 5 9 13t24.5 23.5t37.5 21t46.5 -6.5t52.5 -47zM248 455q2 -1 3 0t-1 2q-10 14 -21 35q-2 3 -5.5 11t-4.5 11q-2 4 -5 14.5t-5 14.5q-17 68 -23 139
q-11 113 7 309q3 21 -5 33l-6 6q-4 1 -8 -4.5t-6 -13.5l-4 -23q-8 -91 -4 -201q3 -85 16 -159q17 -75 35 -113q14 -33 37 -61zM430 -63q126 19 191 374q-55 -18 -100.5 -39.5t-76 -42.5t-55 -44t-37 -44.5t-22.5 -42.5t-11.5 -38.5t-3 -32.5t1.5 -25q7 -36 35.5 -52
t53.5 -14zM793 741q7 138 2 222q0 25 -11 47l-8 8q-10 0 -10 -31v-33q4 -53 4 -153q-4 -94 -8 -139q-8 -112 -29 -232q-11 -64 -39 -168q-2 -9 -8 -29t-8 -30q-3 -8 -7.5 -22t-6.5 -19q1 -2 2 -2q33 85 47 137q6 18 8 22q1 3 6 23q0 2 1 6t1 6q1 2 2 6.5t2 6.5q1 4 3 13
t3 13q18 79 23 111q11 53 18 117q4 27 13 120zM416 1300q-23 -1 -39.5 12.5t-18.5 35.5q-1 22 13.5 37.5t36.5 17.5q23 1 39 -13t18 -36q2 -20 -12.5 -36.5t-36.5 -17.5zM580 1290q-23 0 -40 13.5t-18 35.5t13 37t36 17t39.5 -12t18.5 -35q1 -22 -13 -38t-36 -18z" />
    <glyph glyph-name="circumflex" unicode="&#x2c6;" horiz-adv-x="413" 
d="M301 1065q-24 3 -49 16q-31 20 -45 31v0q-14 -11 -45 -27q-22 -10 -51 -14q-9 0 -13 2q-6 0 -8 2q-6 0 -14 8q-2 5 -4 11v8q4 8 6 10t9.5 6.5t10.5 7.5q25 15 33 19q47 28 62 35q2 2 4 2q4 2 14 2q8 0 12 -2l4 -2q7 -4 27.5 -18t32.5 -21q25 -20 30 -23l7.5 -5l7.5 -5
t4 -4q2 -2 6 -10v-11l-6 -8q-4 -8 -14 -8q-2 -2 -9 -2h-12z" />
    <glyph glyph-name="ring" unicode="&#x2da;" horiz-adv-x="270" 
d="M135 1073q-26 0 -44.5 18t-18.5 44q0 25 18.5 43t44.5 18t45 -18t19 -43q0 -26 -19 -44t-45 -18zM135 1159q-11 0 -18.5 -7t-7.5 -17t7.5 -17.5t18.5 -7.5t19 7.5t8 17.5t-8 17t-19 7z" />
    <glyph glyph-name="tilde" unicode="&#x2dc;" horiz-adv-x="407" 
d="M188 1161q18 7 38.5 10.5t44 2.5t41.5 -15t24 -41q6 -33 -14 -37q-9 -1 -22 12.5t-30 12.5q-3 0 -22 -6.5t-39 -10t-44 -3t-46 14t-35 40.5q-1 2 -3 5t-5.5 11.5t-4 15.5t4 14t14.5 9q16 4 46 -19t52 -16z" />
    <glyph glyph-name="Euro" unicode="&#x20ac;" horiz-adv-x="755" 
d="M295 115q-4 8 -10 14q-23 35 -35 64q-17 39 -27 73q-2 7 -18 84q-8 59 -10 88t-2 90v4q-37 2 -74 7q-47 2 -47 18q0 36 80 33h41v28v21q-38 0 -70 4q-47 5 -47 21q0 32 80 32q8 -2 39 -2q4 74 8 109q11 112 30 182q10 38 31 84q15 30 21 39q8 16 22 37q25 36 55 57
q40 28 64 35q2 0 6 2q1 0 3 1t3 1q2 0 5.5 1t5.5 1q6 2 22 2h12h9h14q22 -4 31 -8q16 -6 32 -16q20 -14 43 -39q29 -32 43 -74q10 -41 11 -47q2 -4 2 -8v-6q0 -9 2 -11v-24q0 -55 -8 -99q-2 -19 -13 -47q-9 -24 -24 -45q-10 -17 -35 -35q-19 -13 -39 -16q-12 -2 -33 -2
q-15 3 -24 6q-19 10 -19 21v4q1 1 3 4t3 4t4 3t4 3q1 0 2.5 1t2.5 1t3 1t3 1q3 1 8.5 3.5t10.5 5t9 5.5q9 3 19 13q12 13 20 30q5 10 8 25q7 14 7 29q6 30 6 67q0 5 -1 17t-1 18v8l-2 9v6q0 2 -1 4.5t-1 3.5q-7 33 -21 53q-14 21 -24 31v0h-2q-14 8 -26 8.5t-26.5 -13
t-25 -27t-22 -33.5t-18 -33t-11.5 -25q-2 -7 -8 -21.5t-9 -21.5q-21 -63 -29 -141q-9 -66 -12 -144q135 -7 137 -26q1 -2 0.5 -5.5t-10.5 -10t-31 -9.5q-8 -2 -98 -6q0 -33 -2 -49q134 -4 137 -27q1 -2 0.5 -5t-10.5 -9t-31 -10q-40 -5 -96 -5v-79q2 -33 6 -95q4 -26 17 -82
q8 -38 24 -69q17 -30 33 -49q17 -19 37 -33q2 -2 7 -5.5t7 -4.5q2 -2 6.5 -4t17 -5.5t21.5 0.5q4 0 4 3q1 0 3 1t3 1t3.5 1t3.5 1q2 2 6 5t6 5q6 4 14 12q6 9 12 21q4 6 13 24q1 2 2 7.5t2 7.5q0 1 1 4t1 4l2 4v0v2q0 3 1 8t1 8q2 6 2 17q1 6 2 17.5t2 16.5q0 46 -4 62
q-3 15 -6 24q-4 8 -4 11q-4 4 -4 8q-5 9 -14.5 18.5t-14.5 16t-4 12.5q-2 2 0 4q0 5 6 8q4 4 6 4q2 2 6 2q1 0 4 1.5t5 1.5h4q2 -1 4 -3q6 0 10 -2q4 0 12 -4q2 -1 6.5 -3t6.5 -3q14 -10 30 -33q11 -16 23 -55q8 -27 8 -67q0 -47 -4 -72q0 -1 -1 -4t-1 -4q0 -7 -2 -11v-2v-2
v-2l-2 -4q0 -2 -1 -5t-1 -5l-6 -18q-7 -14 -9 -17q-4 -11 -18 -35q-4 -5 -12.5 -15t-12.5 -15q-23 -19 -28 -21q-20 -12 -31 -14q-23 -10 -47 -10q-47 -7 -92 8h-2q-2 1 -7.5 3t-7.5 3h-4l-4 2l-8 4q-2 1 -5 2t-5 2q-4 4 -8 6q-5 0 -9 4q-2 1 -10 9q-3 2 -9.5 7.5t-10.5 8.5
q-1 1 -5 4.5t-6 5.5l-10 10q-3 6 -10 13zM260 543q0 -43 8 -117q11 -97 39 -180q11 -33 25 -60q4 -4 8 -12v-2l2 -2q1 -1 2 -3t2 -3q10 -15 12 -17q1 -3 2.5 -2.5t-0.5 2.5q-1 2 -4 6.5t-4 6.5q-4 8 -8 12q-1 2 -3 7t-3 7q-3 5 -8 19q-14 33 -27 82q-21 94 -24 221v63v31v8
v4v4v15q0 5 1 16.5t1 16.5v30q0 3 1 8.5t1 8.5v14q1 6 2 17t2 16q8 78 16 119q1 5 3 14t3 14q1 4 3 13.5t3 13.5q6 12 9 27q1 2 2 6t2 6t2 6t2 6q1 4 12 47q0 2 -1 4.5t-1 3.5l-2 4q-2 2 -12 -4q-12 -18 -13 -20l-6 -12q0 -3 -4 -11q0 -1 -1 -3t-1 -3v-4q-9 -25 -22 -82
q0 -5 -5 -20q0 -7 -2 -11v-10q-1 -3 -2 -9t-2 -9q0 -4 -1 -11t-1 -10q-2 -6 -2 -18q-2 -8 -2 -21q-2 -6 -2 -18q0 -6 -2 -10v-8v-19q0 -3 -1 -9t-1 -9v-37v-8v-9v-18v-16v-9v-2v-2v-4q0 -45 2 -65z" />
    <glyph glyph-name="minus" unicode="&#x2212;" horiz-adv-x="382" 
d="M285 524q23 -10 26 -26q0 -7 -2 -13q-4 -12 -22 -20q-2 -1 -7 -2t-8 -2q-12 0 -20 -2h-27h-26q-11 0 -30 1t-26 1q-10 2 -24 2q-4 2 -10 2q-1 0 -4.5 1t-4.5 1q-6 0 -12 4q-13 7 -16 21q-3 20 8 34q14 14 37 11h18h27h31q6 0 17 -1t17 -1q5 -1 15.5 -2.5t15.5 -2.5
q15 -3 27 -6z" />
    </font>
</defs>
</svg>
