<?xml version="1.0" standalone="no"?>
<!DOCTYPE svg PUBLIC "-//W3C//DTD SVG 1.1//EN" "http://www.w3.org/Graphics/SVG/1.1/DTD/svg11.dtd" >
<svg xmlns="http://www.w3.org/2000/svg" xmlns:xlink="http://www.w3.org/1999/xlink" version="1.1">
<metadata>
Created by FontForge 20170731 at Thu Apr 18 07:27:46 2013
 By Aleksey,,,
Copyright (c) Mark Simonson, 2010. All rights reserved.
</metadata>
<defs>
<font id="ProximaNovaSoft-Bold" horiz-adv-x="579" >
  <font-face 
    font-family="Proxima Nova Soft"
    font-weight="700"
    font-stretch="normal"
    units-per-em="1000"
    panose-1="2 0 5 6 3 0 0 2 0 4"
    ascent="775"
    descent="-225"
    x-height="483"
    cap-height="673"
    bbox="-150 -282 1096 909"
    underline-thickness="20"
    underline-position="-153"
    unicode-range="U+000D-FB02"
  />
<missing-glyph horiz-adv-x="483" 
d="M417 -52q0 -15 -11.5 -26.5t-26.5 -11.5h-275q-15 0 -26.5 11.5t-11.5 26.5v766q0 15 11.5 26.5t26.5 11.5h275q15 0 26.5 -11.5t11.5 -26.5v-766zM385 -60v782h-288v-782h288z" />
    <glyph glyph-name="fi" unicode="fi" horiz-adv-x="580" 
d="M453 686q32 0 54 -21.5t22 -53.5t-22 -54t-54 -22q-31 0 -53.5 22t-22.5 54t22.5 53.5t53.5 21.5zM517 57q0 -26 -18.5 -44.5t-45.5 -18.5q-26 0 -44.5 18.5t-18.5 44.5v370q0 26 18.5 44t46.5 18q26 0 44 -18t18 -44v-370zM335 626q0 -19 -11.5 -34t-32.5 -15h-5h-6
q-26 0 -43.5 -17t-17.5 -51v-26h50q22 0 38 -16.5t16 -39.5t-16 -39t-38 -16h-50v-315q0 -26 -18.5 -44.5t-46.5 -18.5q-26 0 -44.5 18.5t-18.5 44.5v315h-31q-23 0 -39 16.5t-16 40.5q0 22 16 38t39 16h31v26q0 39 12 70.5t34 53t51.5 33t65.5 11.5q21 0 36 -3t25 -9
t15 -16t5 -23z" />
    <glyph glyph-name="fl" unicode="fl" horiz-adv-x="580" 
d="M517 57q0 -26 -18.5 -44.5t-45.5 -18.5q-26 0 -44.5 18.5t-18.5 44.5v554q0 26 18.5 44t46.5 18q26 0 44 -18t18 -44v-554zM335 626q0 -19 -11.5 -34t-32.5 -15h-5h-6q-26 0 -43.5 -17t-17.5 -51v-26h50q22 0 38 -16.5t16 -39.5t-16 -39t-38 -16h-50v-315
q0 -26 -18.5 -44.5t-46.5 -18.5q-26 0 -44.5 18.5t-18.5 44.5v315h-31q-23 0 -39 16.5t-16 40.5q0 22 16 38t39 16h31v26q0 39 12 70.5t34 53t51.5 33t65.5 11.5q21 0 36 -3t25 -9t15 -16t5 -23z" />
    <glyph glyph-name=".notdef" horiz-adv-x="483" 
d="M417 -52q0 -15 -11.5 -26.5t-26.5 -11.5h-275q-15 0 -26.5 11.5t-11.5 26.5v766q0 15 11.5 26.5t26.5 11.5h275q15 0 26.5 -11.5t11.5 -26.5v-766zM385 -60v782h-288v-782h288z" />
    <glyph glyph-name=".null" horiz-adv-x="0" 
 />
    <glyph glyph-name="nonmarkingreturn" unicode="&#xd;" horiz-adv-x="0" 
 />
    <glyph glyph-name="NULL" horiz-adv-x="0" 
 />
    <glyph glyph-name="NULL" horiz-adv-x="0" 
 />
    <glyph glyph-name="space" unicode=" " horiz-adv-x="256" 
 />
    <glyph glyph-name="exclam" unicode="!" horiz-adv-x="256" 
d="M201 600q0 -5 -1 -24t-2 -47t-2.5 -62t-3.5 -69.5t-3.5 -69.5t-2.5 -62q-1 -23 -17.5 -39t-41.5 -16q-23 0 -39.5 16t-17.5 39q-1 28 -3 62t-3.5 69.5t-3.5 69.5t-3 62t-2 47t-1 24q0 31 21.5 52t53.5 21q31 0 51.5 -21t20.5 -52zM209 70q0 -16 -6.5 -30.5t-17.5 -25.5
t-26 -17.5t-31 -6.5q-17 0 -31.5 6.5t-25 17.5t-17 25.5t-6.5 30.5q0 33 23.5 57t56.5 24t57 -24t24 -57z" />
    <glyph glyph-name="quotedbl" unicode="&#x22;" horiz-adv-x="406" 
d="M362 608q0 -5 -4 -31t-10 -59t-12 -67t-10 -56q-2 -11 -11 -18.5t-23 -7.5q-11 0 -20 7.5t-11 18.5q-4 22 -10 56t-12 67t-10 59t-4 31q0 29 20 49t49 20t48.5 -20t19.5 -49zM182 608q0 -5 -4 -30.5t-10 -58.5t-12 -67t-10 -56q-2 -12 -11.5 -19.5t-22.5 -7.5
q-11 0 -20.5 7.5t-11.5 19.5q-4 22 -10 56t-12 67t-10 58.5t-4 30.5q0 29 20 49t49 20q28 0 48.5 -20t20.5 -49z" />
    <glyph glyph-name="numbersign" unicode="#" horiz-adv-x="618" 
d="M589 455q0 -16 -11.5 -27.5t-27.5 -11.5h-73l-55 -166h50q16 0 27.5 -12t11.5 -29t-11.5 -28.5t-27.5 -11.5h-77l-48 -145q-5 -14 -17 -22t-26 -8q-20 0 -32.5 12.5t-12.5 30.5v6.5t2 7.5l41 118h-95l-49 -146q-5 -14 -17 -22t-26 -8q-20 -1 -32 12.5t-12 30.5q0 9 2 14
l40 119h-43q-17 0 -28.5 12t-11.5 30q0 16 11.5 27.5t28.5 11.5h71l54 166h-46q-16 0 -27.5 12t-11.5 29q0 16 11.5 27.5t27.5 11.5h74l48 147q5 13 16.5 21t25.5 8q20 0 32.5 -13t12.5 -30q0 -5 -2 -13l-39 -120h94l48 146q5 14 17 22t26 8q20 0 32.5 -13t12.5 -30
q0 -6 -2 -14l-41 -119h46q16 0 27.5 -12t11.5 -29zM383 416h-94l-54 -166h93z" />
    <glyph glyph-name="dollar" unicode="$" horiz-adv-x="614" 
d="M579 202q0 -42 -13.5 -78t-40.5 -63.5t-68 -45.5t-96 -24v-51q0 -19 -13.5 -32.5t-32.5 -13.5q-21 0 -35 13.5t-14 32.5v50q-30 3 -62 10t-61 18t-51.5 26t-34.5 33q-5 8 -7.5 15.5t-2.5 16.5q0 28 20 47t46 19q21 0 39 -12q24 -17 52.5 -29t61.5 -18v158q-39 10 -77 23
t-69 35.5t-50 56.5t-19 85q0 38 14.5 72t42.5 61t67.5 45t90.5 23v53q0 19 14 32.5t35 13.5q19 0 32.5 -13.5t13.5 -32.5v-55q22 -3 48 -8.5t50 -14.5t44 -21.5t31 -28.5q10 -15 10 -31q0 -14 -6 -26t-16 -20.5t-23 -13.5t-26 -5q-9 0 -19 3q-22 6 -46 19.5t-47 18.5v-141
q39 -10 77.5 -23.5t70 -36t51 -57t19.5 -85.5zM266 429v122q-34 -5 -52 -22t-18 -43q0 -11 5 -19.5t14 -15.5t22 -12.5t29 -9.5zM435 186q0 12 -5.5 22t-15.5 17.5t-23.5 13.5t-29.5 11v-134q18 4 32 11t23.5 16t14 20t4.5 23z" />
    <glyph glyph-name="percent" unicode="%" horiz-adv-x="757" 
d="M365 509q0 -35 -12 -65t-34.5 -52t-53.5 -34.5t-70 -12.5q-38 0 -69.5 12.5t-53.5 34.5t-34 52t-12 65t12 66t34 53.5t53.5 35.5t69.5 13q39 0 70 -13t53.5 -35.5t34.5 -53.5t12 -66zM211 8q-9 -14 -26 -14q-14 0 -23.5 9t-9.5 22q0 9 5 17l394 617q9 14 26 14
q13 0 23 -9.5t10 -22.5q0 -8 -5 -16zM732 153q0 -35 -12 -65t-34.5 -52.5t-54 -35t-69.5 -12.5t-69.5 12.5t-53.5 35t-34 52.5t-12 65t12 66t34 53.5t53.5 35.5t69.5 13t69.5 -13t54 -35.5t34.5 -53.5t12 -66zM116 509q0 -39 22.5 -62.5t56.5 -23.5q17 0 31.5 6t25 17.5
t16.5 27t6 35.5q0 42 -22 65.5t-57 23.5q-34 0 -56.5 -23.5t-22.5 -65.5zM483 153q0 -20 6 -36.5t16.5 -27.5t25 -17t31.5 -6t32 6t25.5 17t16.5 27.5t6 36.5q0 42 -22.5 65.5t-57.5 23.5t-57 -23.5t-22 -65.5z" />
    <glyph glyph-name="ampersand" unicode="&#x26;" horiz-adv-x="646" 
d="M509 134q8 -9 17.5 -18t18 -19t14 -21t5.5 -24q0 -22 -16 -40.5t-41 -18.5q-13 0 -25 6.5t-22.5 15.5t-19 19t-14.5 16q-38 -29 -83 -45.5t-99 -16.5q-46 0 -86 12t-70 36t-47 60.5t-17 84.5q0 38 11.5 67.5t31.5 52.5t45.5 40.5t54.5 31.5q-20 37 -32 73.5t-12 70.5
t14 63t39.5 50.5t60.5 34t77 12.5q35 0 67 -9.5t56 -27.5t38 -44.5t14 -59.5q0 -38 -14 -66t-37 -49.5t-52.5 -37.5t-60.5 -30q16 -23 31 -41.5t29 -35t27.5 -32t26.5 -31.5q13 20 24 41t20 42q6 14 19.5 23t29.5 9q23 0 39 -16.5t16 -37.5q0 -11 -8 -30q-6 -13 -14.5 -28
t-18.5 -29.5t-19.5 -28.5t-17.5 -24zM159 193q0 -24 8.5 -43.5t22.5 -33t32.5 -21t39.5 -7.5q26 0 50 9t46 25q-28 31 -47.5 53t-35 41t-29 37.5t-29.5 41.5q-26 -19 -42 -43t-16 -59zM320 585q-15 0 -27.5 -5.5t-22 -15t-15 -22.5t-5.5 -28q0 -20 8 -43t21 -47q21 10 39 21
t31.5 23.5t21.5 27.5t8 33q0 26 -17 41t-42 15z" />
    <glyph glyph-name="quotesingle" unicode="'" horiz-adv-x="225" 
d="M182 608q0 -5 -4 -30.5t-10 -58.5t-12 -67t-10 -56q-2 -12 -11.5 -19.5t-22.5 -7.5q-11 0 -20.5 7.5t-11.5 19.5q-4 22 -10 56t-12 67t-10 58.5t-4 30.5q0 29 20 49t49 20q28 0 48.5 -20t20.5 -49z" />
    <glyph glyph-name="parenleft" unicode="(" horiz-adv-x="297" 
d="M266 -126q0 -23 -15.5 -41t-39.5 -18q-11 0 -21.5 4.5t-17.5 14.5q-30 41 -54 90t-41.5 102t-26.5 108t-9 109q0 53 9.5 108.5t26.5 108.5t41 102.5t54 90.5q7 9 17.5 13.5t21.5 4.5q25 0 40 -18t15 -39q0 -14 -6 -26q-20 -40 -35 -80.5t-25.5 -82.5t-16 -87.5
t-5.5 -94.5q0 -99 21 -181t61 -161q6 -14 6 -27z" />
    <glyph glyph-name="parenright" unicode=")" horiz-adv-x="297" 
d="M257 243q0 -54 -9.5 -109t-26.5 -108t-41.5 -102t-54.5 -90q-7 -10 -17.5 -14.5t-21.5 -4.5q-24 0 -39.5 18t-15.5 41q0 13 6 27q40 79 61 161t21 181q0 49 -5.5 94.5t-16 87.5t-25.5 82.5t-35 80.5q-6 12 -6 26q0 21 15 39t39 18q11 0 22 -4.5t18 -13.5q30 -41 54 -90
t41.5 -102.5t27 -108.5t9.5 -109z" />
    <glyph glyph-name="asterisk" unicode="*" horiz-adv-x="351" 
d="M177 683q11 0 20.5 -9t8.5 -21l-4 -86l71 45q8 5 16 5q10 0 20 -8t10 -23q0 -19 -15 -26l-75 -39l75 -39q15 -8 15 -25q0 -13 -9 -22t-22 -9q-8 0 -15 4l-71 46l4 -86q1 -12 -8.5 -21t-22.5 -9t-22 9t-8 21l4 86l-73 -46q-7 -5 -15 -5q-10 0 -20 8.5t-10 22.5q0 8 4 15
t12 11l75 39l-75 39q-16 8 -16 25q0 14 9.5 23t21.5 9q8 0 15 -4l72 -46l-4 86q-1 12 8.5 21t23.5 9z" />
    <glyph glyph-name="plus" unicode="+" horiz-adv-x="504" 
d="M481 339q0 -18 -11 -29.5t-27 -11.5h-147v-166q0 -18 -12.5 -30.5t-31.5 -12.5q-18 0 -30.5 12.5t-12.5 30.5v166h-147q-17 0 -28 11.5t-11 29.5q0 16 11 27t28 11h147v159q0 17 12.5 29.5t32.5 12.5q17 0 29.5 -12.5t12.5 -29.5v-159h147q16 0 27 -11t11 -27z" />
    <glyph glyph-name="comma" unicode="," horiz-adv-x="256" 
d="M215 49q0 -48 -21.5 -91.5t-59.5 -77.5q-10 -10 -26 -10q-13 0 -25.5 8.5t-12.5 23.5q0 13 10 22q20 16 34.5 37t19.5 41q-2 -1 -8 -2t-11 -1q-29 0 -48.5 20t-19.5 52q0 33 23 56.5t55 23.5q18 0 34 -7t28.5 -20t20 -32t7.5 -43z" />
    <glyph glyph-name="hyphen" unicode="-" horiz-adv-x="300" 
d="M276 243q0 -23 -15.5 -39t-37.5 -16h-146q-22 0 -37.5 16t-15.5 39q0 22 15.5 37.5t37.5 15.5h146q22 0 37.5 -15.5t15.5 -37.5z" />
    <glyph glyph-name="period" unicode="." horiz-adv-x="256" 
d="M209 70q0 -33 -24 -57t-57 -24t-57 24t-24 57t24 57t57 24t57 -24t24 -57z" />
    <glyph glyph-name="slash" unicode="/" horiz-adv-x="329" 
d="M314 650q0 -5 -2 -13l-211 -633q-5 -14 -17 -22t-26 -8q-19 0 -31.5 12.5t-12.5 29.5q0 6 3 14l211 633q5 14 16.5 22t26.5 8q19 0 31 -13t12 -30z" />
    <glyph glyph-name="zero" unicode="0" horiz-adv-x="620" 
d="M586 333q0 -65 -16.5 -126.5t-50.5 -110.5t-86 -78.5t-123 -29.5q-72 0 -124 29.5t-85.5 78.5t-50 110.5t-16.5 126.5q0 64 16.5 126t50 110.5t85.5 78t124 29.5q71 0 123 -29.5t86 -78t50.5 -110.5t16.5 -126zM441 333q0 46 -7 86t-23 69t-40.5 46t-60.5 17t-61 -17
t-41 -46t-23 -69t-7 -86t7 -86t23 -69.5t41 -46.5t61 -17t60.5 17t40.5 46.5t23 69.5t7 86z" />
    <glyph glyph-name="one" unicode="1" horiz-adv-x="411" 
d="M345 64q0 -29 -21 -49.5t-51 -20.5q-29 0 -49.5 20.5t-20.5 49.5v420l-75 -77q-16 -16 -39 -16t-41 17t-18 42q0 24 18 42l154 156q24 24 60 24q34 0 58.5 -23.5t24.5 -57.5v-527v0z" />
    <glyph glyph-name="two" unicode="2" horiz-adv-x="600" 
d="M555 64q0 -27 -18 -45.5t-43 -18.5h-386q-26 0 -46.5 19.5t-20.5 49.5q0 17 8 33t22 27q93 69 156.5 119t101.5 88t54.5 68.5t16.5 59.5q0 22 -9 38t-24 27t-34.5 16.5t-40.5 5.5q-40 0 -74 -10.5t-63 -30.5q-19 -13 -41 -13q-25 0 -43.5 18.5t-18.5 45.5q0 15 9 29
q12 19 37.5 35t57 27.5t66.5 18t67 6.5q53 0 99.5 -14.5t81 -42t54.5 -67t20 -89.5q0 -43 -17.5 -83.5t-51 -81.5t-83.5 -84t-115 -90h217q25 0 43 -18t18 -43z" />
    <glyph glyph-name="three" unicode="3" horiz-adv-x="587" 
d="M546 184q0 -43 -18.5 -79t-53 -62t-83 -40.5t-108.5 -14.5q-36 0 -73.5 6.5t-70.5 18t-58.5 27.5t-37.5 36q-8 13 -8 27q0 27 20 45t45 18q19 0 35 -10q33 -20 70.5 -31t72.5 -11q61 0 93.5 23.5t32.5 61.5q0 20 -8 34.5t-24.5 24t-41.5 14t-60 4.5q-20 -3 -36 0.5
t-28 11.5t-18.5 21t-6.5 30q0 26 18 44t47 18q33 -2 60 1.5t46.5 12t30 22.5t10.5 35q0 20 -9.5 35t-26 24.5t-39.5 14.5t-49 5q-35 0 -67.5 -9.5t-61.5 -28.5q-14 -10 -34 -10q-23 0 -42.5 17t-19.5 43t21 43q42 33 96 52t123 19q58 0 105 -12.5t79.5 -36t50 -57
t17.5 -75.5q0 -32 -12.5 -57.5t-33 -45t-46.5 -32t-54 -17.5q25 -3 53 -14t50.5 -31t37.5 -49t15 -66z" />
    <glyph glyph-name="four" unicode="4" horiz-adv-x="597" 
d="M578 200q0 -26 -18 -44t-43 -18h-31v-74q0 -29 -21 -49.5t-51 -20.5q-29 0 -49.5 20.5t-20.5 49.5v74h-251q-30 0 -51.5 22t-21.5 56q0 26 13 46l223 352q17 27 47 43t62 16q23 4 44.5 0.5t38.5 -13.5t27.5 -27t10.5 -40v-330h31q25 0 43 -18.5t18 -44.5zM344 263v278
l-180 -278h180z" />
    <glyph glyph-name="five" unicode="5" horiz-adv-x="608" 
d="M573 219q0 -53 -19 -96t-54 -73t-84.5 -46t-109.5 -16q-33 0 -68.5 5.5t-68 15.5t-57.5 25t-37 35q-8 14 -8 29q0 28 21 46t47 18q18 0 37 -11q29 -18 63 -27.5t70 -9.5q30 0 53 8t38.5 21.5t24 31.5t8.5 38q0 22 -8 40.5t-23.5 31.5t-38 20t-50.5 7q-31 0 -58 -7
t-54 -25q-25 -17 -55 -17q-33 0 -52.5 19.5t-19.5 48.5v256q0 33 23.5 56.5t56.5 23.5h323q25 0 43 -18.5t18 -44.5t-18 -44t-43 -18h-261v-163q24 24 62.5 40t84.5 16q42 0 81 -15t68.5 -42.5t47 -67.5t17.5 -91z" />
    <glyph glyph-name="six" unicode="6" horiz-adv-x="608" 
d="M577 217q0 -49 -18.5 -91t-52 -72.5t-80.5 -48t-104 -17.5q-76 0 -130.5 27.5t-89.5 74t-51.5 109t-16.5 133.5q0 76 21 139t60.5 109t97.5 71.5t132 25.5q24 0 51 -3.5t51 -11.5t43.5 -20t28.5 -28q7 -14 7 -27q0 -29 -21 -45.5t-44 -16.5q-16 0 -29 7q-19 10 -40 14.5
t-47 4.5q-37 0 -67.5 -14.5t-52.5 -40t-34.5 -60t-12.5 -74.5v-7t1 -7q12 17 29.5 32.5t40 27.5t48.5 19t53 7q45 0 86 -14t72.5 -41.5t50 -68t18.5 -93.5zM433 212q0 26 -10.5 45t-27.5 31t-39.5 18t-46.5 6q-38 0 -72 -16.5t-58 -46.5q2 -24 10.5 -48t24.5 -43.5
t40.5 -31.5t59.5 -12q29 0 51 8.5t37 22.5t23 31.5t8 35.5z" />
    <glyph glyph-name="seven" unicode="7" horiz-adv-x="545" 
d="M531 595q0 -16 -6 -28l-232 -530q-8 -20 -26.5 -31.5t-40.5 -11.5q-32 0 -51.5 21.5t-19.5 48.5q0 13 6 27l199 451h-280q-26 0 -44 18.5t-18 45.5q0 25 18 43t44 18h382q26 0 47.5 -20t21.5 -52z" />
    <glyph glyph-name="eight" unicode="8" horiz-adv-x="606" 
d="M571 173q0 -47 -22 -81.5t-59.5 -57.5t-86 -34.5t-100.5 -11.5q-53 0 -101 11.5t-85.5 34.5t-59.5 57.5t-22 81.5q0 30 11 57t30.5 48.5t45.5 38t56 27.5q-28 10 -52 24t-42 33t-28 44t-10 56q0 47 22.5 80.5t59.5 54.5t82.5 31t92.5 10q46 0 92 -10t82.5 -31t59.5 -54.5
t23 -80.5q0 -31 -10.5 -56t-28.5 -44t-42 -33t-52 -24q30 -11 56 -27.5t45.5 -38t31 -48.5t11.5 -57zM415 479q0 18 -8.5 32t-23.5 24t-35.5 15t-44.5 5q-25 0 -45.5 -5t-35.5 -15t-23.5 -24t-8.5 -32q0 -19 12 -32.5t29 -23.5t37 -15.5t35 -7.5q15 2 34.5 7.5t37 15.5
t29 23.5t11.5 32.5zM427 191q0 21 -13.5 36.5t-33 26.5t-41 17.5t-36.5 8.5q-16 -2 -37 -8.5t-40.5 -17.5t-33 -26.5t-13.5 -36.5q0 -18 9.5 -33t26 -25.5t39.5 -16.5t49 -6q25 0 48 6t39.5 16.5t26.5 25.5t10 33z" />
    <glyph glyph-name="nine" unicode="9" horiz-adv-x="608" 
d="M573 334q0 -76 -21 -139.5t-60.5 -109t-97.5 -71t-132 -25.5q-24 0 -51 3.5t-51 11t-43.5 19.5t-28.5 28q-8 14 -8 28t6 25.5t15.5 19.5t21 12.5t23.5 4.5q16 0 29 -7q19 -10 40 -14.5t47 -4.5q37 0 67.5 14.5t52.5 40t34.5 60t12.5 74.5v7t-1 7q-12 -17 -29.5 -32.5
t-40 -27.5t-48.5 -19t-53 -7q-45 0 -86 14t-72.5 41.5t-50 68t-18.5 93.5q0 49 18.5 90.5t52 72.5t80.5 48.5t104 17.5q76 0 130.5 -27.5t89.5 -74t51.5 -109.5t16.5 -133zM428 417q-2 24 -10.5 48t-24.5 43.5t-40.5 31.5t-59.5 12q-29 0 -51 -8.5t-37 -22.5t-23 -31.5
t-8 -35.5q0 -26 10.5 -45t27.5 -31t39.5 -18t46.5 -6q38 0 72 16.5t58 46.5z" />
    <glyph glyph-name="colon" unicode=":" horiz-adv-x="251" 
d="M209 409q0 -33 -24 -57t-57 -24t-57 24t-24 57t24 57t57 24t57 -24t24 -57zM209 70q0 -33 -24 -57t-57 -24t-57 24t-24 57t24 57t57 24t57 -24t24 -57z" />
    <glyph glyph-name="semicolon" unicode=";" horiz-adv-x="256" 
d="M209 409q0 -16 -6.5 -30.5t-17.5 -26t-26 -18t-31 -6.5q-17 0 -31.5 6.5t-25.5 18t-17.5 26t-6.5 30.5q0 33 24 57t57 24t57 -24t24 -57zM215 49q0 -48 -21.5 -91.5t-59.5 -77.5q-10 -10 -26 -10q-13 0 -25.5 8.5t-12.5 23.5q0 13 10 22q20 16 34.5 37t19.5 41
q-2 -1 -8 -2t-11 -1q-29 0 -48.5 20t-19.5 52q0 33 23 56.5t55 23.5q18 0 34 -7t28.5 -20t20 -32t7.5 -43z" />
    <glyph glyph-name="less" unicode="&#x3c;" horiz-adv-x="504" 
d="M480 153q0 -20 -13.5 -31t-28.5 -11q-9 0 -16 3l-361 161q-17 8 -27.5 24.5t-10.5 36.5q0 18 10.5 34t27.5 24l361 162q7 3 16 3q16 0 29 -11.5t13 -31.5q0 -12 -6.5 -23t-18.5 -16l-335 -143l335 -142q12 -5 18.5 -15.5t6.5 -23.5z" />
    <glyph glyph-name="equal" unicode="=" horiz-adv-x="504" 
d="M481 429q0 -17 -11.5 -29t-27.5 -12h-380q-16 0 -27.5 12t-11.5 29q0 16 11.5 27.5t27.5 11.5h380q16 0 27.5 -11.5t11.5 -27.5zM481 241q0 -17 -11 -28.5t-27 -11.5h-382q-16 0 -27 11.5t-11 28.5q0 16 11 27t27 11h382q16 0 27 -11t11 -27z" />
    <glyph glyph-name="greater" unicode="&#x3e;" horiz-adv-x="504" 
d="M481 336q0 -20 -10.5 -36.5t-27.5 -24.5l-361 -161q-8 -3 -16 -3q-16 0 -29 11.5t-13 30.5q0 13 6.5 23.5t18.5 15.5l335 142l-335 143q-13 5 -19.5 16t-6.5 23q-1 20 12.5 31.5t30.5 11.5q8 0 16 -3l361 -162q17 -8 27.5 -24t10.5 -34z" />
    <glyph glyph-name="question" unicode="?" horiz-adv-x="456" 
d="M436 519q0 -37 -12.5 -63t-31 -45.5t-40 -35t-40 -30t-31 -30t-12.5 -36.5q0 -10 1.5 -14.5t1.5 -12.5q0 -19 -14 -36t-42 -17q-14 0 -27 6t-23 17.5t-15.5 29t-5.5 40.5q0 30 11 51.5t27 38.5t35 30t35 25.5t27 26t11 30.5q0 23 -18 40t-60 17q-23 0 -43.5 -7t-38.5 -19
t-42 -12t-41.5 15.5t-17.5 42.5q0 15 6 27q10 20 32.5 35t50 24.5t56.5 14.5t53 5q48 0 86.5 -11.5t65.5 -32.5t41.5 -50t14.5 -64zM307 70q0 -33 -24 -57t-57 -24t-57 24t-24 57t24 57t57 24t57 -24t24 -57z" />
    <glyph glyph-name="at" unicode="@" horiz-adv-x="783" 
d="M747 332q0 -63 -18.5 -109.5t-47.5 -77t-64 -45.5t-68 -15q-45 0 -68.5 23t-28.5 54q-27 -35 -65.5 -56t-79.5 -21q-36 0 -65 12.5t-49 35t-30.5 53.5t-10.5 67q0 50 19 94.5t50.5 78t72 53t84.5 19.5q45 0 77 -19t48 -48l3 14q4 19 19.5 31.5t35.5 12.5q24 0 39.5 -16
t15.5 -37v-6t-1 -5l-39 -185q-1 -5 -2 -12t-1 -12q0 -23 10.5 -34t26.5 -11q15 0 31.5 9t30.5 28.5t23 50t9 73.5q0 59 -19.5 108t-55.5 84.5t-87 55t-114 19.5q-71 0 -135 -29t-113 -77.5t-77.5 -112.5t-28.5 -134q0 -59 21.5 -109.5t59 -88t89 -59t112.5 -21.5
q47 0 88.5 12t79.5 34q3 2 9 2q7 0 13.5 -5t6.5 -13q0 -9 -8 -14q-44 -26 -93 -40t-100 -14q-68 0 -126 24t-100.5 66.5t-66.5 100t-24 123.5q0 80 33 151.5t87.5 125.5t126.5 85.5t150 31.5q72 0 130 -24.5t99 -66.5t63.5 -97.5t22.5 -117.5zM487 357q-4 8 -11 17t-17 16.5
t-23.5 12.5t-29.5 5q-30 0 -55.5 -12.5t-43.5 -32.5t-28.5 -46.5t-10.5 -53.5q0 -39 22.5 -63.5t60.5 -24.5q20 0 36.5 6t30.5 15.5t25 21t19 22.5z" />
    <glyph glyph-name="A" unicode="A" horiz-adv-x="684" 
d="M656 70q0 -28 -20.5 -52t-55.5 -24q-23 0 -42 12.5t-27 34.5l-26 72h-286l-27 -72q-8 -22 -27.5 -34.5t-42.5 -12.5q-34 0 -54.5 23.5t-20.5 52.5q0 16 5 27l195 501q13 34 43.5 54.5t65.5 20.5q38 3 72.5 -17.5t48.5 -57.5l194 -501q5 -15 5 -27zM446 238l-104 287
l-104 -287h208z" />
    <glyph glyph-name="B" unicode="B" horiz-adv-x="663" 
d="M622 180q0 -38 -12.5 -70.5t-37 -57t-60.5 -38.5t-84 -14h-282q-33 0 -56.5 23.5t-23.5 56.5v507q0 33 23.5 56.5t56.5 23.5h271q48 0 84 -14t60 -37.5t36 -54.5t12 -64q0 -32 -9 -58t-25 -45.5t-36.5 -32t-44.5 -17.5q27 -4 50 -18.5t40.5 -36t27.5 -50t10 -59.5z
M464 472q0 32 -21 52.5t-57 20.5h-178v-145h178q36 0 57 20t21 52zM477 200q0 16 -5.5 30t-16.5 24.5t-27 17t-37 6.5h-183v-155h183q41 0 63.5 20.5t22.5 56.5z" />
    <glyph glyph-name="C" unicode="C" horiz-adv-x="687" 
d="M389 678q86 0 145.5 -32t97.5 -78q14 -17 14 -39q0 -27 -20 -45.5t-48 -18.5q-14 0 -27.5 6t-24.5 17q-29 30 -64 47t-73 17q-45 0 -83.5 -16.5t-66.5 -46t-43.5 -69.5t-15.5 -87t15.5 -87.5t43.5 -69.5t66.5 -45.5t83.5 -16.5q38 0 73.5 16t63.5 47q11 11 25 17t29 6
q27 0 46 -18t19 -44q0 -11 -3 -21t-11 -18q-38 -46 -97 -78.5t-145 -32.5q-75 0 -140 25t-112.5 70.5t-75 109t-27.5 140.5t27.5 140.5t75 109t112.5 70.5t140 25z" />
    <glyph glyph-name="D" unicode="D" horiz-adv-x="718" 
d="M683 333q0 -75 -26 -136.5t-72.5 -105t-112 -67.5t-143.5 -24h-183q-33 0 -56.5 23.5t-23.5 56.5v507q0 33 23.5 56.5t56.5 23.5h183q78 0 143.5 -24t112 -67.5t72.5 -105.5t26 -137zM538 333q0 44 -13.5 82.5t-39.5 66.5t-65.5 44t-90.5 16h-121v-417h121q49 0 88 16.5
t66 45t41 66.5t14 80z" />
    <glyph glyph-name="E" unicode="E" horiz-adv-x="583" 
d="M544 64q0 -27 -18 -45.5t-43 -18.5h-337q-33 0 -56.5 23.5t-23.5 56.5v507q0 33 23.5 56.5t56.5 23.5h337q25 0 43 -18.5t18 -44.5t-18 -44t-43 -18h-275v-141h268q25 0 43 -18.5t18 -44.5t-18 -44t-43 -18h-268v-151h275q25 0 43 -18t18 -43z" />
    <glyph glyph-name="F" unicode="F" horiz-adv-x="571" 
d="M544 604q0 -26 -18 -44t-43 -18h-275v-141h268q25 0 43 -18.5t18 -44.5t-18 -44t-43 -18h-268v-212q0 -29 -21 -49.5t-51 -20.5q-29 0 -49.5 20.5t-20.5 49.5v523q0 33 23.5 56.5t56.5 23.5h337q25 0 43 -18.5t18 -44.5z" />
    <glyph glyph-name="G" unicode="G" horiz-adv-x="720" 
d="M673 176q0 -45 -25.5 -80.5t-66 -59.5t-91 -36.5t-101.5 -12.5q-73 0 -137.5 24.5t-113 69.5t-76.5 109t-28 143t28 143t76.5 109t113 69t137.5 24q81 0 139.5 -28t97.5 -70q8 -9 12.5 -20.5t4.5 -22.5q0 -26 -20.5 -45t-46.5 -19q-28 0 -48 20q-29 28 -65 43.5t-74 15.5
q-45 0 -83.5 -16.5t-66.5 -46t-43.5 -69.5t-15.5 -87t15.5 -87.5t43.5 -69.5t66.5 -45.5t83.5 -16.5q22 0 43 4.5t40 11.5t34 16.5t25 18.5v80h-121q-26 0 -43.5 18t-17.5 45q0 26 17.5 43.5t43.5 17.5h183q33 0 56.5 -23.5t23.5 -56.5v-113v0z" />
    <glyph glyph-name="H" unicode="H" horiz-adv-x="731" 
d="M666 65q0 -29 -21 -50t-51 -21q-29 0 -50 21t-21 50v215h-315v-216q0 -29 -21 -49.5t-51 -20.5q-29 0 -49.5 20.5t-20.5 49.5v539q0 29 21 49.5t51 20.5q29 0 49.5 -20.5t20.5 -49.5v-198h315v198q0 29 21 49.5t52 20.5q29 0 49.5 -20.5t20.5 -49.5v-538v0z" />
    <glyph glyph-name="I" unicode="I" horiz-adv-x="274" 
d="M208 64q0 -29 -21 -49.5t-51 -20.5q-29 0 -49.5 20.5t-20.5 49.5v539q0 29 21 49.5t51 20.5q29 0 49.5 -20.5t20.5 -49.5v-539v0z" />
    <glyph glyph-name="J" unicode="J" horiz-adv-x="486" 
d="M420 219q0 -59 -17.5 -102.5t-48.5 -72t-74.5 -42.5t-94.5 -14q-19 0 -42.5 2.5t-46 9.5t-41.5 17.5t-29 27.5q-8 13 -8 29q0 27 19.5 45t44.5 18q8 0 17 -3q17 -5 35.5 -12.5t39.5 -7.5q48 0 76 29t28 78v382q0 29 21 49.5t51 20.5q29 0 49.5 -20.5t20.5 -49.5v-384v0z
" />
    <glyph glyph-name="K" unicode="K" horiz-adv-x="636" 
d="M569 63q0 -26 -20 -47.5t-49 -21.5q-16 0 -30 6.5t-24 20.5l-186 246l-52 -62v-141q0 -29 -21 -49.5t-51 -20.5q-29 0 -49.5 20.5t-20.5 49.5v539q0 29 21 49.5t51 20.5q29 0 49.5 -20.5t20.5 -49.5v-234l220 278q9 12 23 18t28 6q27 0 47.5 -19t20.5 -46q0 -24 -15 -42
l-178 -210l201 -251q14 -19 14 -40z" />
    <glyph glyph-name="L" unicode="L" horiz-adv-x="523" 
d="M496 64q0 -27 -18 -45.5t-43 -18.5h-289q-33 0 -56.5 23.5t-23.5 56.5v523q0 29 21 49.5t51 20.5q29 0 49.5 -20.5t20.5 -49.5v-478h227q25 0 43 -18t18 -43z" />
    <glyph glyph-name="M" unicode="M" horiz-adv-x="855" 
d="M789 65q0 -29 -21 -50t-51 -21q-29 0 -50 21t-21 50v402l-180 -447q-5 -11 -15.5 -18.5t-24.5 -7.5q-13 0 -23 7.5t-15 18.5l-180 447v-403q0 -29 -21 -49.5t-51 -20.5q-29 0 -49.5 20.5t-20.5 49.5v523q0 33 23.5 56.5t56.5 23.5q49 5 88 -8t57 -57l136 -338l136 338
q12 29 38 47t59 18q24 4 47 1t41.5 -12.5t29.5 -26.5t11 -42v-522v0z" />
    <glyph glyph-name="N" unicode="N" horiz-adv-x="729" 
d="M663 80q0 -17 -6.5 -32.5t-18.5 -27.5t-28 -19t-35 -7q-20 0 -39 9.5t-32 26.5l-296 405v-371q0 -29 -21 -49.5t-51 -20.5q-29 0 -49.5 20.5t-20.5 49.5v518q0 18 7 34t19.5 29t29.5 20.5t37 7.5q23 0 43.5 -10t34.5 -29l284 -386v355q0 29 21 49.5t51 20.5
q29 0 49.5 -20.5t20.5 -49.5v-523v0z" />
    <glyph glyph-name="O" unicode="O" horiz-adv-x="765" 
d="M731 333q0 -75 -26 -138.5t-72.5 -109.5t-110.5 -71.5t-140 -25.5q-75 0 -139 25.5t-110.5 71.5t-72.5 109.5t-26 138.5t26 138.5t72.5 109.5t110.5 71.5t139 25.5q76 0 140 -25.5t110.5 -71.5t72.5 -109.5t26 -138.5zM585 333q0 47 -14.5 87t-41 69.5t-64 46t-83.5 16.5
t-83.5 -16.5t-63.5 -46t-40.5 -69.5t-14.5 -87t14.5 -87t40.5 -69t63.5 -46t83.5 -17t83.5 17t64 46t41 69t14.5 87z" />
    <glyph glyph-name="P" unicode="P" horiz-adv-x="624" 
d="M602 452q0 -44 -15 -83t-43.5 -68t-70 -46.5t-95.5 -17.5h-170v-173q0 -29 -21 -49.5t-51 -20.5q-29 0 -49.5 20.5t-20.5 49.5v523q0 33 23.5 56.5t56.5 23.5h232q54 0 96 -17t70.5 -46.5t43 -68.5t14.5 -83zM457 452q0 42 -28 66t-70 24h-151v-180h151q42 0 70 24t28 66
z" />
    <glyph glyph-name="Q" unicode="Q" horiz-adv-x="765" 
d="M731 333q0 -71 -22.5 -131t-64.5 -105l12 -14q14 -17 14 -40q0 -24 -18 -44t-46 -20q-29 0 -49 23l-17 19q-35 -16 -74.5 -24.5t-83.5 -8.5q-75 0 -139 25.5t-110.5 71.5t-72.5 109.5t-26 138.5t26 138.5t72.5 109.5t110.5 71.5t139 25.5q76 0 140 -25.5t110.5 -71.5
t72.5 -109.5t26 -138.5zM585 333q0 47 -14.5 87t-41 69.5t-64 46t-83.5 16.5t-83.5 -16.5t-63.5 -46t-40.5 -69.5t-14.5 -87t14.5 -87t40.5 -69t63.5 -46t83.5 -17q35 0 70 11l-37 43q-8 8 -11 18t-3 21q0 24 18 44t46 20q29 0 48 -22l38 -44q17 27 25.5 59.5t8.5 68.5z" />
    <glyph glyph-name="R" unicode="R" horiz-adv-x="643" 
d="M602 452q0 -44 -12.5 -78t-33.5 -58.5t-47 -40t-53 -21.5l92 -156q9 -17 9 -34q0 -26 -19 -48t-51 -22q-19 0 -35 9.5t-26 26.5l-114 207h-104v-173q0 -29 -21 -49.5t-51 -20.5q-29 0 -49.5 20.5t-20.5 49.5v523q0 33 23.5 56.5t56.5 23.5h232q52 0 93.5 -16t70.5 -45
t44.5 -68.5t15.5 -85.5zM357 542h-149v-180h149q43 0 71.5 24t28.5 66t-28.5 66t-71.5 24z" />
    <glyph glyph-name="S" unicode="S" horiz-adv-x="600" 
d="M570 202q0 -46 -16.5 -85t-49.5 -67.5t-83.5 -45t-117.5 -16.5q-36 0 -75 6t-74.5 17t-63 27t-41.5 37q-11 16 -11 34q0 29 20.5 47.5t46.5 18.5q10 0 20 -2.5t18 -8.5q34 -23 76 -37.5t91 -14.5q29 0 51 6t36.5 16.5t21.5 24t7 27.5q0 22 -16.5 36t-43.5 23.5t-61.5 17
t-70.5 17.5t-70.5 24t-61.5 36t-43.5 54.5t-16.5 79.5q0 42 17.5 78.5t50 64.5t79.5 44t106 16q28 0 62.5 -4.5t66.5 -14t59 -23.5t41 -32q12 -15 12 -34q0 -29 -22.5 -46.5t-48.5 -17.5q-19 0 -36 10q-35 20 -72.5 29t-74.5 9q-46 0 -70.5 -18.5t-24.5 -48.5
q0 -20 16.5 -32.5t43.5 -21.5t61.5 -16.5t70 -17.5t70 -24.5t61.5 -37t43.5 -55t16.5 -79.5z" />
    <glyph glyph-name="T" unicode="T" horiz-adv-x="582" 
d="M563 604q0 -26 -18 -44t-43 -18h-139v-477q0 -29 -21 -50t-51 -21q-29 0 -50 21t-21 50v477h-139q-26 0 -44 18.5t-18 45.5q0 25 18 43t44 18h421q25 0 43 -18.5t18 -44.5z" />
    <glyph glyph-name="U" unicode="U" horiz-adv-x="733" 
d="M668 267q0 -62 -18.5 -113.5t-56 -88.5t-94 -57t-132.5 -20t-132.5 20.5t-94 57t-56 87.5t-18.5 113v336q0 29 21 50t52 21q29 0 50 -21t21 -50v-331q0 -70 39.5 -113.5t117.5 -43.5t117 43.5t39 113.5v331q0 29 21 50t53 21q29 0 50 -21t21 -50v-335v0z" />
    <glyph glyph-name="V" unicode="V" horiz-adv-x="684" 
d="M657 599q0 -13 -5 -26l-194 -504q-13 -34 -43.5 -54.5t-65.5 -20.5h-14q-35 0 -65.5 20.5t-43.5 54.5l-195 504q-5 10 -5 26q0 27 20.5 50.5t54.5 23.5q23 0 43 -13t28 -36l170 -470l169 470q8 22 27.5 35.5t42.5 13.5q34 0 55 -22.5t21 -51.5z" />
    <glyph glyph-name="W" unicode="W" horiz-adv-x="918" 
d="M897 605q0 -11 -3 -20l-149 -521q-9 -31 -34.5 -50.5t-57.5 -19.5h-2q-33 0 -58 19.5t-33 50.5l-101 394l-100 -394q-8 -31 -33.5 -50.5t-56.5 -19.5h-2q-32 0 -58 19.5t-35 50.5l-150 522q-3 9 -3 19q0 29 21 51.5t55 22.5q26 0 46.5 -16t27.5 -42l106 -436l114 436
q6 23 25 37.5t45 14.5q23 0 41.5 -14.5t24.5 -37.5l114 -436l104 435q6 26 27.5 42.5t48.5 16.5q34 0 55 -22.5t21 -51.5z" />
    <glyph glyph-name="X" unicode="X" horiz-adv-x="668" 
d="M611 63q0 -12 -4.5 -24t-13.5 -22t-22 -16.5t-29 -6.5q-17 0 -32 8t-25 22l-151 220l-152 -221q-10 -14 -24.5 -21.5t-31.5 -7.5q-27 0 -48 18.5t-21 49.5q0 11 3 20.5t9 18.5l170 241l-158 226q-11 15 -11 36q0 26 18.5 47t50.5 21q37 0 59 -31l136 -202l134 201
q21 32 59 32q29 0 50 -20t21 -47q0 -22 -12 -38l-157 -224l170 -241q12 -18 12 -39z" />
    <glyph glyph-name="Y" unicode="Y" horiz-adv-x="645" 
d="M597 607q0 -19 -10 -35l-193 -299v-209q0 -29 -21 -49.5t-51 -20.5q-29 0 -49.5 20.5t-20.5 49.5v209l-195 300q-10 14 -10 34q0 24 19 44.5t49 20.5q17 0 32.5 -8t25.5 -24l150 -241l147 240q10 16 25.5 24.5t33.5 8.5q31 0 49.5 -20t18.5 -45z" />
    <glyph glyph-name="Z" unicode="Z" horiz-adv-x="592" 
d="M556 64q0 -27 -18 -45.5t-43 -18.5h-381q-30 0 -54 22.5t-24 57.5q0 26 15 47l306 415h-259q-26 0 -44 18.5t-18 45.5q0 25 18 43t44 18h377q29 0 51 -22t22 -56q0 -29 -17 -52l-303 -412h267q25 0 43 -18t18 -43z" />
    <glyph glyph-name="bracketleft" unicode="[" horiz-adv-x="280" 
d="M269 -147q0 -18 -12 -30.5t-29 -12.5h-101q-33 0 -56.5 23.5t-23.5 56.5v708q0 33 23.5 56.5t56.5 23.5h101q17 0 29 -12.5t12 -30.5q0 -17 -12 -29.5t-29 -12.5h-90v-698h90q17 0 29 -12.5t12 -29.5z" />
    <glyph glyph-name="backslash" unicode="\" horiz-adv-x="329" 
d="M314 16q0 -16 -12 -29t-32 -13q-14 0 -25.5 8t-16.5 22l-211 633q-2 3 -2 6.5v6.5q0 17 12 30t32 13q14 0 25.5 -8t16.5 -22l211 -633q1 -4 1.5 -7t0.5 -7z" />
    <glyph glyph-name="bracketright" unicode="]" horiz-adv-x="280" 
d="M233 -110q0 -33 -23.5 -56.5t-56.5 -23.5h-100q-17 0 -29.5 12.5t-12.5 30.5q0 17 12.5 29.5t29.5 12.5h89v698h-89q-17 0 -29.5 12.5t-12.5 31.5q0 17 12.5 29t29.5 12h100q33 0 56.5 -23.5t23.5 -56.5v-708v0z" />
    <glyph glyph-name="asciicircum" unicode="^" horiz-adv-x="441" 
d="M401 369q0 -15 -11.5 -28.5t-31.5 -13.5q-12 0 -23 6.5t-16 18.5l-99 228l-98 -228q-5 -12 -16 -18.5t-23 -6.5q-19 0 -31 12t-12 29q0 9 4 17l116 249q8 18 25 28.5t38 10.5q19 0 35.5 -11t24.5 -28l115 -249q3 -8 3 -16z" />
    <glyph glyph-name="underscore" unicode="_" horiz-adv-x="564" 
d="M573 -82q0 -18 -12 -30.5t-29 -12.5h-499q-17 0 -29.5 12.5t-12.5 30.5q0 17 12.5 29.5t29.5 12.5h499q17 0 29 -12.5t12 -29.5z" />
    <glyph glyph-name="grave" unicode="`" horiz-adv-x="251" 
d="M214 583q0 -13 -9.5 -23t-23.5 -10q-11 0 -21 8l-93 82q-12 10 -12 27q0 15 11.5 27t27.5 12t28 -12l83 -89q9 -9 9 -22z" />
    <glyph glyph-name="a" unicode="a" horiz-adv-x="543" 
d="M480 57q0 -26 -18 -44.5t-44 -18.5h-5h-5v0q-23 0 -39 16.5t-16 39.5q-25 -29 -65 -45.5t-88 -16.5q-29 0 -59 10t-54 29.5t-39.5 49.5t-15.5 71q0 42 15.5 72t39.5 48.5t54 27t59 8.5q48 0 88.5 -15t64.5 -44v65q0 37 -29 59t-77 22q-29 0 -56 -7t-52 -24q-12 -7 -23 -7
q-17 0 -32.5 13t-15.5 36q0 13 7 25q11 18 35 31t52.5 21t57 12t49.5 4q41 0 79 -9t67.5 -30.5t47 -56.5t17.5 -87v-255zM353 116v60q-16 21 -43.5 31.5t-58.5 10.5q-38 0 -64.5 -19t-26.5 -54q0 -34 26.5 -52.5t64.5 -18.5q31 0 58.5 10.5t43.5 31.5z" />
    <glyph glyph-name="b" unicode="b" horiz-adv-x="586" 
d="M553 241q0 -60 -16.5 -107.5t-45 -79.5t-67.5 -49t-85 -17q-44 0 -82 19t-67 55v-5q0 -26 -18.5 -44.5t-45.5 -18.5q-26 0 -44.5 18.5t-18.5 44.5v554q0 26 18.5 44t46.5 18q26 0 44 -18t18 -44v-190q29 37 67.5 55.5t81.5 18.5q46 0 85.5 -17.5t68 -50.5t44.5 -80
t16 -106zM422 241q0 31 -9 57t-25 45t-38.5 29t-50.5 10q-31 0 -62 -16t-47 -40v-171q16 -23 47 -38.5t62 -15.5q28 0 50.5 10t38.5 28.5t25 44t9 57.5z" />
    <glyph glyph-name="c" unicode="c" horiz-adv-x="499" 
d="M461 77q0 -11 -5 -22t-15 -19q-26 -21 -64 -34.5t-89 -13.5q-56 0 -103 18.5t-81 52.5t-53 80.5t-19 102.5q0 55 19 101.5t53 80.5t81 52.5t103 18.5q28 0 54.5 -5t48.5 -13.5t38.5 -20.5t24.5 -27q6 -11 6 -23q0 -26 -19.5 -40t-40.5 -14q-19 0 -35 10t-34 15t-37 5
q-29 0 -53 -10t-41.5 -28.5t-27 -44.5t-9.5 -57q0 -32 9.5 -57.5t27 -44.5t41.5 -29t53 -10q39 0 72 21q16 10 34 10q23 0 42 -15t19 -40z" />
    <glyph glyph-name="d" unicode="d" horiz-adv-x="586" 
d="M523 57q0 -26 -18.5 -44.5t-46.5 -18.5q-26 0 -44.5 18.5t-18.5 44.5v5q-29 -36 -67 -55t-82 -19q-46 0 -85 17t-67.5 49t-45 79.5t-16.5 107.5q0 59 16 106t44.5 80t68 50.5t85.5 17.5q43 0 81.5 -18.5t67.5 -55.5v189q0 26 18.5 44.5t46.5 18.5q26 0 44.5 -18.5
t18.5 -44.5v-553zM395 156v171q-16 24 -47 39.5t-63 15.5q-27 0 -49.5 -10t-38.5 -29t-25 -45t-9 -57t9 -57t25 -44.5t38.5 -28.5t49.5 -10q32 0 63 15.5t47 39.5z" />
    <glyph glyph-name="e" unicode="e" horiz-adv-x="553" 
d="M522 259q0 -23 -17 -40.5t-42 -17.5h-298q3 -23 13.5 -43.5t28 -35.5t42 -24t55.5 -9q20 0 45.5 6t48.5 18q12 6 25 6q20 0 37 -14t17 -37q0 -25 -22 -38q-36 -22 -78.5 -32t-86.5 -10q-55 0 -102.5 18t-82 51t-54 80t-19.5 105q0 52 18.5 98.5t51.5 80.5t79 54t101 20
q41 0 76.5 -11.5t64.5 -32.5t50.5 -51.5t34.5 -67.5q5 -17 9.5 -36t4.5 -37zM401 287q-1 17 -8 36t-21 34.5t-36.5 26t-53.5 10.5q-30 0 -51.5 -10t-35.5 -25.5t-22 -34.5t-10 -37h238z" />
    <glyph glyph-name="f" unicode="f" horiz-adv-x="327" 
d="M368 618q0 -24 -14 -36t-29 -12q-11 0 -20 3.5t-26 3.5q-26 0 -43 -17t-17 -51v-26h50q22 0 38 -16.5t16 -39.5t-16 -39t-38 -16h-50v-315q0 -26 -18.5 -44.5t-46.5 -18.5q-26 0 -44.5 18.5t-18.5 44.5v315h-31q-23 0 -39 16.5t-16 40.5q0 22 16 38t39 16h31v26
q0 78 45 123t118 45q26 0 47 -4.5t36 -12.5t23 -18.5t8 -23.5z" />
    <glyph glyph-name="g" unicode="g" horiz-adv-x="585" 
d="M522 33q0 -69 -24 -113.5t-62 -70t-84 -35.5t-91 -10q-22 0 -50 3t-55 10t-49 18.5t-33 28.5q-8 13 -8 28q0 23 16 38t37 15q14 0 27 -7q26 -16 54.5 -23t60.5 -7q23 0 46.5 5.5t43 19.5t31.5 37.5t12 59.5v49q-29 -36 -66.5 -56t-82.5 -20t-84 16t-67.5 47t-45 77
t-16.5 106q0 59 16 105t44.5 77.5t67.5 47.5t85 16q44 0 82 -18.5t67 -55.5v5q0 26 18.5 44.5t46.5 18.5q26 0 44.5 -18.5t18.5 -44.5v-393zM394 171v156q-8 12 -20 22t-26.5 17.5t-30.5 11.5t-32 4q-27 0 -49.5 -9t-38.5 -26.5t-25 -42t-9 -55.5t9 -55.5t25 -42t38.5 -26.5
t49.5 -9q16 0 32 4t30.5 11.5t26.5 17.5t20 22z" />
    <glyph glyph-name="h" unicode="h" horiz-adv-x="580" 
d="M517 57q0 -26 -18.5 -44.5t-45.5 -18.5q-26 0 -44.5 18.5t-18.5 44.5v237q0 25 -6.5 42t-18 27t-28 14.5t-37.5 4.5q-18 0 -34.5 -5t-30.5 -13t-25.5 -18t-19.5 -21v-268q0 -26 -18.5 -44.5t-45.5 -18.5q-26 0 -44.5 18.5t-18.5 44.5v554q0 26 18.5 44t46.5 18
q26 0 44 -18t18 -44v-191q12 14 28.5 27.5t38.5 24t47.5 17t55.5 6.5q80 0 118.5 -40.5t38.5 -111.5v-286v0z" />
    <glyph glyph-name="i" unicode="i" horiz-adv-x="253" 
d="M126 686q32 0 54 -21.5t22 -53.5t-22 -54t-54 -22q-31 0 -53.5 22t-22.5 54t22.5 53.5t53.5 21.5zM190 57q0 -26 -18.5 -44.5t-45.5 -18.5q-26 0 -44.5 18.5t-18.5 44.5v370q0 26 18.5 44t46.5 18q26 0 44 -18t18 -44v-370z" />
    <glyph glyph-name="j" unicode="j" horiz-adv-x="253" 
d="M126 686q32 0 54 -21.5t22 -53.5t-22 -54t-54 -22q-31 0 -53.5 22t-22.5 54t22.5 53.5t53.5 21.5zM190 -13q0 -83 -42.5 -133t-129.5 -50q-27 0 -48.5 3t-36 10t-22 18.5t-7.5 27.5q0 22 15 36.5t35 14.5q11 0 18.5 -3t24.5 -3q29 0 47.5 19t18.5 60v440q0 26 18.5 44
t46.5 18q26 0 44 -18t18 -44v-440z" />
    <glyph glyph-name="k" unicode="k" horiz-adv-x="535" 
d="M477 58q0 -23 -17.5 -43.5t-45.5 -20.5q-15 0 -29.5 6.5t-23.5 20.5l-113 165l-58 -62v-67q0 -26 -18.5 -44.5t-45.5 -18.5q-26 0 -44.5 18.5t-18.5 44.5v554q0 26 18.5 44t46.5 18q26 0 44 -18t18 -44v-343l171 202q17 20 43 20q24 0 42 -18t18 -42q0 -21 -14 -38
l-112 -128l127 -170q12 -17 12 -36z" />
    <glyph glyph-name="l" unicode="l" horiz-adv-x="253" 
d="M190 57q0 -26 -18.5 -44.5t-45.5 -18.5q-26 0 -44.5 18.5t-18.5 44.5v554q0 26 18.5 44t46.5 18q26 0 44 -18t18 -44v-554v0z" />
    <glyph glyph-name="m" unicode="m" horiz-adv-x="852" 
d="M790 57q0 -26 -18.5 -44.5t-46.5 -18.5q-26 0 -44.5 18.5t-18.5 44.5v248q0 34 -16.5 55.5t-55.5 21.5q-34 0 -60 -18t-40 -38v-269q0 -26 -18.5 -44.5t-46.5 -18.5q-26 0 -44.5 18.5t-18.5 44.5v248q0 34 -16.5 55.5t-55.5 21.5q-33 0 -59.5 -18.5t-40.5 -38.5v-268
q0 -26 -18.5 -44.5t-45.5 -18.5q-26 0 -44.5 18.5t-18.5 44.5v370q0 26 18.5 44t46.5 18q26 0 44 -18t18 -44v-7q7 11 22.5 24t36.5 24.5t46 19t53 7.5q54 0 87 -23t47 -65q10 16 27 32t38.5 28.5t47 20t53.5 7.5q67 0 104.5 -35.5t37.5 -110.5v-292v0z" />
    <glyph glyph-name="n" unicode="n" 
d="M516 57q0 -26 -18.5 -44.5t-45.5 -18.5q-26 0 -44.5 18.5t-18.5 44.5v235q0 51 -24 70.5t-65 19.5q-19 0 -35.5 -5t-30.5 -13t-25 -18t-19 -21v-268q0 -26 -18.5 -44.5t-45.5 -18.5q-26 0 -44.5 18.5t-18.5 44.5v370q0 26 18.5 44t46.5 18q26 0 44 -18t18 -44v-7
q12 14 28.5 27.5t38 24t47 17t55.5 6.5q80 0 118.5 -41.5t38.5 -112.5v-284v0z" />
    <glyph glyph-name="o" unicode="o" horiz-adv-x="574" 
d="M543 242q0 -52 -17.5 -98t-50.5 -80.5t-80.5 -55t-107.5 -20.5t-107 20.5t-80 55t-50.5 80.5t-17.5 98q0 51 17.5 97t50.5 80.5t80 55t107 20.5t107.5 -20.5t80.5 -55t50.5 -80.5t17.5 -97zM411 242q0 28 -8.5 53.5t-24 44.5t-38.5 30.5t-53 11.5t-52.5 -11.5
t-38.5 -30.5t-24 -44.5t-8 -53.5q0 -29 8 -54.5t24 -44.5t38.5 -30.5t52.5 -11.5t53 11.5t38.5 30.5t24 44.5t8.5 54.5z" />
    <glyph glyph-name="p" unicode="p" horiz-adv-x="583" 
d="M553 242q0 -60 -16 -107.5t-44.5 -80t-68 -49.5t-85.5 -17q-43 0 -81.5 18t-67.5 56v-190q0 -26 -18.5 -44t-45.5 -18q-26 0 -44.5 18t-18.5 44v555q0 26 18.5 44t46.5 18q26 0 44 -18t18 -44v-5q28 35 66 54t83 19q46 0 85.5 -17t68 -49t44.5 -79.5t16 -107.5zM421 242
q0 31 -9 57t-25 44.5t-38.5 28.5t-49.5 10q-31 0 -62 -16t-47 -39v-171q16 -23 47 -39t62 -16q27 0 49.5 10t38.5 29t25 44.5t9 57.5z" />
    <glyph glyph-name="q" unicode="q" horiz-adv-x="583" 
d="M521 -127q0 -26 -18.5 -44.5t-46.5 -18.5q-26 0 -44.5 18.5t-18.5 44.5v189q-29 -38 -67.5 -56t-81.5 -18q-47 0 -86 17t-67.5 49.5t-44.5 80t-16 107.5t16 107.5t44.5 79.5t67.5 49t86 17q45 0 83 -19t66 -54v4q0 26 18.5 44.5t46.5 18.5q26 0 44.5 -18.5t18.5 -44.5
v-553zM393 156v171q-8 12 -20 22t-27 17.5t-31 11.5t-31 4q-27 0 -49.5 -10t-38.5 -28.5t-25 -44.5t-9 -57q0 -32 9 -57.5t25 -44.5t38.5 -29t49.5 -10q15 0 31 4.5t31 12t27 17.5t20 21z" />
    <glyph glyph-name="r" unicode="r" horiz-adv-x="360" 
d="M350 435q0 -29 -17.5 -45t-43.5 -20q-29 -4 -55.5 -16t-43.5 -35v-262q0 -26 -18 -44.5t-44 -18.5h-2q-26 0 -44.5 18.5t-18.5 44.5v370q0 26 18.5 44t46.5 18q26 0 44 -18t18 -44v-10q9 12 19.5 24.5t23.5 22.5t28 16.5t33 6.5q28 0 42 -15t14 -37z" />
    <glyph glyph-name="s" unicode="s" horiz-adv-x="477" 
d="M446 143q0 -33 -14 -61.5t-40.5 -49t-65.5 -32.5t-89 -12q-24 0 -53 4t-56.5 12t-50.5 20t-34 28q-9 12 -9 27q0 23 16.5 38t36.5 15q15 0 26 -7q29 -17 63.5 -28t66.5 -11q42 0 61.5 14.5t19.5 37.5q0 20 -21.5 30t-53 16.5t-69 14.5t-69 24t-53 44t-21.5 76
q0 30 13 57.5t38.5 48.5t62 33.5t84.5 12.5q24 0 50.5 -3.5t51 -11t44.5 -18.5t30 -26q8 -11 8 -25q0 -20 -15 -34t-35 -14q-14 0 -24 6q-23 14 -51.5 21.5t-57.5 7.5q-35 0 -55.5 -14t-20.5 -34q0 -18 21 -27t53 -15.5t69 -15t69 -25.5t53 -46t21 -78z" />
    <glyph glyph-name="t" unicode="t" horiz-adv-x="338" 
d="M327 46q0 -12 -4.5 -22.5t-15.5 -18.5t-31 -12.5t-51 -4.5q-67 0 -102 33.5t-35 98.5v252h-31q-23 0 -39 16.5t-16 40.5q0 22 16 38t39 16h31v75q0 26 18.5 44.5t46.5 18.5q26 0 44.5 -18.5t18.5 -44.5v-75h50q22 0 38 -16.5t16 -39.5t-16 -39t-38 -16h-50v-218
q0 -29 14.5 -41t29.5 -12h5.5h5.5q27 0 41.5 -16t14.5 -39z" />
    <glyph glyph-name="u" unicode="u" 
d="M516 57q0 -26 -18.5 -44.5t-45.5 -18.5q-26 0 -44.5 18.5t-18.5 44.5v4q-25 -28 -67.5 -50.5t-102.5 -22.5q-80 0 -118 40.5t-38 111.5v287q0 26 18.5 44t46.5 18q26 0 44 -18t18 -44v-237q0 -25 6.5 -42t18 -27.5t28 -15t36.5 -4.5q37 0 65 17t45 38v271q0 26 18.5 44
t46.5 18q26 0 44 -18t18 -44v-370v0z" />
    <glyph glyph-name="v" unicode="v" horiz-adv-x="513" 
d="M491 425q0 -13 -4 -22l-141 -349q-11 -27 -35 -43.5t-53 -16.5h-2q-29 0 -53.5 16.5t-35.5 43.5l-141 349q-5 12 -5 23q0 23 18 42.5t47 19.5q19 0 34.5 -10.5t22.5 -28.5l113 -302l113 301q7 19 23 29.5t35 10.5q29 0 46.5 -19.5t17.5 -43.5z" />
    <glyph glyph-name="w" unicode="w" horiz-adv-x="769" 
d="M750 428q0 -9 -3 -18l-108 -354q-8 -27 -31.5 -44.5t-51.5 -17.5h-2q-29 0 -52.5 17t-31.5 45l-85 273l-85 -273q-8 -27 -31.5 -44.5t-52.5 -17.5h-2q-29 0 -52.5 17.5t-31.5 44.5l-108 354q-3 9 -3 18q0 23 17.5 42t46.5 19q20 0 37.5 -12.5t22.5 -32.5l79 -286l91 280
q8 23 27.5 37t45.5 14q23 0 42.5 -14t27.5 -37l91 -280l79 286q5 20 22.5 32.5t38.5 12.5q28 0 45.5 -18.5t17.5 -42.5z" />
    <glyph glyph-name="x" unicode="x" horiz-adv-x="504" 
d="M455 52q0 -21 -15.5 -39.5t-42.5 -18.5q-14 0 -27 6t-21 19l-97 144l-99 -145q-17 -24 -46 -24q-24 0 -41.5 17.5t-17.5 40.5q0 18 10 32l113 164l-103 151q-10 14 -10 32q0 21 16.5 39t42.5 18q31 0 49 -26l86 -128l84 127q8 13 21.5 20t28.5 7q26 0 42.5 -17.5
t16.5 -39.5q0 -18 -10 -32l-104 -151l114 -164q10 -14 10 -32z" />
    <glyph glyph-name="y" unicode="y" horiz-adv-x="513" 
d="M491 427q0 -14 -4 -23l-195 -483q-26 -63 -69 -90t-97 -27q-17 0 -31 4t-24.5 11.5t-16.5 18t-6 23.5q0 23 16.5 39.5t43.5 16.5h8t8 1q16 3 28.5 11t19.5 23l18 41l-165 412q-4 9 -4 21q0 23 17.5 43t46.5 20q19 0 35 -11t24 -31l112 -300l112 300q7 19 24 30.5t37 11.5
q29 0 45.5 -19.5t16.5 -42.5z" />
    <glyph glyph-name="z" unicode="z" horiz-adv-x="479" 
d="M442 57q0 -24 -16 -40.5t-38 -16.5h-289q-25 0 -44 18.5t-19 46.5q0 11 3.5 21t10.5 19l210 267h-169q-23 0 -39 16.5t-16 40.5q0 22 16 38t39 16h285q23 0 42 -17.5t19 -44.5q0 -24 -13 -40l-213 -270h177q22 0 38 -16t16 -38z" />
    <glyph glyph-name="braceleft" unicode="{" horiz-adv-x="288" 
d="M277 -148q0 -17 -11.5 -29.5t-37.5 -12.5h-18q-30 0 -58 11t-49.5 31.5t-34.5 50t-13 66.5v172q0 18 -5 34t-19 24q-17 11 -25.5 19.5t-8.5 25.5t8.5 25.5t25.5 19.5q14 8 19 24t5 34v171q0 37 13 66.5t34.5 50.5t49.5 32t58 11h18q26 0 37.5 -12.5t11.5 -29.5
q0 -18 -11.5 -30.5t-37.5 -12.5h-18q-26 0 -44 -20t-18 -54v-185q0 -32 -10.5 -55.5t-35.5 -34.5q25 -11 35.5 -34.5t10.5 -55.5v-184q0 -34 18 -54.5t44 -20.5h18q26 0 37.5 -12.5t11.5 -30.5z" />
    <glyph glyph-name="bar" unicode="|" horiz-adv-x="216" 
d="M151 16q0 -17 -12.5 -29.5t-30.5 -12.5q-17 0 -29.5 12.5t-12.5 29.5v636q0 17 12.5 29t31.5 12q17 0 29 -12t12 -29v-636v0z" />
    <glyph glyph-name="braceright" unicode="}" horiz-adv-x="288" 
d="M291 244q0 -17 -8.5 -25.5t-25.5 -19.5q-14 -8 -19 -24t-5 -34v-172q0 -37 -13 -66.5t-34.5 -50t-49.5 -31.5t-58 -11h-18q-26 0 -37.5 12.5t-11.5 29.5q0 18 11.5 30.5t37.5 12.5h18q26 0 44 20.5t18 54.5v184q0 32 10.5 55.5t35.5 34.5q-25 11 -35.5 34.5t-10.5 55.5
v185q0 34 -18 54t-44 20h-18q-26 0 -37.5 12.5t-11.5 30.5q0 17 11.5 29.5t37.5 12.5h18q30 0 58 -11t49.5 -32t34.5 -50.5t13 -66.5v-171q0 -18 5 -34t19 -24q17 -11 25.5 -19.5t8.5 -25.5z" />
    <glyph glyph-name="asciitilde" unicode="~" horiz-adv-x="510" 
d="M480 615q-5 -40 -14 -76.5t-25.5 -64.5t-42.5 -45t-63 -17q-33 0 -53 13t-33 32.5t-20.5 42.5t-14.5 42.5t-15.5 32.5t-23.5 13q-12 0 -21.5 -11t-16.5 -29.5t-12 -42.5t-8 -50q-2 -17 -14 -27.5t-29 -10.5q-23 0 -33.5 14.5t-10.5 33.5q5 39 14.5 75.5t26.5 64t42 44.5
t62 17q32 0 52.5 -13t33.5 -33t20.5 -42.5t14.5 -42.5t15.5 -33t23.5 -13q13 0 22.5 11t16.5 29.5t12 43.5t8 52q2 16 14 26.5t29 10.5q21 0 32 -14t11 -33z" />
    <glyph glyph-name="uni00A0" unicode="&#xa0;" horiz-adv-x="256" 
 />
    <glyph glyph-name="exclamdown" unicode="&#xa1;" horiz-adv-x="256" 
d="M207 414q0 -33 -23.5 -57t-56.5 -24t-57 24t-24 57q0 16 6.5 30.5t17.5 25.5t25.5 17.5t31.5 6.5q16 0 31 -6.5t25.5 -17.5t17 -25.5t6.5 -30.5zM201 -116q0 -31 -21.5 -52t-53.5 -21q-31 0 -51.5 21t-20.5 52q0 5 1 24t2 47t2.5 62t3.5 69.5t3.5 69.5t2.5 62
q1 23 17.5 39t41.5 16q23 0 39.5 -16t17.5 -39q1 -28 3 -62t3.5 -69.5t3.5 -69.5t3 -62t2 -47t1 -24z" />
    <glyph glyph-name="cent" unicode="&#xa2;" horiz-adv-x="499" 
d="M461 77q0 -10 -5 -22q-13 -25 -48.5 -41.5t-74.5 -22.5v-46q0 -19 -13 -32t-32 -13q-20 0 -33.5 13t-13.5 32v47q-47 7 -85 28.5t-66 54t-43 75t-15 92.5q0 49 15 91.5t43 75t66 54t85 28.5v29q0 19 13.5 32t33.5 13q19 0 32 -13t13 -32v-28q41 -6 75.5 -23t46.5 -42
q5 -12 5 -21q0 -26 -19.5 -40t-40.5 -14q-5 0 -8.5 0.5t-7.5 1.5q-14 5 -25.5 11.5t-25.5 10.5v-269q13 4 25 11t26 11q7 3 16 3q23 0 42 -15t19 -40zM241 111v261q-36 -15 -57 -48.5t-21 -81.5t21 -82t57 -49z" />
    <glyph glyph-name="sterling" unicode="&#xa3;" horiz-adv-x="550" 
d="M524 60q0 -20 -10.5 -34t-28.5 -22.5t-42 -12.5t-52 -4q-33 0 -56.5 7t-43.5 15t-39 15t-42 7q-17 0 -38 -5.5t-43 -15.5q-6 -3 -12.5 -4t-12.5 -1q-23 0 -38 15.5t-15 37.5q0 14 7 27t22 23q35 23 55 50.5t20 56.5q0 14 -3.5 27.5t-8.5 26.5h-86q-17 0 -28.5 12
t-11.5 30q0 16 11.5 27.5t28.5 11.5h34q-9 13 -17.5 26.5t-15 28t-10 31t-3.5 34.5q0 48 21 86t55.5 65t78 41.5t88.5 14.5q34 0 66.5 -6t60 -17t47.5 -27t28 -35q2 -5 3 -10.5t1 -11.5q0 -28 -18.5 -44t-43.5 -16q-14 0 -25 4q-16 6 -28 14.5t-23 15.5t-23 12t-28 5
q-22 0 -41 -6.5t-33.5 -19t-22.5 -30t-8 -38.5q0 -19 4.5 -34.5t11.5 -29.5t15.5 -27t17.5 -26h111q16 0 27.5 -12t11.5 -29t-11.5 -28.5t-27.5 -11.5h-80q0 -5 0.5 -9.5t0.5 -9.5q0 -35 -18.5 -64.5t-45.5 -46.5q11 4 24.5 5.5t24.5 1.5q22 0 38 -5t30.5 -11.5t29 -11.5
t33.5 -5q8 0 16 1.5t16 3.5t15.5 3.5t15.5 1.5q24 0 44 -17t20 -46z" />
    <glyph glyph-name="currency" unicode="&#xa4;" horiz-adv-x="623" 
d="M582 116q0 -20 -15.5 -36.5t-38.5 -16.5q-22 0 -37 15l-43 42q-29 -17 -63 -25.5t-74 -8.5q-41 0 -75 9t-63 26l-41 -42q-8 -8 -18 -11.5t-20 -3.5q-20 0 -36.5 15t-16.5 37t15 37l41 41q-20 30 -30 65.5t-10 73.5t10 73.5t30 65.5l-42 43q-15 15 -15 36q0 20 15 36.5
t38 16.5t38 -15l44 -44q28 16 62 25t74 9t73.5 -9t62.5 -25l44 44q15 15 37 15q21 0 37.5 -15t16.5 -38q0 -22 -15 -37l-41 -41q20 -30 30.5 -66t10.5 -74q0 -39 -11 -75t-31 -66l41 -40q16 -16 16 -36zM439 333q0 27 -8.5 51t-24.5 42t-40 28.5t-55 10.5q-30 0 -54 -10.5
t-40 -28.5t-24.5 -42t-8.5 -51t8.5 -51t24.5 -42.5t40 -29t54 -10.5q31 0 55 10.5t40 29t24.5 42.5t8.5 51z" />
    <glyph glyph-name="yen" unicode="&#xa5;" horiz-adv-x="645" 
d="M629 153q0 -16 -11 -27t-27 -11h-197v-51q0 -29 -21 -49.5t-51 -20.5q-29 0 -49.5 20.5t-20.5 49.5v51h-196q-16 0 -27 11.5t-11 28.5q0 16 11 27t27 11h196v80h-195q-17 0 -28 11.5t-11 29.5q0 16 11 27t28 11h143l-143 221q-10 14 -10 34q0 23 18.5 44t48.5 21
q17 0 33 -8.5t26 -23.5l150 -241l147 240q10 16 25.5 24.5t33.5 8.5q31 0 49.5 -20t18.5 -45q0 -19 -10 -35l-142 -220h146q16 0 27 -11.5t11 -28.5t-11 -28t-27 -11h-197v-80h197q16 0 27 -11.5t11 -28.5z" />
    <glyph glyph-name="brokenbar" unicode="&#xa6;" horiz-adv-x="216" 
d="M151 407q0 -17 -12.5 -29.5t-30.5 -12.5q-17 0 -29.5 12.5t-12.5 29.5v245q0 17 12.5 29t31.5 12q17 0 29 -12t12 -29v-245zM151 16q0 -17 -12.5 -29.5t-30.5 -12.5q-17 0 -29.5 12.5t-12.5 29.5v245q0 17 12.5 29t31.5 12q17 0 29 -12t12 -29v-245z" />
    <glyph glyph-name="section" unicode="&#xa7;" horiz-adv-x="484" 
d="M446 75q0 -37 -15.5 -66t-43.5 -49t-66.5 -30.5t-83.5 -10.5q-28 0 -57.5 4.5t-55.5 13t-47 20.5t-32 27q-10 11 -10 26q0 20 14 34.5t32 14.5q16 0 27 -8q26 -18 60 -31t69 -13q39 0 63 14.5t24 43.5q0 24 -21.5 36t-53 20.5t-69 17t-69 25t-53 43.5t-21.5 74
q0 25 9 45.5t23 36.5t31.5 26.5t34.5 16.5q-48 18 -73 49.5t-25 76.5q0 31 14.5 57.5t40.5 46t62.5 30.5t80.5 11q35 0 68 -6t59 -16.5t41.5 -25t15.5 -32.5q0 -20 -13.5 -33t-32.5 -13q-14 0 -24 7q-25 15 -53 22.5t-56 7.5q-37 0 -58.5 -14t-21.5 -40q0 -21 21 -31.5
t53 -18t69 -15.5t69 -24t53 -44t21 -75q0 -42 -21 -75t-62 -53q36 -16 59.5 -44.5t23.5 -78.5zM321 302q0 16 -7 28t-18.5 20.5t-26.5 14t-31 9.5q-46 -11 -62 -30t-16 -44q0 -18 9 -29.5t23.5 -20t33 -13.5t37.5 -9q29 13 43.5 30.5t14.5 43.5z" />
    <glyph glyph-name="dieresis" unicode="&#xa8;" horiz-adv-x="295" 
d="M321 611q0 -29 -20 -48.5t-48 -19.5t-48 19.5t-20 48.5q0 28 20 47.5t48 19.5t48 -19.5t20 -47.5zM109 611q0 -29 -19.5 -48.5t-47.5 -19.5q-29 0 -48.5 19.5t-19.5 48.5q0 28 19.5 47.5t48.5 19.5q28 0 47.5 -19.5t19.5 -47.5z" />
    <glyph glyph-name="copyright" unicode="&#xa9;" horiz-adv-x="778" 
d="M734 334q0 -71 -27 -134t-74 -110t-109.5 -74t-134.5 -27q-71 0 -134 27t-110 74t-74 110t-27 134q0 72 27 134.5t74 109.5t110 74t134 27q72 0 134.5 -27t109.5 -74t74 -109.5t27 -134.5zM698 334q0 64 -24.5 120t-66.5 98t-98 66.5t-120 24.5q-63 0 -119.5 -24.5
t-98.5 -66.5t-66.5 -98t-24.5 -120q0 -63 24.5 -119.5t66.5 -98.5t98.5 -66.5t119.5 -24.5q64 0 120 24.5t98 66.5t66.5 98.5t24.5 119.5zM535 190q0 -8 -6 -14q-26 -25 -60 -39t-75 -14q-43 0 -81 16t-66 44.5t-44.5 67t-16.5 84.5t16.5 84.5t44.5 66.5t66 43.5t81 15.5
q41 0 74.5 -13.5t59.5 -37.5q6 -6 6 -14t-6 -15t-16 -7q-9 0 -15 6q-20 19 -47 30t-56 11q-33 0 -62.5 -12.5t-51.5 -35t-35 -53.5t-13 -69q0 -37 13 -68.5t35 -54.5t51.5 -36t62.5 -13q30 0 57.5 11t47.5 31q4 6 14 6q9 0 15.5 -6t6.5 -15z" />
    <glyph glyph-name="ordfeminine" unicode="&#xaa;" horiz-adv-x="385" 
d="M335 365q0 -19 -13 -32t-32 -13q-17 -3 -32 8t-15 29v1q-14 -15 -39 -27.5t-63 -12.5q-20 0 -39.5 6.5t-35.5 19.5t-25.5 32.5t-9.5 45.5t9.5 45t25.5 31.5t35.5 18.5t39.5 6q38 0 63 -11.5t39 -26.5v40q0 25 -19 39.5t-50 14.5q-17 0 -35.5 -6.5t-35.5 -17.5
q-8 -5 -16 -5q-12 0 -23.5 9.5t-11.5 25.5q0 9 5 17q8 12 24.5 21t36 14.5t39 8t33.5 2.5q28 0 54 -6t46 -20t32.5 -38.5t12.5 -60.5v-158zM243 404v36q-10 13 -27.5 20t-36.5 7q-23 0 -40 -11.5t-17 -33.5q0 -23 17 -35t40 -12q19 0 36.5 7.5t27.5 21.5z" />
    <glyph glyph-name="guillemotleft" unicode="&#xab;" horiz-adv-x="527" 
d="M447 102q0 -16 -11.5 -30.5t-31.5 -14.5q-19 0 -31 14l-100 112q-11 13 -16.5 28t-5.5 31t6 31.5t17 28.5l99 110q12 13 30 13q17 0 30.5 -12t13.5 -31q0 -17 -10 -28l-100 -111l100 -112q10 -11 10 -29zM257 102q0 -16 -11.5 -30.5t-31.5 -14.5q-19 0 -31 14l-100 112
q-22 25 -22 59t23 60l99 110q12 13 30 13q17 0 30.5 -12t13.5 -31q0 -17 -10 -28l-100 -111l100 -112q10 -11 10 -29z" />
    <glyph glyph-name="logicalnot" unicode="&#xac;" horiz-adv-x="515" 
d="M475 235q0 -17 -12 -28.5t-29 -11.5t-28.5 11.5t-11.5 28.5v153h-332q-16 0 -27.5 12t-11.5 29q0 16 11.5 27.5t27.5 11.5h333q33 0 56.5 -23.5t23.5 -56.5v-153v0z" />
    <glyph glyph-name="uni00AD" unicode="&#xad;" horiz-adv-x="300" 
d="M223 296q22 0 37.5 -15.5t15.5 -37.5q0 -23 -15.5 -39t-37.5 -16h-146q-22 0 -37.5 16t-15.5 39q0 22 15.5 37.5t37.5 15.5h146v0z" />
    <glyph glyph-name="registered" unicode="&#xae;" horiz-adv-x="494" 
d="M459 465q0 -44 -16.5 -82.5t-45 -67.5t-67.5 -45.5t-83 -16.5t-82.5 16.5t-67.5 45.5t-45.5 67.5t-16.5 82.5t16.5 83t45.5 67.5t67.5 45t82.5 16.5t83 -16.5t67.5 -45t45 -67.5t16.5 -83zM427 465q0 37 -14 70t-38.5 57.5t-57.5 38.5t-70 14q-38 0 -70.5 -14t-57 -38.5
t-38.5 -57.5t-14 -70t14 -70t38.5 -57.5t57 -38.5t70.5 -14q37 0 70 14t57.5 38.5t38.5 57.5t14 70zM344 512q0 -20 -7.5 -34t-18 -22.5t-21 -12t-15.5 -3.5l50 -73q4 -5 4 -12q0 -8 -5.5 -12.5t-12.5 -4.5q-10 0 -16 10l-60 91h-42v-86q0 -7 -5 -11.5t-13 -4.5
q-7 0 -11.5 4.5t-4.5 11.5v201q0 14 9.5 23t23.5 9h66q31 0 55 -20t24 -54zM309 512q0 20 -14 32t-30 12h-65v-86h65q16 0 30 11.5t14 30.5z" />
    <glyph glyph-name="macron" unicode="&#xaf;" horiz-adv-x="363" 
d="M363 599q0 -16 -10.5 -26.5t-24.5 -10.5h-293q-14 0 -24.5 10.5t-10.5 26.5q0 14 10.5 24.5t24.5 10.5h293q14 0 24.5 -10.5t10.5 -24.5z" />
    <glyph glyph-name="degree" unicode="&#xb0;" horiz-adv-x="311" 
d="M290 541q0 -28 -10.5 -52.5t-29 -42.5t-43 -28.5t-52.5 -10.5t-52.5 10.5t-43 28.5t-29 42.5t-10.5 52.5t10.5 53t29 43.5t43 29t52.5 10.5t52.5 -10.5t43 -29t29 -43.5t10.5 -53zM221 541q0 28 -19.5 47.5t-46.5 19.5q-28 0 -46.5 -19.5t-18.5 -47.5q0 -27 18.5 -46
t46.5 -19q27 0 46.5 19t19.5 46z" />
    <glyph glyph-name="plusminus" unicode="&#xb1;" horiz-adv-x="504" 
d="M481 366q0 -17 -11 -28.5t-27 -11.5h-147v-167q0 -18 -12.5 -30.5t-31.5 -12.5q-18 0 -30.5 12.5t-12.5 30.5v167h-148q-16 0 -27 11.5t-11 28.5q0 16 11 27t27 11h148v161q0 17 12.5 29.5t32.5 12.5q17 0 29.5 -12.5t12.5 -29.5v-161h147q16 0 27 -11t11 -27zM481 40
q0 -17 -11 -28.5t-27 -11.5h-382q-16 0 -27 11.5t-11 28.5q0 16 11 27t27 11h382q16 0 27 -11t11 -27z" />
    <glyph glyph-name="twosuperior" unicode="&#xb2;" horiz-adv-x="397" 
d="M366 461q0 -17 -11 -28.5t-26 -11.5h-251q-16 0 -27 11.5t-11 29.5q0 11 5 21t15 17q60 42 99.5 71.5t62 52t31.5 39t9 32.5q0 14 -5.5 24.5t-14.5 17t-21.5 10t-26.5 3.5q-23 0 -45 -7.5t-40 -20.5q-11 -8 -25 -8q-15 0 -26.5 10.5t-11.5 27.5q0 12 7 22q8 13 25.5 23
t38 17t42 10t37.5 3q34 0 63.5 -8t51.5 -24t34 -39.5t12 -53.5q0 -24 -10.5 -47.5t-32 -48t-54 -51t-75.5 -57.5h144q15 0 26 -11t11 -26z" />
    <glyph glyph-name="threesuperior" unicode="&#xb3;" horiz-adv-x="397" 
d="M363 532q0 -53 -45.5 -85.5t-120.5 -32.5q-26 0 -54 5t-51 14.5t-37.5 22.5t-14.5 30t12.5 28.5t28.5 11.5q11 0 22 -6q22 -15 46 -22t45 -7q35 0 54 13t19 34q0 29 -25 39t-63 10h-15q-14 0 -25 8.5t-11 28.5q0 19 11 28t25 9h14q40 0 61 9.5t21 35.5q0 23 -20.5 33.5
t-52.5 10.5q-21 0 -42.5 -6t-40.5 -20q-10 -7 -23 -7q-14 0 -24.5 10.5t-10.5 26.5q0 9 6 20q15 22 55 37.5t90 15.5q77 0 118 -30t41 -79q0 -18 -7.5 -33.5t-19.5 -27.5t-28 -19.5t-34 -10.5q15 -1 32 -7.5t31.5 -18.5t23.5 -29.5t9 -39.5z" />
    <glyph glyph-name="acute" unicode="&#xb4;" horiz-adv-x="251" 
d="M196 667q0 -17 -12 -27l-93 -82q-10 -8 -21 -8q-12 0 -22.5 9.5t-10.5 23.5q0 13 9 22l83 89q10 12 27 12q15 0 27.5 -11t12.5 -28z" />
    <glyph glyph-name="mu" unicode="&#xb5;" horiz-adv-x="593" 
d="M580 47q0 -26 -15 -43t-47 -17q-17 0 -35.5 4t-35.5 14t-31 27t-21 42q-21 -37 -56 -61.5t-79 -24.5q-27 0 -44.5 8.5t-25.5 19.5v-144q0 -26 -18.5 -44t-45.5 -18q-26 0 -44.5 18t-18.5 44v555q0 26 18.5 44t46.5 18q26 0 44 -18t18 -44v-237q0 -49 24 -69.5t66 -20.5
q18 0 34 5t30 12.5t25.5 17.5t19.5 21v271q0 26 18.5 44t46.5 18q26 0 44 -18t18 -44v-282q0 -20 10 -29.5t22 -17t22 -18.5t10 -33z" />
    <glyph glyph-name="paragraph" unicode="&#xb6;" horiz-adv-x="449" 
d="M403 -76q0 -12 -9 -21t-23 -9q-13 0 -22 9t-9 21v681h-78v-681q0 -12 -9 -21t-23 -9q-13 0 -22 9t-9 21v399q-36 0 -67 13.5t-54.5 37t-37 54.5t-13.5 67t13.5 67t37 54.5t54.5 37t67 13.5h142q26 0 44 -18t18 -44v-681v0z" />
    <glyph glyph-name="periodcentered" unicode="&#xb7;" horiz-adv-x="256" 
d="M209 244q0 -16 -6.5 -30.5t-17.5 -25.5t-26 -17.5t-31 -6.5q-17 0 -31.5 6.5t-25.5 17.5t-17.5 25.5t-6.5 30.5q0 33 24 57t57 24t57 -24t24 -57z" />
    <glyph glyph-name="cedilla" unicode="&#xb8;" horiz-adv-x="221" 
d="M221 -111q0 -40 -33 -62.5t-78 -22.5q-18 0 -36.5 3t-34.5 8.5t-26 14t-10 20.5t8.5 20t19.5 8q6 0 12 -3q16 -8 32.5 -12.5t30.5 -4.5q20 0 36 8t16 25q0 12 -7.5 19t-21.5 7q-12 0 -20 -6t-20 -6q-15 0 -24 10t-9 21q0 3 0.5 5.5t1.5 5.5l21 56q5 13 15 21t22 8
q10 0 17 -6t7 -16q0 -8 -3 -15l-19 -46q17 10 36 10q28 0 47.5 -19t19.5 -51z" />
    <glyph glyph-name="onesuperior" unicode="&#xb9;" horiz-adv-x="286" 
d="M226 463q0 -20 -14 -34t-35 -14q-20 0 -34 14t-14 34v235l-45 -46q-11 -11 -26 -11t-27.5 11.5t-12.5 28.5q0 16 12 28l102 101q8 8 18 12t21 4q23 0 39 -15t16 -37v-311v0z" />
    <glyph glyph-name="ordmasculine" unicode="&#xba;" horiz-adv-x="405" 
d="M375 483q0 -33 -12 -63t-34 -52.5t-54.5 -36t-72.5 -13.5t-71.5 13.5t-54 36t-34.5 52.5t-12 63t12 63t34.5 52.5t54 36t71.5 13.5t72.5 -13.5t54.5 -36t34 -52.5t12 -63zM280 483q0 42 -20.5 65.5t-57.5 23.5t-57 -23.5t-20 -65.5t20 -66.5t57 -24.5t57.5 24.5
t20.5 66.5z" />
    <glyph glyph-name="guillemotright" unicode="&#xbb;" horiz-adv-x="527" 
d="M466 242q0 -34 -22 -59l-100 -112q-12 -14 -31 -14q-17 0 -30.5 13t-13.5 32q0 17 11 29l100 112l-100 111q-10 11 -10 27q0 17 12 30.5t31 13.5t31 -13l99 -110q23 -26 23 -60zM276 242q0 -34 -22 -59l-100 -112q-12 -14 -31 -14q-17 0 -30.5 13t-13.5 32q0 17 11 29
l100 112l-100 111q-10 11 -10 27q0 17 12 30.5t31 13.5t31 -13l99 -110q11 -13 17 -28.5t6 -31.5z" />
    <glyph glyph-name="onequarter" unicode="&#xbc;" horiz-adv-x="833" 
d="M814 125q0 -17 -11 -28t-25 -11h-23v-45q0 -20 -14 -33.5t-34 -13.5t-33.5 13.5t-13.5 33.5v45h-163q-16 0 -27.5 12t-11.5 31q0 7 1.5 13t5.5 12l136 213q11 18 30 28.5t41 10.5q17 0 32 -6.5t26.5 -17t18 -25t6.5 -30.5v-166h23q14 0 25 -11t11 -25zM618 641
q0 -8 -5 -16l-394 -617q-9 -14 -26 -14q-14 0 -23.5 9t-9.5 22q0 9 5 17l394 617q9 14 26 14q13 0 23 -9.5t10 -22.5zM226 309q0 -20 -14 -34t-35 -14q-20 0 -34 14t-14 34v235l-45 -46q-11 -11 -26 -11t-27.5 11.5t-12.5 28.5q0 16 12 28l102 101q8 8 18 12t21 4
q23 0 39 -15t16 -37v-311zM660 161v158l-101 -158h101z" />
    <glyph glyph-name="onehalf" unicode="&#xbd;" horiz-adv-x="867" 
d="M835 40q0 -17 -11 -28.5t-26 -11.5h-251q-16 0 -27 11.5t-11 29.5q0 11 5 21t15 17q60 42 99.5 71.5t62 52t31.5 39t9 32.5q0 14 -5.5 24.5t-14.5 17t-21.5 10t-26.5 3.5q-23 0 -45 -7.5t-40 -20.5q-11 -8 -25 -8q-15 0 -26.5 10.5t-11.5 27.5q0 12 7 22q8 13 25.5 23
t38 17t42 10t37.5 3q34 0 63.5 -8t51.5 -24t34 -39.5t12 -53.5q0 -24 -10.5 -47.5t-32 -48t-54 -51t-75.5 -57.5h144q15 0 26 -11t11 -26zM618 641q0 -8 -5 -16l-394 -617q-9 -14 -26 -14q-14 0 -23.5 9t-9.5 22q0 9 5 17l394 617q9 14 26 14q13 0 23 -9.5t10 -22.5z
M226 309q0 -20 -14 -34t-35 -14q-20 0 -34 14t-14 34v235l-45 -46q-11 -11 -26 -11t-27.5 11.5t-12.5 28.5q0 16 12 28l102 101q8 8 18 12t21 4q23 0 39 -15t16 -37v-311z" />
    <glyph glyph-name="threequarters" unicode="&#xbe;" horiz-adv-x="921" 
d="M902 125q0 -17 -11 -28t-25 -11h-23v-45q0 -20 -14 -33.5t-34 -13.5t-33.5 13.5t-13.5 33.5v45h-163q-16 0 -27.5 12t-11.5 31q0 7 1.5 13t5.5 12l136 213q11 18 30 28.5t41 10.5q17 0 32 -6.5t26.5 -17t18 -25t6.5 -30.5v-166h23q14 0 25 -11t11 -25zM705 641
q0 -8 -5 -16l-394 -617q-9 -14 -26 -14q-14 0 -23.5 9t-9.5 22q0 9 5 17l394 617q9 14 26 14q13 0 23 -9.5t10 -22.5zM363 378q0 -53 -45.5 -85.5t-120.5 -32.5q-26 0 -54 5t-51 14.5t-37.5 22.5t-14.5 30t12.5 28.5t28.5 11.5q11 0 22 -6q22 -15 46 -22t45 -7q35 0 54 13
t19 34q0 29 -25 39t-63 10h-15q-14 0 -25 8.5t-11 28.5q0 19 11 28t25 9h14q40 0 61 9.5t21 35.5q0 23 -20.5 33.5t-52.5 10.5q-21 0 -42.5 -6t-40.5 -20q-10 -7 -23 -7q-14 0 -24.5 10.5t-10.5 26.5q0 9 6 20q15 22 55 37.5t90 15.5q77 0 118 -30t41 -79q0 -18 -7.5 -33.5
t-19.5 -27.5t-28 -19.5t-34 -10.5q15 -1 32 -7.5t31.5 -18.5t23.5 -29.5t9 -39.5zM748 161v158l-101 -158h101z" />
    <glyph glyph-name="questiondown" unicode="&#xbf;" horiz-adv-x="398" 
d="M311 413q0 -33 -24 -57t-57 -24t-57 24t-24 57t24 57t57 24t57 -24t24 -57zM426 -88q0 -15 -6 -27q-10 -20 -32.5 -35t-50 -24.5t-56.5 -14.5t-53 -5q-48 0 -86.5 11.5t-65.5 32.5t-41.5 50t-14.5 64q0 37 12.5 63t31 45.5t40 34.5t40 29.5t31 30.5t12.5 37
q0 10 -1.5 14.5t-1.5 11.5q0 20 14 37t42 17q14 0 27 -6t22.5 -17.5t15.5 -29t6 -40.5q0 -30 -11 -51.5t-27 -38.5t-35 -30t-35 -25.5t-27 -26t-11 -30.5q0 -23 18 -40t60 -17q23 0 43.5 7t38.5 19t42 12t41.5 -15.5t17.5 -42.5z" />
    <glyph glyph-name="Agrave" unicode="&#xc0;" horiz-adv-x="684" 
d="M656 70q0 -28 -20.5 -52t-55.5 -24q-23 0 -42 12.5t-27 34.5l-26 72h-286l-27 -72q-8 -22 -27.5 -34.5t-42.5 -12.5q-34 0 -54.5 23.5t-20.5 52.5q0 16 5 27l195 501q13 34 43.5 54.5t65.5 20.5q38 3 72.5 -17.5t48.5 -57.5l194 -501q5 -15 5 -27zM446 238l-104 287
l-104 -287h208zM369 750q0 -13 -9.5 -23t-23.5 -10q-11 0 -21 8l-93 82q-12 10 -12 27q0 15 11.5 27t27.5 12t28 -12l83 -89q9 -9 9 -22z" />
    <glyph glyph-name="Aacute" unicode="&#xc1;" horiz-adv-x="684" 
d="M656 70q0 -28 -20.5 -52t-55.5 -24q-23 0 -42 12.5t-27 34.5l-26 72h-286l-27 -72q-8 -22 -27.5 -34.5t-42.5 -12.5q-34 0 -54.5 23.5t-20.5 52.5q0 16 5 27l195 501q13 34 43.5 54.5t65.5 20.5q38 3 72.5 -17.5t48.5 -57.5l194 -501q5 -15 5 -27zM446 238l-104 287
l-104 -287h208zM475 834q0 -17 -12 -27l-93 -82q-10 -8 -21 -8q-12 0 -22.5 9.5t-10.5 23.5q0 13 9 22l83 89q10 12 27 12q15 0 27.5 -11t12.5 -28z" />
    <glyph glyph-name="Acircumflex" unicode="&#xc2;" horiz-adv-x="684" 
d="M656 70q0 -28 -20.5 -52t-55.5 -24q-23 0 -42 12.5t-27 34.5l-26 72h-286l-27 -72q-8 -22 -27.5 -34.5t-42.5 -12.5q-34 0 -54.5 23.5t-20.5 52.5q0 16 5 27l195 501q13 34 43.5 54.5t65.5 20.5q38 3 72.5 -17.5t48.5 -57.5l194 -501q5 -15 5 -27zM446 238l-104 287
l-104 -287h208zM469 750q0 -11 -9 -22.5t-25 -11.5t-25 13l-68 83l-67 -83q-11 -12 -25 -12t-24.5 9t-10.5 23q0 10 6 18l40 62q13 20 34.5 32t47.5 12q24 0 45 -12t35 -32l41 -62q5 -6 5 -17z" />
    <glyph glyph-name="Atilde" unicode="&#xc3;" horiz-adv-x="684" 
d="M656 70q0 -28 -20.5 -52t-55.5 -24q-23 0 -42 12.5t-27 34.5l-26 72h-286l-27 -72q-8 -22 -27.5 -34.5t-42.5 -12.5q-34 0 -54.5 23.5t-20.5 52.5q0 16 5 27l195 501q13 34 43.5 54.5t65.5 20.5q38 3 72.5 -17.5t48.5 -57.5l194 -501q5 -15 5 -27zM446 238l-104 287
l-104 -287h208zM504 829q0 -12 -4.5 -30.5t-16.5 -35.5t-32.5 -29.5t-51.5 -12.5q-26 0 -42 10.5t-28 23.5t-22.5 23.5t-24.5 10.5q-11 0 -19.5 -8t-13.5 -28q-3 -14 -14.5 -23t-25.5 -9q-13 0 -20.5 9.5t-7.5 22.5q0 12 4.5 30.5t16.5 35.5t32.5 29.5t52.5 12.5
q25 0 40.5 -10.5t27.5 -23t23 -23t25 -10.5q11 0 19.5 8t13.5 27q3 14 14 23t25 9t21.5 -9.5t7.5 -22.5z" />
    <glyph glyph-name="Adieresis" unicode="&#xc4;" horiz-adv-x="684" 
d="M656 70q0 -28 -20.5 -52t-55.5 -24q-23 0 -42 12.5t-27 34.5l-26 72h-286l-27 -72q-8 -22 -27.5 -34.5t-42.5 -12.5q-34 0 -54.5 23.5t-20.5 52.5q0 16 5 27l195 501q13 34 43.5 54.5t65.5 20.5q38 3 72.5 -17.5t48.5 -57.5l194 -501q5 -15 5 -27zM446 238l-104 287
l-104 -287h208zM516 778q0 -29 -20 -48.5t-48 -19.5t-48 19.5t-20 48.5q0 28 20 47.5t48 19.5t48 -19.5t20 -47.5zM304 778q0 -29 -19.5 -48.5t-47.5 -19.5q-29 0 -48.5 19.5t-19.5 48.5q0 28 19.5 47.5t48.5 19.5q28 0 47.5 -19.5t19.5 -47.5z" />
    <glyph glyph-name="Aring" unicode="&#xc5;" horiz-adv-x="684" 
d="M656 70q0 -28 -20.5 -52t-55.5 -24q-23 0 -42 12.5t-27 34.5l-26 72h-286l-27 -72q-8 -22 -27.5 -34.5t-42.5 -12.5q-34 0 -54.5 23.5t-20.5 52.5q0 16 5 27l195 501q13 34 43.5 54.5t65.5 20.5q38 3 72.5 -17.5t48.5 -57.5l194 -501q5 -15 5 -27zM446 238l-104 287
l-104 -287h208zM447 793q0 -22 -8 -41t-22 -33.5t-33 -22.5t-41 -8q-21 0 -40.5 8t-33.5 22.5t-22.5 33.5t-8.5 41q0 21 8.5 40.5t22.5 34t33.5 23t40.5 8.5q22 0 41 -8.5t33 -23t22 -34t8 -40.5zM389 793q0 20 -13 33.5t-33 13.5q-19 0 -33 -13.5t-14 -33.5q0 -19 14 -33
t33 -14q20 0 33 14t13 33z" />
    <glyph glyph-name="AE" unicode="&#xc6;" horiz-adv-x="968" 
d="M932 64q0 -27 -18 -45.5t-43 -18.5h-337q-33 0 -56.5 23.5t-23.5 56.5v33h-235l-51 -88q-9 -16 -24.5 -24t-32.5 -8q-30 0 -49.5 21.5t-19.5 48.5q0 20 10 37l303 499q20 32 53 50t69 18h394q25 0 43 -18.5t18 -44.5t-18 -44t-43 -18h-274v-141h267q25 0 43 -18.5
t18 -44.5t-18 -44t-43 -18h-267v-151h274q25 0 43 -18t18 -43zM454 238v287l-167 -287h167z" />
    <glyph glyph-name="Ccedilla" unicode="&#xc7;" horiz-adv-x="687" 
d="M389 678q86 0 145.5 -32t97.5 -78q14 -17 14 -39q0 -27 -20 -45.5t-48 -18.5q-14 0 -27.5 6t-24.5 17q-29 30 -64 47t-73 17q-45 0 -83.5 -16.5t-66.5 -46t-43.5 -69.5t-15.5 -87t15.5 -87.5t43.5 -69.5t66.5 -45.5t83.5 -16.5q38 0 73.5 16t63.5 47q11 11 25 17t29 6
q28 0 46.5 -18.5t18.5 -43.5q0 -11 -3 -21t-11 -18q-36 -44 -90.5 -75t-134.5 -35l-16 -40q17 10 36 10q28 0 47.5 -19t19.5 -51q0 -40 -33 -62.5t-78 -22.5q-18 0 -36.5 3t-34.5 8.5t-26 14t-10 20.5t8.5 20t19.5 8q6 0 12 -3q16 -8 32.5 -12.5t30.5 -4.5q20 0 36 8t16 25
q0 12 -7.5 19t-21.5 7q-12 0 -20 -6t-20 -6q-15 0 -24 10t-9 21q0 3 0.5 5.5t1.5 5.5l16 44q-67 7 -124 34.5t-99 72t-65.5 104.5t-23.5 131q0 77 27.5 140.5t75 109t112.5 70.5t140 25z" />
    <glyph glyph-name="Egrave" unicode="&#xc8;" horiz-adv-x="583" 
d="M544 64q0 -27 -18 -45.5t-43 -18.5h-337q-33 0 -56.5 23.5t-23.5 56.5v507q0 33 23.5 56.5t56.5 23.5h337q25 0 43 -18.5t18 -44.5t-18 -44t-43 -18h-275v-141h268q25 0 43 -18.5t18 -44.5t-18 -44t-43 -18h-268v-151h275q25 0 43 -18t18 -43zM327 750q0 -13 -9.5 -23
t-23.5 -10q-11 0 -21 8l-93 82q-12 10 -12 27q0 15 11.5 27t27.5 12t28 -12l83 -89q9 -9 9 -22z" />
    <glyph glyph-name="Eacute" unicode="&#xc9;" horiz-adv-x="583" 
d="M544 64q0 -27 -18 -45.5t-43 -18.5h-337q-33 0 -56.5 23.5t-23.5 56.5v507q0 33 23.5 56.5t56.5 23.5h337q25 0 43 -18.5t18 -44.5t-18 -44t-43 -18h-275v-141h268q25 0 43 -18.5t18 -44.5t-18 -44t-43 -18h-268v-151h275q25 0 43 -18t18 -43zM434 834q0 -17 -12 -27
l-93 -82q-10 -8 -21 -8q-12 0 -22.5 9.5t-10.5 23.5q0 13 9 22l83 89q10 12 27 12q15 0 27.5 -11t12.5 -28z" />
    <glyph glyph-name="Ecircumflex" unicode="&#xca;" horiz-adv-x="583" 
d="M544 64q0 -27 -18 -45.5t-43 -18.5h-337q-33 0 -56.5 23.5t-23.5 56.5v507q0 33 23.5 56.5t56.5 23.5h337q25 0 43 -18.5t18 -44.5t-18 -44t-43 -18h-275v-141h268q25 0 43 -18.5t18 -44.5t-18 -44t-43 -18h-268v-151h275q25 0 43 -18t18 -43zM428 750q0 -11 -9 -22.5
t-25 -11.5t-25 13l-68 83l-67 -83q-11 -12 -25 -12t-24.5 9t-10.5 23q0 10 6 18l40 62q13 20 34.5 32t47.5 12q24 0 45 -12t35 -32l41 -62q5 -6 5 -17z" />
    <glyph glyph-name="Edieresis" unicode="&#xcb;" horiz-adv-x="583" 
d="M544 64q0 -27 -18 -45.5t-43 -18.5h-337q-33 0 -56.5 23.5t-23.5 56.5v507q0 33 23.5 56.5t56.5 23.5h337q25 0 43 -18.5t18 -44.5t-18 -44t-43 -18h-275v-141h268q25 0 43 -18.5t18 -44.5t-18 -44t-43 -18h-268v-151h275q25 0 43 -18t18 -43zM476 778q0 -29 -20 -48.5
t-48 -19.5t-48 19.5t-20 48.5q0 28 20 47.5t48 19.5t48 -19.5t20 -47.5zM264 778q0 -29 -19.5 -48.5t-47.5 -19.5q-29 0 -48.5 19.5t-19.5 48.5q0 28 19.5 47.5t48.5 19.5q28 0 47.5 -19.5t19.5 -47.5z" />
    <glyph glyph-name="Igrave" unicode="&#xcc;" horiz-adv-x="274" 
d="M208 64q0 -29 -21 -49.5t-51 -20.5q-29 0 -49.5 20.5t-20.5 49.5v539q0 29 21 49.5t51 20.5q29 0 49.5 -20.5t20.5 -49.5v-539v0zM165 750q0 -13 -9.5 -23t-23.5 -10q-11 0 -21 8l-93 82q-12 10 -12 27q0 15 11.5 27t27.5 12t28 -12l83 -89q9 -9 9 -22z" />
    <glyph glyph-name="Iacute" unicode="&#xcd;" horiz-adv-x="274" 
d="M208 64q0 -29 -21 -49.5t-51 -20.5q-29 0 -49.5 20.5t-20.5 49.5v539q0 29 21 49.5t51 20.5q29 0 49.5 -20.5t20.5 -49.5v-539v0zM271 834q0 -17 -12 -27l-93 -82q-10 -8 -21 -8q-12 0 -22.5 9.5t-10.5 23.5q0 13 9 22l83 89q10 12 27 12q15 0 27.5 -11t12.5 -28z" />
    <glyph glyph-name="Icircumflex" unicode="&#xce;" horiz-adv-x="274" 
d="M208 64q0 -29 -21 -49.5t-51 -20.5q-29 0 -49.5 20.5t-20.5 49.5v539q0 29 21 49.5t51 20.5q29 0 49.5 -20.5t20.5 -49.5v-539v0zM264 750q0 -11 -9 -22.5t-25 -11.5t-25 13l-68 83l-67 -83q-11 -12 -25 -12t-24.5 9t-10.5 23q0 10 6 18l40 62q13 20 34.5 32t47.5 12
q24 0 45 -12t35 -32l41 -62q5 -6 5 -17z" />
    <glyph glyph-name="Idieresis" unicode="&#xcf;" horiz-adv-x="274" 
d="M208 64q0 -29 -21 -49.5t-51 -20.5q-29 0 -49.5 20.5t-20.5 49.5v539q0 29 21 49.5t51 20.5q29 0 49.5 -20.5t20.5 -49.5v-539v0zM312 778q0 -29 -20 -48.5t-48 -19.5t-48 19.5t-20 48.5q0 28 20 47.5t48 19.5t48 -19.5t20 -47.5zM100 778q0 -29 -19.5 -48.5t-47.5 -19.5
q-29 0 -48.5 19.5t-19.5 48.5q0 28 19.5 47.5t48.5 19.5q28 0 47.5 -19.5t19.5 -47.5z" />
    <glyph glyph-name="Eth" unicode="&#xd0;" horiz-adv-x="742" 
d="M708 333q0 -75 -26 -136.5t-72.5 -105t-112 -67.5t-143.5 -24h-183q-33 0 -56.5 23.5t-23.5 56.5v197h-37q-22 0 -37 15.5t-15 38.5q0 21 15 36t37 15h37v205q0 33 23.5 56.5t56.5 23.5h183q78 0 143.5 -24t112 -67.5t72.5 -105.5t26 -137zM563 333q0 44 -13.5 82.5
t-39.5 66.5t-65.5 44t-90.5 16h-121v-160h104q21 0 36 -15t15 -38q0 -22 -15 -37t-36 -15h-104v-152h121q49 0 88 16.5t66 45t41 66.5t14 80z" />
    <glyph glyph-name="Ntilde" unicode="&#xd1;" horiz-adv-x="729" 
d="M663 80q0 -17 -6.5 -32.5t-18.5 -27.5t-28 -19t-35 -7q-20 0 -39 9.5t-32 26.5l-296 405v-371q0 -29 -21 -49.5t-51 -20.5q-29 0 -49.5 20.5t-20.5 49.5v518q0 18 7 34t19.5 29t29.5 20.5t37 7.5q23 0 43.5 -10t34.5 -29l284 -386v355q0 29 21 49.5t51 20.5
q29 0 49.5 -20.5t20.5 -49.5v-523v0zM525 829q0 -12 -4.5 -30.5t-16.5 -35.5t-32.5 -29.5t-51.5 -12.5q-26 0 -42 10.5t-28 23.5t-22.5 23.5t-24.5 10.5q-11 0 -19.5 -8t-13.5 -28q-3 -14 -14.5 -23t-25.5 -9q-13 0 -20.5 9.5t-7.5 22.5q0 12 4.5 30.5t16.5 35.5t32.5 29.5
t52.5 12.5q25 0 40.5 -10.5t27.5 -23t23 -23t25 -10.5q11 0 19.5 8t13.5 27q3 14 14 23t25 9t21.5 -9.5t7.5 -22.5z" />
    <glyph glyph-name="Ograve" unicode="&#xd2;" horiz-adv-x="765" 
d="M731 333q0 -75 -26 -138.5t-72.5 -109.5t-110.5 -71.5t-140 -25.5q-75 0 -139 25.5t-110.5 71.5t-72.5 109.5t-26 138.5t26 138.5t72.5 109.5t110.5 71.5t139 25.5q76 0 140 -25.5t110.5 -71.5t72.5 -109.5t26 -138.5zM585 333q0 47 -14.5 87t-41 69.5t-64 46t-83.5 16.5
t-83.5 -16.5t-63.5 -46t-40.5 -69.5t-14.5 -87t14.5 -87t40.5 -69t63.5 -46t83.5 -17t83.5 17t64 46t41 69t14.5 87zM410 750q0 -13 -9.5 -23t-23.5 -10q-11 0 -21 8l-93 82q-12 10 -12 27q0 15 11.5 27t27.5 12t28 -12l83 -89q9 -9 9 -22z" />
    <glyph glyph-name="Oacute" unicode="&#xd3;" horiz-adv-x="765" 
d="M731 333q0 -75 -26 -138.5t-72.5 -109.5t-110.5 -71.5t-140 -25.5q-75 0 -139 25.5t-110.5 71.5t-72.5 109.5t-26 138.5t26 138.5t72.5 109.5t110.5 71.5t139 25.5q76 0 140 -25.5t110.5 -71.5t72.5 -109.5t26 -138.5zM585 333q0 47 -14.5 87t-41 69.5t-64 46t-83.5 16.5
t-83.5 -16.5t-63.5 -46t-40.5 -69.5t-14.5 -87t14.5 -87t40.5 -69t63.5 -46t83.5 -17t83.5 17t64 46t41 69t14.5 87zM515 834q0 -17 -12 -27l-93 -82q-10 -8 -21 -8q-12 0 -22.5 9.5t-10.5 23.5q0 13 9 22l83 89q10 12 27 12q15 0 27.5 -11t12.5 -28z" />
    <glyph glyph-name="Ocircumflex" unicode="&#xd4;" horiz-adv-x="765" 
d="M731 333q0 -75 -26 -138.5t-72.5 -109.5t-110.5 -71.5t-140 -25.5q-75 0 -139 25.5t-110.5 71.5t-72.5 109.5t-26 138.5t26 138.5t72.5 109.5t110.5 71.5t139 25.5q76 0 140 -25.5t110.5 -71.5t72.5 -109.5t26 -138.5zM585 333q0 47 -14.5 87t-41 69.5t-64 46t-83.5 16.5
t-83.5 -16.5t-63.5 -46t-40.5 -69.5t-14.5 -87t14.5 -87t40.5 -69t63.5 -46t83.5 -17t83.5 17t64 46t41 69t14.5 87zM511 750q0 -11 -9 -22.5t-25 -11.5t-25 13l-68 83l-67 -83q-11 -12 -25 -12t-24.5 9t-10.5 23q0 10 6 18l40 62q13 20 34.5 32t47.5 12q24 0 45 -12t35 -32
l41 -62q5 -6 5 -17z" />
    <glyph glyph-name="Otilde" unicode="&#xd5;" horiz-adv-x="765" 
d="M731 333q0 -75 -26 -138.5t-72.5 -109.5t-110.5 -71.5t-140 -25.5q-75 0 -139 25.5t-110.5 71.5t-72.5 109.5t-26 138.5t26 138.5t72.5 109.5t110.5 71.5t139 25.5q76 0 140 -25.5t110.5 -71.5t72.5 -109.5t26 -138.5zM585 333q0 47 -14.5 87t-41 69.5t-64 46t-83.5 16.5
t-83.5 -16.5t-63.5 -46t-40.5 -69.5t-14.5 -87t14.5 -87t40.5 -69t63.5 -46t83.5 -17t83.5 17t64 46t41 69t14.5 87zM544 829q0 -12 -4.5 -30.5t-16.5 -35.5t-32.5 -29.5t-51.5 -12.5q-26 0 -42 10.5t-28 23.5t-22.5 23.5t-24.5 10.5q-11 0 -19.5 -8t-13.5 -28
q-3 -14 -14.5 -23t-25.5 -9q-13 0 -20.5 9.5t-7.5 22.5q0 12 4.5 30.5t16.5 35.5t32.5 29.5t52.5 12.5q25 0 40.5 -10.5t27.5 -23t23 -23t25 -10.5q11 0 19.5 8t13.5 27q3 14 14 23t25 9t21.5 -9.5t7.5 -22.5z" />
    <glyph glyph-name="Odieresis" unicode="&#xd6;" horiz-adv-x="765" 
d="M731 333q0 -75 -26 -138.5t-72.5 -109.5t-110.5 -71.5t-140 -25.5q-75 0 -139 25.5t-110.5 71.5t-72.5 109.5t-26 138.5t26 138.5t72.5 109.5t110.5 71.5t139 25.5q76 0 140 -25.5t110.5 -71.5t72.5 -109.5t26 -138.5zM585 333q0 47 -14.5 87t-41 69.5t-64 46t-83.5 16.5
t-83.5 -16.5t-63.5 -46t-40.5 -69.5t-14.5 -87t14.5 -87t40.5 -69t63.5 -46t83.5 -17t83.5 17t64 46t41 69t14.5 87zM557 778q0 -29 -20 -48.5t-48 -19.5t-48 19.5t-20 48.5q0 28 20 47.5t48 19.5t48 -19.5t20 -47.5zM345 778q0 -29 -19.5 -48.5t-47.5 -19.5
q-29 0 -48.5 19.5t-19.5 48.5q0 28 19.5 47.5t48.5 19.5q28 0 47.5 -19.5t19.5 -47.5z" />
    <glyph glyph-name="multiply" unicode="&#xd7;" horiz-adv-x="504" 
d="M438 187q0 -17 -13 -28t-27 -11q-16 0 -27 11l-119 119l-118 -119q-11 -11 -27 -11t-28.5 11.5t-12.5 28.5q0 15 11 26l119 120l-118 118q-12 12 -12 27t11 28t28 13t29 -12l118 -119l119 120q11 11 26 11t28 -11.5t13 -28.5q0 -16 -11 -27l-119 -119l119 -120
q11 -13 11 -27z" />
    <glyph glyph-name="Oslash" unicode="&#xd8;" horiz-adv-x="765" 
d="M731 333q0 -75 -26 -138.5t-72.5 -109.5t-110.5 -71.5t-140 -25.5q-52 0 -98.5 12t-85.5 35l-20 -26q-13 -16 -31 -16q-17 0 -29.5 11.5t-12.5 28.5q0 12 8 25l20 26q-47 46 -73 109.5t-26 139.5q0 75 26 138.5t72.5 109.5t110.5 71.5t139 25.5q48 0 91.5 -10.5
t81.5 -30.5l15 19q12 15 32 15q16 0 29 -11t13 -28q0 -11 -8 -22l-14 -19q51 -47 80 -112.5t29 -145.5zM585 333q0 44 -12.5 81t-35.5 66l-259 -339q22 -13 48 -20t56 -7q46 0 83.5 17t64 46t41 69t14.5 87zM474 531q-20 10 -43 15.5t-49 5.5q-46 0 -83.5 -16.5t-63.5 -46
t-40.5 -69.5t-14.5 -87q0 -40 10 -74.5t29 -62.5z" />
    <glyph glyph-name="Ugrave" unicode="&#xd9;" horiz-adv-x="733" 
d="M668 267q0 -62 -18.5 -113.5t-56 -88.5t-94 -57t-132.5 -20t-132.5 20.5t-94 57t-56 87.5t-18.5 113v336q0 29 21 50t52 21q29 0 50 -21t21 -50v-331q0 -70 39.5 -113.5t117.5 -43.5t117 43.5t39 113.5v331q0 29 21 50t53 21q29 0 50 -21t21 -50v-335v0zM394 750
q0 -13 -9.5 -23t-23.5 -10q-11 0 -21 8l-93 82q-12 10 -12 27q0 15 11.5 27t27.5 12t28 -12l83 -89q9 -9 9 -22z" />
    <glyph glyph-name="Uacute" unicode="&#xda;" horiz-adv-x="733" 
d="M668 267q0 -62 -18.5 -113.5t-56 -88.5t-94 -57t-132.5 -20t-132.5 20.5t-94 57t-56 87.5t-18.5 113v336q0 29 21 50t52 21q29 0 50 -21t21 -50v-331q0 -70 39.5 -113.5t117.5 -43.5t117 43.5t39 113.5v331q0 29 21 50t53 21q29 0 50 -21t21 -50v-335v0zM500 834
q0 -17 -12 -27l-93 -82q-10 -8 -21 -8q-12 0 -22.5 9.5t-10.5 23.5q0 13 9 22l83 89q10 12 27 12q15 0 27.5 -11t12.5 -28z" />
    <glyph glyph-name="Ucircumflex" unicode="&#xdb;" horiz-adv-x="733" 
d="M668 267q0 -62 -18.5 -113.5t-56 -88.5t-94 -57t-132.5 -20t-132.5 20.5t-94 57t-56 87.5t-18.5 113v336q0 29 21 50t52 21q29 0 50 -21t21 -50v-331q0 -70 39.5 -113.5t117.5 -43.5t117 43.5t39 113.5v331q0 29 21 50t53 21q29 0 50 -21t21 -50v-335v0zM497 750
q0 -11 -9 -22.5t-25 -11.5t-25 13l-68 83l-67 -83q-11 -12 -25 -12t-24.5 9t-10.5 23q0 10 6 18l40 62q13 20 34.5 32t47.5 12q24 0 45 -12t35 -32l41 -62q5 -6 5 -17z" />
    <glyph glyph-name="Udieresis" unicode="&#xdc;" horiz-adv-x="733" 
d="M668 267q0 -62 -18.5 -113.5t-56 -88.5t-94 -57t-132.5 -20t-132.5 20.5t-94 57t-56 87.5t-18.5 113v336q0 29 21 50t52 21q29 0 50 -21t21 -50v-331q0 -70 39.5 -113.5t117.5 -43.5t117 43.5t39 113.5v331q0 29 21 50t53 21q29 0 50 -21t21 -50v-335v0zM543 778
q0 -29 -20 -48.5t-48 -19.5t-48 19.5t-20 48.5q0 28 20 47.5t48 19.5t48 -19.5t20 -47.5zM331 778q0 -29 -19.5 -48.5t-47.5 -19.5q-29 0 -48.5 19.5t-19.5 48.5q0 28 19.5 47.5t48.5 19.5q28 0 47.5 -19.5t19.5 -47.5z" />
    <glyph glyph-name="Yacute" unicode="&#xdd;" horiz-adv-x="645" 
d="M597 607q0 -19 -10 -35l-193 -299v-209q0 -29 -21 -49.5t-51 -20.5q-29 0 -49.5 20.5t-20.5 49.5v209l-195 300q-10 14 -10 34q0 24 19 44.5t49 20.5q17 0 32.5 -8t25.5 -24l150 -241l147 240q10 16 25.5 24.5t33.5 8.5q31 0 49.5 -20t18.5 -45zM455 834q0 -17 -12 -27
l-93 -82q-10 -8 -21 -8q-12 0 -22.5 9.5t-10.5 23.5q0 13 9 22l83 89q10 12 27 12q15 0 27.5 -11t12.5 -28z" />
    <glyph glyph-name="Thorn" unicode="&#xde;" horiz-adv-x="624" 
d="M602 343q0 -44 -15 -82.5t-43.5 -67.5t-70 -46t-95.5 -17h-170v-66q0 -29 -21 -49.5t-51 -20.5q-29 0 -49.5 20.5t-20.5 49.5v539q0 29 21 49.5t51 20.5q29 0 49.5 -20.5t20.5 -49.5v-44h170q54 0 96 -17.5t70.5 -47t43 -68.5t14.5 -83zM457 344q0 42 -28.5 66t-71.5 24
h-149v-179h149q43 0 71.5 23.5t28.5 65.5z" />
    <glyph glyph-name="germandbls" unicode="&#xdf;" horiz-adv-x="643" 
d="M627 144q0 -34 -14 -62.5t-40.5 -49.5t-63.5 -32.5t-83 -11.5q-27 0 -54.5 4.5t-51.5 12.5t-42.5 20t-28.5 27q-9 13 -9 28q0 22 14 36t34 14q14 0 28 -8q23 -16 51.5 -25.5t58.5 -9.5q40 0 59.5 16t19.5 36t-19.5 30t-48.5 17.5t-62.5 16t-62.5 25t-48.5 43.5t-19.5 73
q0 26 9 45.5t23 35t29.5 27t29.5 22t23 20t9 20.5q0 12 -6.5 21.5t-17.5 16t-25 9.5t-28 3q-21 0 -39.5 -6t-32 -17.5t-21 -28t-7.5 -37.5v-418q0 -26 -18.5 -44.5t-45.5 -18.5q-26 0 -44.5 18.5t-18.5 44.5v418q0 41 15.5 78t44.5 64.5t72 43.5t97 16q40 0 77 -10t65.5 -29
t46 -45.5t17.5 -60.5q0 -28 -10 -48.5t-24.5 -36t-31.5 -27t-31.5 -23t-24.5 -23t-10 -26.5q0 -18 19.5 -26t48.5 -14.5t62.5 -14.5t62.5 -25t48.5 -46t19.5 -78z" />
    <glyph glyph-name="agrave" unicode="&#xe0;" horiz-adv-x="543" 
d="M480 57q0 -26 -18 -44.5t-44 -18.5h-5h-5v0q-23 0 -39 16.5t-16 39.5q-25 -29 -65 -45.5t-88 -16.5q-29 0 -59 10t-54 29.5t-39.5 49.5t-15.5 71q0 42 15.5 72t39.5 48.5t54 27t59 8.5q48 0 88.5 -15t64.5 -44v65q0 37 -29 59t-77 22q-29 0 -56 -7t-52 -24q-12 -7 -23 -7
q-17 0 -32.5 13t-15.5 36q0 13 7 25q11 18 35 31t52.5 21t57 12t49.5 4q41 0 79 -9t67.5 -30.5t47 -56.5t17.5 -87v-255zM353 116v60q-16 21 -43.5 31.5t-58.5 10.5q-38 0 -64.5 -19t-26.5 -54q0 -34 26.5 -52.5t64.5 -18.5q31 0 58.5 10.5t43.5 31.5zM295 583
q0 -13 -9.5 -23t-23.5 -10q-11 0 -21 8l-93 82q-12 10 -12 27q0 15 11.5 27t27.5 12t28 -12l83 -89q9 -9 9 -22z" />
    <glyph glyph-name="aacute" unicode="&#xe1;" horiz-adv-x="543" 
d="M480 57q0 -26 -18 -44.5t-44 -18.5h-5h-5v0q-23 0 -39 16.5t-16 39.5q-25 -29 -65 -45.5t-88 -16.5q-29 0 -59 10t-54 29.5t-39.5 49.5t-15.5 71q0 42 15.5 72t39.5 48.5t54 27t59 8.5q48 0 88.5 -15t64.5 -44v65q0 37 -29 59t-77 22q-29 0 -56 -7t-52 -24q-12 -7 -23 -7
q-17 0 -32.5 13t-15.5 36q0 13 7 25q11 18 35 31t52.5 21t57 12t49.5 4q41 0 79 -9t67.5 -30.5t47 -56.5t17.5 -87v-255zM353 116v60q-16 21 -43.5 31.5t-58.5 10.5q-38 0 -64.5 -19t-26.5 -54q0 -34 26.5 -52.5t64.5 -18.5q31 0 58.5 10.5t43.5 31.5zM401 667
q0 -17 -12 -27l-93 -82q-10 -8 -21 -8q-12 0 -22.5 9.5t-10.5 23.5q0 13 9 22l83 89q10 12 27 12q15 0 27.5 -11t12.5 -28z" />
    <glyph glyph-name="acircumflex" unicode="&#xe2;" horiz-adv-x="543" 
d="M480 57q0 -26 -18 -44.5t-44 -18.5h-5h-5v0q-23 0 -39 16.5t-16 39.5q-25 -29 -65 -45.5t-88 -16.5q-29 0 -59 10t-54 29.5t-39.5 49.5t-15.5 71q0 42 15.5 72t39.5 48.5t54 27t59 8.5q48 0 88.5 -15t64.5 -44v65q0 37 -29 59t-77 22q-29 0 -56 -7t-52 -24q-12 -7 -23 -7
q-17 0 -32.5 13t-15.5 36q0 13 7 25q11 18 35 31t52.5 21t57 12t49.5 4q41 0 79 -9t67.5 -30.5t47 -56.5t17.5 -87v-255zM353 116v60q-16 21 -43.5 31.5t-58.5 10.5q-38 0 -64.5 -19t-26.5 -54q0 -34 26.5 -52.5t64.5 -18.5q31 0 58.5 10.5t43.5 31.5zM397 583
q0 -11 -9 -22.5t-25 -11.5t-25 13l-68 83l-67 -83q-11 -12 -25 -12t-24.5 9t-10.5 23q0 10 6 18l40 62q13 20 34.5 32t47.5 12q24 0 45 -12t35 -32l41 -62q5 -6 5 -17z" />
    <glyph glyph-name="atilde" unicode="&#xe3;" horiz-adv-x="543" 
d="M480 57q0 -26 -18 -44.5t-44 -18.5h-5h-5v0q-23 0 -39 16.5t-16 39.5q-25 -29 -65 -45.5t-88 -16.5q-29 0 -59 10t-54 29.5t-39.5 49.5t-15.5 71q0 42 15.5 72t39.5 48.5t54 27t59 8.5q48 0 88.5 -15t64.5 -44v65q0 37 -29 59t-77 22q-29 0 -56 -7t-52 -24q-12 -7 -23 -7
q-17 0 -32.5 13t-15.5 36q0 13 7 25q11 18 35 31t52.5 21t57 12t49.5 4q41 0 79 -9t67.5 -30.5t47 -56.5t17.5 -87v-255zM353 116v60q-16 21 -43.5 31.5t-58.5 10.5q-38 0 -64.5 -19t-26.5 -54q0 -34 26.5 -52.5t64.5 -18.5q31 0 58.5 10.5t43.5 31.5zM431 662
q0 -12 -4.5 -30.5t-16.5 -35.5t-32.5 -29.5t-51.5 -12.5q-26 0 -42 10.5t-28 23.5t-22.5 23.5t-24.5 10.5q-11 0 -19.5 -8t-13.5 -28q-3 -14 -14.5 -23t-25.5 -9q-13 0 -20.5 9.5t-7.5 22.5q0 12 4.5 30.5t16.5 35.5t32.5 29.5t52.5 12.5q25 0 40.5 -10.5t27.5 -23t23 -23
t25 -10.5q11 0 19.5 8t13.5 27q3 14 14 23t25 9t21.5 -9.5t7.5 -22.5z" />
    <glyph glyph-name="adieresis" unicode="&#xe4;" horiz-adv-x="543" 
d="M480 57q0 -26 -18 -44.5t-44 -18.5h-5h-5v0q-23 0 -39 16.5t-16 39.5q-25 -29 -65 -45.5t-88 -16.5q-29 0 -59 10t-54 29.5t-39.5 49.5t-15.5 71q0 42 15.5 72t39.5 48.5t54 27t59 8.5q48 0 88.5 -15t64.5 -44v65q0 37 -29 59t-77 22q-29 0 -56 -7t-52 -24q-12 -7 -23 -7
q-17 0 -32.5 13t-15.5 36q0 13 7 25q11 18 35 31t52.5 21t57 12t49.5 4q41 0 79 -9t67.5 -30.5t47 -56.5t17.5 -87v-255zM353 116v60q-16 21 -43.5 31.5t-58.5 10.5q-38 0 -64.5 -19t-26.5 -54q0 -34 26.5 -52.5t64.5 -18.5q31 0 58.5 10.5t43.5 31.5zM443 611
q0 -29 -20 -48.5t-48 -19.5t-48 19.5t-20 48.5q0 28 20 47.5t48 19.5t48 -19.5t20 -47.5zM231 611q0 -29 -19.5 -48.5t-47.5 -19.5q-29 0 -48.5 19.5t-19.5 48.5q0 28 19.5 47.5t48.5 19.5q28 0 47.5 -19.5t19.5 -47.5z" />
    <glyph glyph-name="aring" unicode="&#xe5;" horiz-adv-x="543" 
d="M480 57q0 -26 -18 -44.5t-44 -18.5h-5h-5v0q-23 0 -39 16.5t-16 39.5q-25 -29 -65 -45.5t-88 -16.5q-29 0 -59 10t-54 29.5t-39.5 49.5t-15.5 71q0 42 15.5 72t39.5 48.5t54 27t59 8.5q48 0 88.5 -15t64.5 -44v65q0 37 -29 59t-77 22q-29 0 -56 -7t-52 -24q-12 -7 -23 -7
q-17 0 -32.5 13t-15.5 36q0 13 7 25q11 18 35 31t52.5 21t57 12t49.5 4q41 0 79 -9t67.5 -30.5t47 -56.5t17.5 -87v-255zM353 116v60q-16 21 -43.5 31.5t-58.5 10.5q-38 0 -64.5 -19t-26.5 -54q0 -34 26.5 -52.5t64.5 -18.5q31 0 58.5 10.5t43.5 31.5zM375 636q0 -22 -8 -41
t-22 -33.5t-33 -22.5t-41 -8q-21 0 -40.5 8t-33.5 22.5t-22.5 33.5t-8.5 41q0 21 8.5 40.5t22.5 34t33.5 23t40.5 8.5q22 0 41 -8.5t33 -23t22 -34t8 -40.5zM317 636q0 20 -13 33.5t-33 13.5q-19 0 -33 -13.5t-14 -33.5q0 -19 14 -33t33 -14q20 0 33 14t13 33z" />
    <glyph glyph-name="ae" unicode="&#xe6;" horiz-adv-x="870" 
d="M839 261q0 -25 -17.5 -42.5t-42.5 -17.5h-279q3 -22 13 -42t26.5 -35t39 -23.5t51.5 -8.5q20 0 42 5t42 16q12 6 27 6q20 0 36.5 -13.5t16.5 -35.5q0 -12 -7 -24q-10 -16 -31 -27t-45.5 -18t-49 -10t-40.5 -3q-59 0 -106 20t-80 68q-30 -38 -83 -63t-118 -25
q-40 0 -76.5 9.5t-64.5 29t-44.5 49t-16.5 70.5q0 40 14 69.5t38 49t56 29.5t67 10q50 0 93.5 -14.5t71.5 -43.5v65q0 36 -31.5 58t-83.5 22q-30 0 -59.5 -7.5t-57.5 -24.5q-12 -7 -24 -7q-17 0 -32 13.5t-15 35.5q0 14 7 25q11 18 35 31.5t53 21.5t58 12t50 4
q32 0 58.5 -5.5t47.5 -16t37 -26t26 -35.5q13 17 29 32t37 26.5t48 18t61 6.5q77 0 132 -43.5t78 -118.5q5 -14 9 -32t4 -40zM718 287q-1 17 -7 36t-19.5 34.5t-34 26t-49.5 10.5q-27 0 -47 -10t-33.5 -25.5t-20.5 -34.5t-9 -37h220zM372 169v6q-18 20 -48.5 31.5
t-64.5 11.5q-42 0 -70.5 -16.5t-28.5 -48.5q0 -33 28.5 -49t67.5 -16q24 0 45 7.5t37 19t25 26t9 28.5z" />
    <glyph glyph-name="ccedilla" unicode="&#xe7;" horiz-adv-x="499" 
d="M461 77q0 -13 -6 -23q-7 -13 -21.5 -24t-33.5 -19.5t-41 -14t-45 -7.5l-16 -40q17 10 36 10q28 0 47.5 -19t19.5 -51q0 -40 -33 -62.5t-78 -22.5q-18 0 -36.5 3t-34.5 8.5t-26 14t-10 20.5t8.5 20t19.5 8q6 0 12 -3q16 -8 32.5 -12.5t30.5 -4.5q20 0 36 8t16 25
q0 12 -7.5 19t-21.5 7q-12 0 -20 -6t-20 -6q-15 0 -24 10t-9 21q0 3 0.5 5.5t1.5 5.5l16 43q-49 5 -90 25.5t-70 53.5t-45.5 77t-16.5 96q0 55 19 101.5t53 80.5t81 52.5t103 18.5q28 0 54.5 -5t48.5 -13.5t38.5 -20.5t24.5 -27q6 -11 6 -23q0 -26 -19.5 -40t-40.5 -14
q-19 0 -35 10t-34 15t-37 5q-29 0 -53 -10t-41.5 -28.5t-27 -44.5t-9.5 -57q0 -32 9.5 -57.5t27 -44.5t41.5 -29t53 -10q39 0 72 21q16 10 34 10q23 0 42 -15t19 -40z" />
    <glyph glyph-name="egrave" unicode="&#xe8;" horiz-adv-x="553" 
d="M522 259q0 -23 -17 -40.5t-42 -17.5h-298q3 -23 13.5 -43.5t28 -35.5t42 -24t55.5 -9q20 0 45.5 6t48.5 18q12 6 25 6q20 0 37 -14t17 -37q0 -25 -22 -38q-36 -22 -78.5 -32t-86.5 -10q-55 0 -102.5 18t-82 51t-54 80t-19.5 105q0 52 18.5 98.5t51.5 80.5t79 54t101 20
q41 0 76.5 -11.5t64.5 -32.5t50.5 -51.5t34.5 -67.5q5 -17 9.5 -36t4.5 -37zM401 287q-1 17 -8 36t-21 34.5t-36.5 26t-53.5 10.5q-30 0 -51.5 -10t-35.5 -25.5t-22 -34.5t-10 -37h238zM309 583q0 -13 -9.5 -23t-23.5 -10q-11 0 -21 8l-93 82q-12 10 -12 27q0 15 11.5 27
t27.5 12t28 -12l83 -89q9 -9 9 -22z" />
    <glyph glyph-name="eacute" unicode="&#xe9;" horiz-adv-x="553" 
d="M522 259q0 -23 -17 -40.5t-42 -17.5h-298q3 -23 13.5 -43.5t28 -35.5t42 -24t55.5 -9q20 0 45.5 6t48.5 18q12 6 25 6q20 0 37 -14t17 -37q0 -25 -22 -38q-36 -22 -78.5 -32t-86.5 -10q-55 0 -102.5 18t-82 51t-54 80t-19.5 105q0 52 18.5 98.5t51.5 80.5t79 54t101 20
q41 0 76.5 -11.5t64.5 -32.5t50.5 -51.5t34.5 -67.5q5 -17 9.5 -36t4.5 -37zM401 287q-1 17 -8 36t-21 34.5t-36.5 26t-53.5 10.5q-30 0 -51.5 -10t-35.5 -25.5t-22 -34.5t-10 -37h238zM415 667q0 -17 -12 -27l-93 -82q-10 -8 -21 -8q-12 0 -22.5 9.5t-10.5 23.5q0 13 9 22
l83 89q10 12 27 12q15 0 27.5 -11t12.5 -28z" />
    <glyph glyph-name="ecircumflex" unicode="&#xea;" horiz-adv-x="553" 
d="M522 259q0 -23 -17 -40.5t-42 -17.5h-298q3 -23 13.5 -43.5t28 -35.5t42 -24t55.5 -9q20 0 45.5 6t48.5 18q12 6 25 6q20 0 37 -14t17 -37q0 -25 -22 -38q-36 -22 -78.5 -32t-86.5 -10q-55 0 -102.5 18t-82 51t-54 80t-19.5 105q0 52 18.5 98.5t51.5 80.5t79 54t101 20
q41 0 76.5 -11.5t64.5 -32.5t50.5 -51.5t34.5 -67.5q5 -17 9.5 -36t4.5 -37zM401 287q-1 17 -8 36t-21 34.5t-36.5 26t-53.5 10.5q-30 0 -51.5 -10t-35.5 -25.5t-22 -34.5t-10 -37h238zM409 583q0 -11 -9 -22.5t-25 -11.5t-25 13l-68 83l-67 -83q-11 -12 -25 -12t-24.5 9
t-10.5 23q0 10 6 18l40 62q13 20 34.5 32t47.5 12q24 0 45 -12t35 -32l41 -62q5 -6 5 -17z" />
    <glyph glyph-name="edieresis" unicode="&#xeb;" horiz-adv-x="553" 
d="M522 259q0 -23 -17 -40.5t-42 -17.5h-298q3 -23 13.5 -43.5t28 -35.5t42 -24t55.5 -9q20 0 45.5 6t48.5 18q12 6 25 6q20 0 37 -14t17 -37q0 -25 -22 -38q-36 -22 -78.5 -32t-86.5 -10q-55 0 -102.5 18t-82 51t-54 80t-19.5 105q0 52 18.5 98.5t51.5 80.5t79 54t101 20
q41 0 76.5 -11.5t64.5 -32.5t50.5 -51.5t34.5 -67.5q5 -17 9.5 -36t4.5 -37zM401 287q-1 17 -8 36t-21 34.5t-36.5 26t-53.5 10.5q-30 0 -51.5 -10t-35.5 -25.5t-22 -34.5t-10 -37h238zM457 611q0 -29 -20 -48.5t-48 -19.5t-48 19.5t-20 48.5q0 28 20 47.5t48 19.5t48 -19.5
t20 -47.5zM245 611q0 -29 -19.5 -48.5t-47.5 -19.5q-29 0 -48.5 19.5t-19.5 48.5q0 28 19.5 47.5t48.5 19.5q28 0 47.5 -19.5t19.5 -47.5z" />
    <glyph glyph-name="igrave" unicode="&#xec;" horiz-adv-x="253" 
d="M190 57q0 -26 -18.5 -44.5t-45.5 -18.5q-26 0 -44.5 18.5t-18.5 44.5v370q0 26 18.5 44t46.5 18q26 0 44 -18t18 -44v-370v0zM154 583q0 -13 -9.5 -23t-23.5 -10q-11 0 -21 8l-93 82q-12 10 -12 27q0 15 11.5 27t27.5 12t28 -12l83 -89q9 -9 9 -22z" />
    <glyph glyph-name="iacute" unicode="&#xed;" horiz-adv-x="253" 
d="M190 57q0 -26 -18.5 -44.5t-45.5 -18.5q-26 0 -44.5 18.5t-18.5 44.5v370q0 26 18.5 44t46.5 18q26 0 44 -18t18 -44v-370v0zM259 667q0 -17 -12 -27l-93 -82q-10 -8 -21 -8q-12 0 -22.5 9.5t-10.5 23.5q0 13 9 22l83 89q10 12 27 12q15 0 27.5 -11t12.5 -28z" />
    <glyph glyph-name="icircumflex" unicode="&#xee;" horiz-adv-x="253" 
d="M190 57q0 -26 -18.5 -44.5t-45.5 -18.5q-26 0 -44.5 18.5t-18.5 44.5v370q0 26 18.5 44t46.5 18q26 0 44 -18t18 -44v-370v0zM253 583q0 -11 -9 -22.5t-25 -11.5t-25 13l-68 83l-67 -83q-11 -12 -25 -12t-24.5 9t-10.5 23q0 10 6 18l40 62q13 20 34.5 32t47.5 12
q24 0 45 -12t35 -32l41 -62q5 -6 5 -17z" />
    <glyph glyph-name="idieresis" unicode="&#xef;" horiz-adv-x="253" 
d="M190 57q0 -26 -18.5 -44.5t-45.5 -18.5q-26 0 -44.5 18.5t-18.5 44.5v370q0 26 18.5 44t46.5 18q26 0 44 -18t18 -44v-370v0zM301 611q0 -29 -20 -48.5t-48 -19.5t-48 19.5t-20 48.5q0 28 20 47.5t48 19.5t48 -19.5t20 -47.5zM89 611q0 -29 -19.5 -48.5t-47.5 -19.5
q-29 0 -48.5 19.5t-19.5 48.5q0 28 19.5 47.5t48.5 19.5q28 0 47.5 -19.5t19.5 -47.5z" />
    <glyph glyph-name="eth" unicode="&#xf0;" horiz-adv-x="574" 
d="M543 252q0 -59 -17.5 -107.5t-50.5 -83t-80.5 -54t-107.5 -19.5q-58 0 -105 17.5t-80.5 49t-51.5 75t-18 94.5q0 52 16.5 95t45 74.5t68 49t84.5 17.5q52 0 91.5 -23t68.5 -70q-20 46 -62 87.5t-95 78.5l-123 -54q-6 -3 -13 -3q-11 0 -21.5 9t-10.5 24q0 22 20 30l84 37
q-9 5 -17 11t-13.5 13t-8.5 15.5t-3 19.5q1 27 20 44t42 17q12 0 26.5 -6.5t29.5 -16.5t29.5 -20.5t25.5 -19.5l81 36q6 2 11 2q11 0 21.5 -8.5t10.5 -23.5q0 -20 -18 -28l-51 -23q40 -36 72 -74t54 -79.5t34 -87t12 -95.5zM411 224q0 25 -8.5 47.5t-24 39t-38.5 26.5
t-53 10t-52.5 -10t-38.5 -26.5t-24 -39t-8 -47.5t8 -47.5t24 -39t38.5 -26.5t52.5 -10t53 10t38.5 26.5t24 39t8.5 47.5z" />
    <glyph glyph-name="ntilde" unicode="&#xf1;" 
d="M516 57q0 -26 -18.5 -44.5t-45.5 -18.5q-26 0 -44.5 18.5t-18.5 44.5v235q0 51 -24 70.5t-65 19.5q-19 0 -35.5 -5t-30.5 -13t-25 -18t-19 -21v-268q0 -26 -18.5 -44.5t-45.5 -18.5q-26 0 -44.5 18.5t-18.5 44.5v370q0 26 18.5 44t46.5 18q26 0 44 -18t18 -44v-7
q12 14 28.5 27.5t38 24t47 17t55.5 6.5q80 0 118.5 -41.5t38.5 -112.5v-284v0zM452 662q0 -12 -4.5 -30.5t-16.5 -35.5t-32.5 -29.5t-51.5 -12.5q-26 0 -42 10.5t-28 23.5t-22.5 23.5t-24.5 10.5q-11 0 -19.5 -8t-13.5 -28q-3 -14 -14.5 -23t-25.5 -9q-13 0 -20.5 9.5
t-7.5 22.5q0 12 4.5 30.5t16.5 35.5t32.5 29.5t52.5 12.5q25 0 40.5 -10.5t27.5 -23t23 -23t25 -10.5q11 0 19.5 8t13.5 27q3 14 14 23t25 9t21.5 -9.5t7.5 -22.5z" />
    <glyph glyph-name="ograve" unicode="&#xf2;" horiz-adv-x="574" 
d="M543 242q0 -52 -17.5 -98t-50.5 -80.5t-80.5 -55t-107.5 -20.5t-107 20.5t-80 55t-50.5 80.5t-17.5 98q0 51 17.5 97t50.5 80.5t80 55t107 20.5t107.5 -20.5t80.5 -55t50.5 -80.5t17.5 -97zM411 242q0 28 -8.5 53.5t-24 44.5t-38.5 30.5t-53 11.5t-52.5 -11.5
t-38.5 -30.5t-24 -44.5t-8 -53.5q0 -29 8 -54.5t24 -44.5t38.5 -30.5t52.5 -11.5t53 11.5t38.5 30.5t24 44.5t8.5 54.5zM314 583q0 -13 -9.5 -23t-23.5 -10q-11 0 -21 8l-93 82q-12 10 -12 27q0 15 11.5 27t27.5 12t28 -12l83 -89q9 -9 9 -22z" />
    <glyph glyph-name="oacute" unicode="&#xf3;" horiz-adv-x="574" 
d="M543 242q0 -52 -17.5 -98t-50.5 -80.5t-80.5 -55t-107.5 -20.5t-107 20.5t-80 55t-50.5 80.5t-17.5 98q0 51 17.5 97t50.5 80.5t80 55t107 20.5t107.5 -20.5t80.5 -55t50.5 -80.5t17.5 -97zM411 242q0 28 -8.5 53.5t-24 44.5t-38.5 30.5t-53 11.5t-52.5 -11.5
t-38.5 -30.5t-24 -44.5t-8 -53.5q0 -29 8 -54.5t24 -44.5t38.5 -30.5t52.5 -11.5t53 11.5t38.5 30.5t24 44.5t8.5 54.5zM420 667q0 -17 -12 -27l-93 -82q-10 -8 -21 -8q-12 0 -22.5 9.5t-10.5 23.5q0 13 9 22l83 89q10 12 27 12q15 0 27.5 -11t12.5 -28z" />
    <glyph glyph-name="ocircumflex" unicode="&#xf4;" horiz-adv-x="574" 
d="M543 242q0 -52 -17.5 -98t-50.5 -80.5t-80.5 -55t-107.5 -20.5t-107 20.5t-80 55t-50.5 80.5t-17.5 98q0 51 17.5 97t50.5 80.5t80 55t107 20.5t107.5 -20.5t80.5 -55t50.5 -80.5t17.5 -97zM411 242q0 28 -8.5 53.5t-24 44.5t-38.5 30.5t-53 11.5t-52.5 -11.5
t-38.5 -30.5t-24 -44.5t-8 -53.5q0 -29 8 -54.5t24 -44.5t38.5 -30.5t52.5 -11.5t53 11.5t38.5 30.5t24 44.5t8.5 54.5zM413 583q0 -11 -9 -22.5t-25 -11.5t-25 13l-68 83l-67 -83q-11 -12 -25 -12t-24.5 9t-10.5 23q0 10 6 18l40 62q13 20 34.5 32t47.5 12q24 0 45 -12
t35 -32l41 -62q5 -6 5 -17z" />
    <glyph glyph-name="otilde" unicode="&#xf5;" horiz-adv-x="574" 
d="M543 242q0 -52 -17.5 -98t-50.5 -80.5t-80.5 -55t-107.5 -20.5t-107 20.5t-80 55t-50.5 80.5t-17.5 98q0 51 17.5 97t50.5 80.5t80 55t107 20.5t107.5 -20.5t80.5 -55t50.5 -80.5t17.5 -97zM411 242q0 28 -8.5 53.5t-24 44.5t-38.5 30.5t-53 11.5t-52.5 -11.5
t-38.5 -30.5t-24 -44.5t-8 -53.5q0 -29 8 -54.5t24 -44.5t38.5 -30.5t52.5 -11.5t53 11.5t38.5 30.5t24 44.5t8.5 54.5zM449 662q0 -12 -4.5 -30.5t-16.5 -35.5t-32.5 -29.5t-51.5 -12.5q-26 0 -42 10.5t-28 23.5t-22.5 23.5t-24.5 10.5q-11 0 -19.5 -8t-13.5 -28
q-3 -14 -14.5 -23t-25.5 -9q-13 0 -20.5 9.5t-7.5 22.5q0 12 4.5 30.5t16.5 35.5t32.5 29.5t52.5 12.5q25 0 40.5 -10.5t27.5 -23t23 -23t25 -10.5q11 0 19.5 8t13.5 27q3 14 14 23t25 9t21.5 -9.5t7.5 -22.5z" />
    <glyph glyph-name="odieresis" unicode="&#xf6;" horiz-adv-x="574" 
d="M543 242q0 -52 -17.5 -98t-50.5 -80.5t-80.5 -55t-107.5 -20.5t-107 20.5t-80 55t-50.5 80.5t-17.5 98q0 51 17.5 97t50.5 80.5t80 55t107 20.5t107.5 -20.5t80.5 -55t50.5 -80.5t17.5 -97zM411 242q0 28 -8.5 53.5t-24 44.5t-38.5 30.5t-53 11.5t-52.5 -11.5
t-38.5 -30.5t-24 -44.5t-8 -53.5q0 -29 8 -54.5t24 -44.5t38.5 -30.5t52.5 -11.5t53 11.5t38.5 30.5t24 44.5t8.5 54.5zM461 611q0 -29 -20 -48.5t-48 -19.5t-48 19.5t-20 48.5q0 28 20 47.5t48 19.5t48 -19.5t20 -47.5zM249 611q0 -29 -19.5 -48.5t-47.5 -19.5
q-29 0 -48.5 19.5t-19.5 48.5q0 28 19.5 47.5t48.5 19.5q28 0 47.5 -19.5t19.5 -47.5z" />
    <glyph glyph-name="divide" unicode="&#xf7;" horiz-adv-x="511" 
d="M255 576q26 0 43.5 -17.5t17.5 -42.5q0 -26 -17.5 -44t-43.5 -18t-43.5 18t-17.5 44q0 25 17.5 42.5t43.5 17.5zM488 339q0 -18 -11 -29.5t-27 -11.5h-388q-17 0 -28 11.5t-11 29.5q0 16 11 27t28 11h388q16 0 27 -11t11 -27zM316 157q0 -26 -17.5 -43.5t-43.5 -17.5
t-43.5 17.5t-17.5 43.5q0 25 17.5 43t43.5 18t43.5 -18t17.5 -43z" />
    <glyph glyph-name="oslash" unicode="&#xf8;" horiz-adv-x="574" 
d="M121 3q-9 -10 -22 -10q-12 0 -21 9t-9 21t7 19l21 25q-32 35 -48.5 79.5t-16.5 95.5t17.5 97t50.5 80.5t80 55t107 20.5q42 0 77 -10t64 -28l18 21q7 10 22 10q12 0 22 -8.5t10 -20.5q0 -10 -7 -19l-18 -21q33 -35 50.5 -80.5t17.5 -96.5q0 -52 -17.5 -98t-50.5 -80.5
t-80.5 -55t-107.5 -20.5q-85 0 -145 40zM220 120q14 -10 30.5 -14.5t36.5 -4.5q30 0 53 11.5t38.5 30.5t24 44.5t8.5 54.5q0 44 -20 79zM287 382q-30 0 -52.5 -11.5t-38.5 -30.5t-24 -44.5t-8 -53.5q0 -42 17 -76l169 199q-28 17 -63 17z" />
    <glyph glyph-name="ugrave" unicode="&#xf9;" 
d="M516 57q0 -26 -18.5 -44.5t-45.5 -18.5q-26 0 -44.5 18.5t-18.5 44.5v4q-25 -28 -67.5 -50.5t-102.5 -22.5q-80 0 -118 40.5t-38 111.5v287q0 26 18.5 44t46.5 18q26 0 44 -18t18 -44v-237q0 -25 6.5 -42t18 -27.5t28 -15t36.5 -4.5q37 0 65 17t45 38v271q0 26 18.5 44
t46.5 18q26 0 44 -18t18 -44v-370v0zM316 583q0 -13 -9.5 -23t-23.5 -10q-11 0 -21 8l-93 82q-12 10 -12 27q0 15 11.5 27t27.5 12t28 -12l83 -89q9 -9 9 -22z" />
    <glyph glyph-name="uacute" unicode="&#xfa;" 
d="M516 57q0 -26 -18.5 -44.5t-45.5 -18.5q-26 0 -44.5 18.5t-18.5 44.5v4q-25 -28 -67.5 -50.5t-102.5 -22.5q-80 0 -118 40.5t-38 111.5v287q0 26 18.5 44t46.5 18q26 0 44 -18t18 -44v-237q0 -25 6.5 -42t18 -27.5t28 -15t36.5 -4.5q37 0 65 17t45 38v271q0 26 18.5 44
t46.5 18q26 0 44 -18t18 -44v-370v0zM421 667q0 -17 -12 -27l-93 -82q-10 -8 -21 -8q-12 0 -22.5 9.5t-10.5 23.5q0 13 9 22l83 89q10 12 27 12q15 0 27.5 -11t12.5 -28z" />
    <glyph glyph-name="ucircumflex" unicode="&#xfb;" 
d="M516 57q0 -26 -18.5 -44.5t-45.5 -18.5q-26 0 -44.5 18.5t-18.5 44.5v4q-25 -28 -67.5 -50.5t-102.5 -22.5q-80 0 -118 40.5t-38 111.5v287q0 26 18.5 44t46.5 18q26 0 44 -18t18 -44v-237q0 -25 6.5 -42t18 -27.5t28 -15t36.5 -4.5q37 0 65 17t45 38v271q0 26 18.5 44
t46.5 18q26 0 44 -18t18 -44v-370v0zM416 583q0 -11 -9 -22.5t-25 -11.5t-25 13l-68 83l-67 -83q-11 -12 -25 -12t-24.5 9t-10.5 23q0 10 6 18l40 62q13 20 34.5 32t47.5 12q24 0 45 -12t35 -32l41 -62q5 -6 5 -17z" />
    <glyph glyph-name="udieresis" unicode="&#xfc;" 
d="M516 57q0 -26 -18.5 -44.5t-45.5 -18.5q-26 0 -44.5 18.5t-18.5 44.5v4q-25 -28 -67.5 -50.5t-102.5 -22.5q-80 0 -118 40.5t-38 111.5v287q0 26 18.5 44t46.5 18q26 0 44 -18t18 -44v-237q0 -25 6.5 -42t18 -27.5t28 -15t36.5 -4.5q37 0 65 17t45 38v271q0 26 18.5 44
t46.5 18q26 0 44 -18t18 -44v-370v0zM463 611q0 -29 -20 -48.5t-48 -19.5t-48 19.5t-20 48.5q0 28 20 47.5t48 19.5t48 -19.5t20 -47.5zM251 611q0 -29 -19.5 -48.5t-47.5 -19.5q-29 0 -48.5 19.5t-19.5 48.5q0 28 19.5 47.5t48.5 19.5q28 0 47.5 -19.5t19.5 -47.5z" />
    <glyph glyph-name="yacute" unicode="&#xfd;" horiz-adv-x="513" 
d="M491 427q0 -14 -4 -23l-195 -483q-26 -63 -69 -90t-97 -27q-17 0 -31 4t-24.5 11.5t-16.5 18t-6 23.5q0 23 16.5 39.5t43.5 16.5h8t8 1q16 3 28.5 11t19.5 23l18 41l-165 412q-4 9 -4 21q0 23 17.5 43t46.5 20q19 0 35 -11t24 -31l112 -300l112 300q7 19 24 30.5t37 11.5
q29 0 45.5 -19.5t16.5 -42.5zM388 667q0 -17 -12 -27l-93 -82q-10 -8 -21 -8q-12 0 -22.5 9.5t-10.5 23.5q0 13 9 22l83 89q10 12 27 12q15 0 27.5 -11t12.5 -28z" />
    <glyph glyph-name="thorn" unicode="&#xfe;" horiz-adv-x="583" 
d="M553 242q0 -60 -16 -107.5t-44.5 -80t-68 -49.5t-85.5 -17q-43 0 -81.5 18t-67.5 56v-190q0 -26 -18.5 -44t-45.5 -18q-26 0 -44.5 18t-18.5 44v739q0 26 18.5 44t46.5 18q26 0 44 -18t18 -44v-189q28 35 66 54t83 19q46 0 85.5 -17t68 -49t44.5 -79.5t16 -107.5z
M421 242q0 31 -9 57t-25 44.5t-38.5 28.5t-49.5 10q-31 0 -62 -16t-47 -39v-171q16 -23 47 -39t62 -16q27 0 49.5 10t38.5 29t25 44.5t9 57.5z" />
    <glyph glyph-name="ydieresis" unicode="&#xff;" horiz-adv-x="513" 
d="M491 427q0 -14 -4 -23l-195 -483q-26 -63 -69 -90t-97 -27q-17 0 -31 4t-24.5 11.5t-16.5 18t-6 23.5q0 23 16.5 39.5t43.5 16.5h8t8 1q16 3 28.5 11t19.5 23l18 41l-165 412q-4 9 -4 21q0 23 17.5 43t46.5 20q19 0 35 -11t24 -31l112 -300l112 300q7 19 24 30.5t37 11.5
q29 0 45.5 -19.5t16.5 -42.5zM430 611q0 -29 -20 -48.5t-48 -19.5t-48 19.5t-20 48.5q0 28 20 47.5t48 19.5t48 -19.5t20 -47.5zM218 611q0 -29 -19.5 -48.5t-47.5 -19.5q-29 0 -48.5 19.5t-19.5 48.5q0 28 19.5 47.5t48.5 19.5q28 0 47.5 -19.5t19.5 -47.5z" />
    <glyph glyph-name="Amacron" unicode="&#x100;" horiz-adv-x="684" 
d="M656 70q0 -28 -20.5 -52t-55.5 -24q-23 0 -42 12.5t-27 34.5l-26 72h-286l-27 -72q-8 -22 -27.5 -34.5t-42.5 -12.5q-34 0 -54.5 23.5t-20.5 52.5q0 16 5 27l195 501q13 34 43.5 54.5t65.5 20.5q38 3 72.5 -17.5t48.5 -57.5l194 -501q5 -15 5 -27zM446 238l-104 287
l-104 -287h208zM523 766q0 -16 -10.5 -26.5t-24.5 -10.5h-293q-14 0 -24.5 10.5t-10.5 26.5q0 14 10.5 24.5t24.5 10.5h293q14 0 24.5 -10.5t10.5 -24.5z" />
    <glyph glyph-name="amacron" unicode="&#x101;" horiz-adv-x="543" 
d="M480 57q0 -26 -18 -44.5t-44 -18.5h-5h-5v0q-23 0 -39 16.5t-16 39.5q-25 -29 -65 -45.5t-88 -16.5q-29 0 -59 10t-54 29.5t-39.5 49.5t-15.5 71q0 42 15.5 72t39.5 48.5t54 27t59 8.5q48 0 88.5 -15t64.5 -44v65q0 37 -29 59t-77 22q-29 0 -56 -7t-52 -24q-12 -7 -23 -7
q-17 0 -32.5 13t-15.5 36q0 13 7 25q11 18 35 31t52.5 21t57 12t49.5 4q41 0 79 -9t67.5 -30.5t47 -56.5t17.5 -87v-255zM353 116v60q-16 21 -43.5 31.5t-58.5 10.5q-38 0 -64.5 -19t-26.5 -54q0 -34 26.5 -52.5t64.5 -18.5q31 0 58.5 10.5t43.5 31.5zM451 599
q0 -16 -10.5 -26.5t-24.5 -10.5h-293q-14 0 -24.5 10.5t-10.5 26.5q0 14 10.5 24.5t24.5 10.5h293q14 0 24.5 -10.5t10.5 -24.5z" />
    <glyph glyph-name="Abreve" unicode="&#x102;" horiz-adv-x="684" 
d="M656 70q0 -28 -20.5 -52t-55.5 -24q-23 0 -42 12.5t-27 34.5l-26 72h-286l-27 -72q-8 -22 -27.5 -34.5t-42.5 -12.5q-34 0 -54.5 23.5t-20.5 52.5q0 16 5 27l195 501q13 34 43.5 54.5t65.5 20.5q38 3 72.5 -17.5t48.5 -57.5l194 -501q5 -15 5 -27zM446 238l-104 287
l-104 -287h208zM503 781q0 -13 -9 -22q-30 -29 -68.5 -45t-83.5 -16t-83.5 16t-68.5 45q-9 9 -9 22q0 14 11 25t25 11q15 0 29 -11q19 -17 43 -26t53 -9q28 0 52 9.5t43 26.5q13 11 29 11q14 0 25.5 -11t11.5 -26z" />
    <glyph glyph-name="abreve" unicode="&#x103;" horiz-adv-x="543" 
d="M480 57q0 -26 -18 -44.5t-44 -18.5h-5h-5v0q-23 0 -39 16.5t-16 39.5q-25 -29 -65 -45.5t-88 -16.5q-29 0 -59 10t-54 29.5t-39.5 49.5t-15.5 71q0 42 15.5 72t39.5 48.5t54 27t59 8.5q48 0 88.5 -15t64.5 -44v65q0 37 -29 59t-77 22q-29 0 -56 -7t-52 -24q-12 -7 -23 -7
q-17 0 -32.5 13t-15.5 36q0 13 7 25q11 18 35 31t52.5 21t57 12t49.5 4q41 0 79 -9t67.5 -30.5t47 -56.5t17.5 -87v-255zM353 116v60q-16 21 -43.5 31.5t-58.5 10.5q-38 0 -64.5 -19t-26.5 -54q0 -34 26.5 -52.5t64.5 -18.5q31 0 58.5 10.5t43.5 31.5zM431 614q0 -13 -9 -22
q-30 -29 -68.5 -45t-83.5 -16t-83.5 16t-68.5 45q-9 9 -9 22q0 14 11 25t25 11q15 0 29 -11q19 -17 43 -26t53 -9q28 0 52 9.5t43 26.5q13 11 29 11q14 0 25.5 -11t11.5 -26z" />
    <glyph glyph-name="Aogonek" unicode="&#x104;" horiz-adv-x="684" 
d="M742 -133q0 -12 -8.5 -21.5t-21.5 -16.5t-28.5 -11t-28.5 -4q-40 0 -70 21t-30 69q0 26 10.5 49t30.5 43q-5 -1 -8.5 -1.5t-8.5 -0.5q-23 0 -41.5 12.5t-26.5 34.5l-26 72h-286l-27 -72q-8 -22 -27.5 -34.5t-42.5 -12.5q-34 0 -54.5 23.5t-20.5 52.5q0 16 5 27l195 501
q13 34 43.5 54.5t65.5 20.5q38 3 72.5 -17.5t48.5 -57.5l201 -519q3 -8 4.5 -15t1.5 -15q0 -19 -7.5 -35.5t-16.5 -33.5q-8 -16 -15 -33t-7 -37q0 -23 11.5 -33t25.5 -10t22.5 8t19.5 13q8 5 17 5q12 0 20 -7.5t8 -18.5zM446 238l-104 287l-104 -287h208z" />
    <glyph glyph-name="aogonek" unicode="&#x105;" horiz-adv-x="543" 
d="M534 -133q0 -12 -8.5 -21.5t-21.5 -16.5t-28.5 -11t-28.5 -4q-40 0 -70 21t-30 69q0 27 11 50t31 43q-17 5 -26.5 20t-9.5 33q-25 -29 -65 -45.5t-88 -16.5q-29 0 -59 10t-54 29.5t-39.5 49.5t-15.5 71q0 42 15.5 72t39.5 48.5t54 27t59 8.5q48 0 88.5 -15t64.5 -44v65
q0 37 -29 59t-77 22q-29 0 -56 -7t-52 -24q-12 -7 -23 -7q-17 0 -32.5 13t-15.5 36q0 13 7 25q11 18 35 31t52.5 21t57 12t49.5 4q41 0 79 -9t67.5 -30.5t47 -56.5t17.5 -87v-255q0 -16 -8 -32q-7 -13 -17.5 -24t-20.5 -24t-17 -29t-7 -38q0 -23 11.5 -33t25.5 -10t22.5 8
t19.5 13q8 5 17 5q12 0 20 -7.5t8 -18.5zM353 116v60q-16 21 -43.5 31.5t-58.5 10.5q-38 0 -64.5 -19t-26.5 -54q0 -34 26.5 -52.5t64.5 -18.5q31 0 58.5 10.5t43.5 31.5z" />
    <glyph glyph-name="Cacute" unicode="&#x106;" horiz-adv-x="687" 
d="M389 678q86 0 145.5 -32t97.5 -78q14 -17 14 -39q0 -27 -20 -45.5t-48 -18.5q-14 0 -27.5 6t-24.5 17q-29 30 -64 47t-73 17q-45 0 -83.5 -16.5t-66.5 -46t-43.5 -69.5t-15.5 -87t15.5 -87.5t43.5 -69.5t66.5 -45.5t83.5 -16.5q38 0 73.5 16t63.5 47q11 11 25 17t29 6
q27 0 46 -18t19 -44q0 -11 -3 -21t-11 -18q-38 -46 -97 -78.5t-145 -32.5q-75 0 -140 25t-112.5 70.5t-75 109t-27.5 140.5t27.5 140.5t75 109t112.5 70.5t140 25zM521 834q0 -17 -12 -27l-93 -82q-10 -8 -21 -8q-12 0 -22.5 9.5t-10.5 23.5q0 13 9 22l83 89q10 12 27 12
q15 0 27.5 -11t12.5 -28z" />
    <glyph glyph-name="cacute" unicode="&#x107;" horiz-adv-x="499" 
d="M461 77q0 -11 -5 -22t-15 -19q-26 -21 -64 -34.5t-89 -13.5q-56 0 -103 18.5t-81 52.5t-53 80.5t-19 102.5q0 55 19 101.5t53 80.5t81 52.5t103 18.5q28 0 54.5 -5t48.5 -13.5t38.5 -20.5t24.5 -27q6 -11 6 -23q0 -26 -19.5 -40t-40.5 -14q-19 0 -35 10t-34 15t-37 5
q-29 0 -53 -10t-41.5 -28.5t-27 -44.5t-9.5 -57q0 -32 9.5 -57.5t27 -44.5t41.5 -29t53 -10q39 0 72 21q16 10 34 10q23 0 42 -15t19 -40zM420 667q0 -17 -12 -27l-93 -82q-10 -8 -21 -8q-12 0 -22.5 9.5t-10.5 23.5q0 13 9 22l83 89q10 12 27 12q15 0 27.5 -11t12.5 -28z
" />
    <glyph glyph-name="Ccircumflex" unicode="&#x108;" horiz-adv-x="687" 
d="M389 678q86 0 145.5 -32t97.5 -78q14 -17 14 -39q0 -27 -20 -45.5t-48 -18.5q-14 0 -27.5 6t-24.5 17q-29 30 -64 47t-73 17q-45 0 -83.5 -16.5t-66.5 -46t-43.5 -69.5t-15.5 -87t15.5 -87.5t43.5 -69.5t66.5 -45.5t83.5 -16.5q38 0 73.5 16t63.5 47q11 11 25 17t29 6
q27 0 46 -18t19 -44q0 -11 -3 -21t-11 -18q-38 -46 -97 -78.5t-145 -32.5q-75 0 -140 25t-112.5 70.5t-75 109t-27.5 140.5t27.5 140.5t75 109t112.5 70.5t140 25zM518 767q0 -11 -9 -22.5t-25 -11.5t-25 13l-68 83l-67 -83q-11 -12 -25 -12t-24.5 9t-10.5 23q0 10 6 18
l40 62q13 20 34.5 32t47.5 12q24 0 45 -12t35 -32l41 -62q5 -6 5 -17z" />
    <glyph glyph-name="ccircumflex" unicode="&#x109;" horiz-adv-x="499" 
d="M461 77q0 -11 -5 -22t-15 -19q-26 -21 -64 -34.5t-89 -13.5q-56 0 -103 18.5t-81 52.5t-53 80.5t-19 102.5q0 55 19 101.5t53 80.5t81 52.5t103 18.5q28 0 54.5 -5t48.5 -13.5t38.5 -20.5t24.5 -27q6 -11 6 -23q0 -26 -19.5 -40t-40.5 -14q-19 0 -35 10t-34 15t-37 5
q-29 0 -53 -10t-41.5 -28.5t-27 -44.5t-9.5 -57q0 -32 9.5 -57.5t27 -44.5t41.5 -29t53 -10q39 0 72 21q16 10 34 10q23 0 42 -15t19 -40zM416 583q0 -11 -9 -22.5t-25 -11.5t-25 13l-68 83l-67 -83q-11 -12 -25 -12t-24.5 9t-10.5 23q0 10 6 18l40 62q13 20 34.5 32
t47.5 12q24 0 45 -12t35 -32l41 -62q5 -6 5 -17z" />
    <glyph glyph-name="Cdotaccent" unicode="&#x10a;" horiz-adv-x="687" 
d="M389 678q86 0 145.5 -32t97.5 -78q14 -17 14 -39q0 -27 -20 -45.5t-48 -18.5q-14 0 -27.5 6t-24.5 17q-29 30 -64 47t-73 17q-45 0 -83.5 -16.5t-66.5 -46t-43.5 -69.5t-15.5 -87t15.5 -87.5t43.5 -69.5t66.5 -45.5t83.5 -16.5q38 0 73.5 16t63.5 47q11 11 25 17t29 6
q27 0 46 -18t19 -44q0 -11 -3 -21t-11 -18q-38 -46 -97 -78.5t-145 -32.5q-75 0 -140 25t-112.5 70.5t-75 109t-27.5 140.5t27.5 140.5t75 109t112.5 70.5t140 25zM459 795q0 -29 -20 -48.5t-47 -19.5q-29 0 -48.5 19.5t-19.5 48.5q0 28 19.5 48t48.5 20q27 0 47 -20t20 -48
z" />
    <glyph glyph-name="cdotaccent" unicode="&#x10b;" horiz-adv-x="499" 
d="M461 77q0 -11 -5 -22t-15 -19q-26 -21 -64 -34.5t-89 -13.5q-56 0 -103 18.5t-81 52.5t-53 80.5t-19 102.5q0 55 19 101.5t53 80.5t81 52.5t103 18.5q28 0 54.5 -5t48.5 -13.5t38.5 -20.5t24.5 -27q6 -11 6 -23q0 -26 -19.5 -40t-40.5 -14q-19 0 -35 10t-34 15t-37 5
q-29 0 -53 -10t-41.5 -28.5t-27 -44.5t-9.5 -57q0 -32 9.5 -57.5t27 -44.5t41.5 -29t53 -10q39 0 72 21q16 10 34 10q23 0 42 -15t19 -40zM357 611q0 -29 -20 -48.5t-47 -19.5q-29 0 -48.5 19.5t-19.5 48.5q0 28 19.5 48t48.5 20q27 0 47 -20t20 -48z" />
    <glyph glyph-name="Ccaron" unicode="&#x10c;" horiz-adv-x="687" 
d="M389 678q86 0 145.5 -32t97.5 -78q14 -17 14 -39q0 -27 -20 -45.5t-48 -18.5q-14 0 -27.5 6t-24.5 17q-29 30 -64 47t-73 17q-45 0 -83.5 -16.5t-66.5 -46t-43.5 -69.5t-15.5 -87t15.5 -87.5t43.5 -69.5t66.5 -45.5t83.5 -16.5q38 0 73.5 16t63.5 47q11 11 25 17t29 6
q27 0 46 -18t19 -44q0 -11 -3 -21t-11 -18q-38 -46 -97 -78.5t-145 -32.5q-75 0 -140 25t-112.5 70.5t-75 109t-27.5 140.5t27.5 140.5t75 109t112.5 70.5t140 25zM517 839q0 -11 -5 -17l-41 -62q-14 -20 -35 -32t-47 -12q-24 0 -45.5 12t-34.5 32l-40 62q-6 7 -6 17
q0 11 9 22t25 11q15 0 26 -12l67 -83l68 83q9 12 24 12q14 0 24.5 -9.5t10.5 -23.5z" />
    <glyph glyph-name="ccaron" unicode="&#x10d;" horiz-adv-x="499" 
d="M461 77q0 -11 -5 -22t-15 -19q-26 -21 -64 -34.5t-89 -13.5q-56 0 -103 18.5t-81 52.5t-53 80.5t-19 102.5q0 55 19 101.5t53 80.5t81 52.5t103 18.5q28 0 54.5 -5t48.5 -13.5t38.5 -20.5t24.5 -27q6 -11 6 -23q0 -26 -19.5 -40t-40.5 -14q-19 0 -35 10t-34 15t-37 5
q-29 0 -53 -10t-41.5 -28.5t-27 -44.5t-9.5 -57q0 -32 9.5 -57.5t27 -44.5t41.5 -29t53 -10q39 0 72 21q16 10 34 10q23 0 42 -15t19 -40zM421 672q0 -11 -5 -17l-41 -62q-14 -20 -35 -32t-47 -12q-24 0 -45.5 12t-34.5 32l-40 62q-6 7 -6 17q0 11 9 22t25 11q15 0 26 -12
l67 -83l68 83q9 12 24 12q14 0 24.5 -9.5t10.5 -23.5z" />
    <glyph glyph-name="Dcaron" unicode="&#x10e;" horiz-adv-x="718" 
d="M683 333q0 -75 -26 -136.5t-72.5 -105t-112 -67.5t-143.5 -24h-183q-33 0 -56.5 23.5t-23.5 56.5v507q0 33 23.5 56.5t56.5 23.5h183q78 0 143.5 -24t112 -67.5t72.5 -105.5t26 -137zM538 333q0 44 -13.5 82.5t-39.5 66.5t-65.5 44t-90.5 16h-121v-417h121q49 0 88 16.5
t66 45t41 66.5t14 80zM491 839q0 -11 -5 -17l-41 -62q-14 -20 -35 -32t-47 -12q-24 0 -45.5 12t-34.5 32l-40 62q-6 7 -6 17q0 11 9 22t25 11q15 0 26 -12l67 -83l68 83q9 12 24 12q14 0 24.5 -9.5t10.5 -23.5z" />
    <glyph glyph-name="dcaron" unicode="&#x10f;" horiz-adv-x="690" 
d="M523 57q0 -26 -18.5 -44.5t-46.5 -18.5q-26 0 -44.5 18.5t-18.5 44.5v5q-29 -36 -67 -55t-82 -19q-46 0 -85 17t-67.5 49t-45 79.5t-16.5 107.5q0 59 16 106t44.5 80t68 50.5t85.5 17.5q43 0 81.5 -18.5t67.5 -55.5v189q0 26 18.5 44.5t46.5 18.5q26 0 44.5 -18.5
t18.5 -44.5v-553zM395 156v171q-16 24 -47 39.5t-63 15.5q-27 0 -49.5 -10t-38.5 -29t-25 -45t-9 -57t9 -57t25 -44.5t38.5 -28.5t49.5 -10q32 0 63 15.5t47 39.5zM696 598q0 -39 -17.5 -74t-49.5 -62q-10 -8 -23 -8q-9 0 -18 7l-1 1q-7 9 -7 17q0 5 5 13q9 13 25.5 31
t21.5 39q-2 -1 -6 -1.5t-9 -0.5q-23 0 -38 15.5t-15 40.5q0 26 17.5 44.5t43.5 18.5q28 0 49.5 -21t21.5 -60z" />
    <glyph glyph-name="Dcroat" unicode="&#x110;" horiz-adv-x="742" 
d="M708 333q0 -75 -26 -136.5t-72.5 -105t-112 -67.5t-143.5 -24h-183q-33 0 -56.5 23.5t-23.5 56.5v197h-37q-22 0 -37 15.5t-15 38.5q0 21 15 36t37 15h37v205q0 33 23.5 56.5t56.5 23.5h183q78 0 143.5 -24t112 -67.5t72.5 -105.5t26 -137zM563 333q0 44 -13.5 82.5
t-39.5 66.5t-65.5 44t-90.5 16h-121v-160h104q21 0 36 -15t15 -38q0 -22 -15 -37t-36 -15h-104v-152h121q49 0 88 16.5t66 45t41 66.5t14 80z" />
    <glyph glyph-name="dcroat" unicode="&#x111;" horiz-adv-x="590" 
d="M587 563q0 -14 -10.5 -24.5t-24.5 -10.5h-29v-471q0 -26 -18.5 -44.5t-46.5 -18.5q-26 0 -44.5 18.5t-18.5 44.5v5q-29 -36 -67 -55t-82 -19q-46 0 -85 17t-67.5 49t-45 79.5t-16.5 107.5q0 59 16 106t44.5 80t68 50.5t85.5 17.5q43 0 81.5 -18.5t67.5 -55.5v107h-116
q-14 0 -24.5 10.5t-10.5 26.5q0 14 10.5 24.5t24.5 10.5h116v10q0 26 18.5 44.5t46.5 18.5q26 0 44.5 -18.5t18.5 -44.5v-10h29q14 0 24.5 -10.5t10.5 -26.5zM395 156v171q-16 24 -47 39.5t-63 15.5q-27 0 -49.5 -10t-38.5 -29t-25 -45t-9 -57t9 -57t25 -44.5t38.5 -28.5
t49.5 -10q32 0 63 15.5t47 39.5z" />
    <glyph glyph-name="Emacron" unicode="&#x112;" horiz-adv-x="583" 
d="M544 64q0 -27 -18 -45.5t-43 -18.5h-337q-33 0 -56.5 23.5t-23.5 56.5v507q0 33 23.5 56.5t56.5 23.5h337q25 0 43 -18.5t18 -44.5t-18 -44t-43 -18h-275v-141h268q25 0 43 -18.5t18 -44.5t-18 -44t-43 -18h-268v-151h275q25 0 43 -18t18 -43zM482 766q0 -16 -10.5 -26.5
t-24.5 -10.5h-293q-14 0 -24.5 10.5t-10.5 26.5q0 14 10.5 24.5t24.5 10.5h293q14 0 24.5 -10.5t10.5 -24.5z" />
    <glyph glyph-name="emacron" unicode="&#x113;" horiz-adv-x="553" 
d="M522 259q0 -23 -17 -40.5t-42 -17.5h-298q3 -23 13.5 -43.5t28 -35.5t42 -24t55.5 -9q20 0 45.5 6t48.5 18q12 6 25 6q20 0 37 -14t17 -37q0 -25 -22 -38q-36 -22 -78.5 -32t-86.5 -10q-55 0 -102.5 18t-82 51t-54 80t-19.5 105q0 52 18.5 98.5t51.5 80.5t79 54t101 20
q41 0 76.5 -11.5t64.5 -32.5t50.5 -51.5t34.5 -67.5q5 -17 9.5 -36t4.5 -37zM401 287q-1 17 -8 36t-21 34.5t-36.5 26t-53.5 10.5q-30 0 -51.5 -10t-35.5 -25.5t-22 -34.5t-10 -37h238zM463 599q0 -16 -10.5 -26.5t-24.5 -10.5h-293q-14 0 -24.5 10.5t-10.5 26.5
q0 14 10.5 24.5t24.5 10.5h293q14 0 24.5 -10.5t10.5 -24.5z" />
    <glyph glyph-name="Ebreve" unicode="&#x114;" horiz-adv-x="583" 
d="M544 64q0 -27 -18 -45.5t-43 -18.5h-337q-33 0 -56.5 23.5t-23.5 56.5v507q0 33 23.5 56.5t56.5 23.5h337q25 0 43 -18.5t18 -44.5t-18 -44t-43 -18h-275v-141h268q25 0 43 -18.5t18 -44.5t-18 -44t-43 -18h-268v-151h275q25 0 43 -18t18 -43zM468 798q0 -13 -9 -22
q-30 -29 -68.5 -45t-83.5 -16t-83.5 16t-68.5 45q-9 9 -9 22q0 14 11 25t25 11q15 0 29 -11q19 -17 43 -26t53 -9q28 0 52 9.5t43 26.5q13 11 29 11q14 0 25.5 -11t11.5 -26z" />
    <glyph glyph-name="ebreve" unicode="&#x115;" horiz-adv-x="553" 
d="M522 259q0 -23 -17 -40.5t-42 -17.5h-298q3 -23 13.5 -43.5t28 -35.5t42 -24t55.5 -9q20 0 45.5 6t48.5 18q12 6 25 6q20 0 37 -14t17 -37q0 -25 -22 -38q-36 -22 -78.5 -32t-86.5 -10q-55 0 -102.5 18t-82 51t-54 80t-19.5 105q0 52 18.5 98.5t51.5 80.5t79 54t101 20
q41 0 76.5 -11.5t64.5 -32.5t50.5 -51.5t34.5 -67.5q5 -17 9.5 -36t4.5 -37zM401 287q-1 17 -8 36t-21 34.5t-36.5 26t-53.5 10.5q-30 0 -51.5 -10t-35.5 -25.5t-22 -34.5t-10 -37h238zM437 614q0 -13 -9 -22q-30 -29 -68.5 -45t-83.5 -16t-83.5 16t-68.5 45q-9 9 -9 22
q0 14 11 25t25 11q15 0 29 -11q19 -17 43 -26t53 -9q28 0 52 9.5t43 26.5q13 11 29 11q14 0 25.5 -11t11.5 -26z" />
    <glyph glyph-name="Edotaccent" unicode="&#x116;" horiz-adv-x="583" 
d="M544 64q0 -27 -18 -45.5t-43 -18.5h-337q-33 0 -56.5 23.5t-23.5 56.5v507q0 33 23.5 56.5t56.5 23.5h337q25 0 43 -18.5t18 -44.5t-18 -44t-43 -18h-275v-141h268q25 0 43 -18.5t18 -44.5t-18 -44t-43 -18h-268v-151h275q25 0 43 -18t18 -43zM370 778q0 -29 -20 -48.5
t-47 -19.5q-29 0 -48.5 19.5t-19.5 48.5q0 28 19.5 48t48.5 20q27 0 47 -20t20 -48z" />
    <glyph glyph-name="edotaccent" unicode="&#x117;" horiz-adv-x="553" 
d="M522 259q0 -23 -17 -40.5t-42 -17.5h-298q3 -23 13.5 -43.5t28 -35.5t42 -24t55.5 -9q20 0 45.5 6t48.5 18q12 6 25 6q20 0 37 -14t17 -37q0 -25 -22 -38q-36 -22 -78.5 -32t-86.5 -10q-55 0 -102.5 18t-82 51t-54 80t-19.5 105q0 52 18.5 98.5t51.5 80.5t79 54t101 20
q41 0 76.5 -11.5t64.5 -32.5t50.5 -51.5t34.5 -67.5q5 -17 9.5 -36t4.5 -37zM401 287q-1 17 -8 36t-21 34.5t-36.5 26t-53.5 10.5q-30 0 -51.5 -10t-35.5 -25.5t-22 -34.5t-10 -37h238zM352 611q0 -29 -20 -48.5t-47 -19.5q-29 0 -48.5 19.5t-19.5 48.5q0 28 19.5 48
t48.5 20q27 0 47 -20t20 -48z" />
    <glyph glyph-name="Eogonek" unicode="&#x118;" horiz-adv-x="583" 
d="M592 -133q0 -12 -8.5 -21.5t-21.5 -16.5t-28.5 -11t-28.5 -4q-40 0 -70 21t-30 69q0 28 11.5 52t33.5 44h-304q-33 0 -56.5 23.5t-23.5 56.5v507q0 33 23.5 56.5t56.5 23.5h337q25 0 43 -18.5t18 -44.5t-18 -44t-43 -18h-275v-141h268q25 0 43 -18.5t18 -44.5t-18 -44
t-43 -18h-268v-151h275q25 0 43 -18t18 -43q0 -21 -10 -36.5t-23 -30.5q-15 -18 -29 -38t-14 -49q0 -23 11.5 -33t25.5 -10t22.5 8t19.5 13q8 5 17 5q12 0 20 -7.5t8 -18.5z" />
    <glyph glyph-name="eogonek" unicode="&#x119;" horiz-adv-x="553" 
d="M522 259q0 -23 -17 -40.5t-42 -17.5h-298q3 -23 13.5 -43.5t28 -35.5t42 -24t55.5 -9q20 0 45.5 6t48.5 18q12 6 25 6q20 0 37 -14t17 -37q0 -16 -10.5 -27.5t-25 -19t-30.5 -12.5t-27 -9q-9 -3 -21.5 -10.5t-23.5 -19t-18.5 -27t-7.5 -33.5q0 -23 11.5 -33t25.5 -10
t22.5 8t19.5 13q8 5 17 5q12 0 20 -7.5t8 -18.5q0 -12 -8.5 -21.5t-21.5 -16.5t-28.5 -11t-28.5 -4q-40 0 -70 21t-30 69q0 24 8 45t25 39q-54 1 -100 19.5t-79.5 51.5t-52.5 79.5t-19 103.5q0 52 18.5 98.5t51.5 80.5t79 54t101 20q48 0 91.5 -17.5t76.5 -49t52.5 -74.5
t19.5 -95zM401 287q-1 17 -8 36t-21 34.5t-36.5 26t-53.5 10.5q-30 0 -51.5 -10t-35.5 -25.5t-22 -34.5t-10 -37h238z" />
    <glyph glyph-name="Ecaron" unicode="&#x11a;" horiz-adv-x="583" 
d="M544 64q0 -27 -18 -45.5t-43 -18.5h-337q-33 0 -56.5 23.5t-23.5 56.5v507q0 33 23.5 56.5t56.5 23.5h337q25 0 43 -18.5t18 -44.5t-18 -44t-43 -18h-275v-141h268q25 0 43 -18.5t18 -44.5t-18 -44t-43 -18h-268v-151h275q25 0 43 -18t18 -43zM432 839q0 -11 -5 -17
l-41 -62q-14 -20 -35 -32t-47 -12q-24 0 -45.5 12t-34.5 32l-40 62q-6 7 -6 17q0 11 9 22t25 11q15 0 26 -12l67 -83l68 83q9 12 24 12q14 0 24.5 -9.5t10.5 -23.5z" />
    <glyph glyph-name="ecaron" unicode="&#x11b;" horiz-adv-x="553" 
d="M522 259q0 -23 -17 -40.5t-42 -17.5h-298q3 -23 13.5 -43.5t28 -35.5t42 -24t55.5 -9q20 0 45.5 6t48.5 18q12 6 25 6q20 0 37 -14t17 -37q0 -25 -22 -38q-36 -22 -78.5 -32t-86.5 -10q-55 0 -102.5 18t-82 51t-54 80t-19.5 105q0 52 18.5 98.5t51.5 80.5t79 54t101 20
q41 0 76.5 -11.5t64.5 -32.5t50.5 -51.5t34.5 -67.5q5 -17 9.5 -36t4.5 -37zM401 287q-1 17 -8 36t-21 34.5t-36.5 26t-53.5 10.5q-30 0 -51.5 -10t-35.5 -25.5t-22 -34.5t-10 -37h238zM411 672q0 -11 -5 -17l-41 -62q-14 -20 -35 -32t-47 -12q-24 0 -45.5 12t-34.5 32
l-40 62q-6 7 -6 17q0 11 9 22t25 11q15 0 26 -12l67 -83l68 83q9 12 24 12q14 0 24.5 -9.5t10.5 -23.5z" />
    <glyph glyph-name="Gcircumflex" unicode="&#x11c;" horiz-adv-x="720" 
d="M673 176q0 -45 -25.5 -80.5t-66 -59.5t-91 -36.5t-101.5 -12.5q-73 0 -137.5 24.5t-113 69.5t-76.5 109t-28 143t28 143t76.5 109t113 69t137.5 24q81 0 139.5 -28t97.5 -70q8 -9 12.5 -20.5t4.5 -22.5q0 -26 -20.5 -45t-46.5 -19q-28 0 -48 20q-29 28 -65 43.5t-74 15.5
q-45 0 -83.5 -16.5t-66.5 -46t-43.5 -69.5t-15.5 -87t15.5 -87.5t43.5 -69.5t66.5 -45.5t83.5 -16.5q22 0 43 4.5t40 11.5t34 16.5t25 18.5v80h-121q-26 0 -43.5 18t-17.5 45q0 26 17.5 43.5t43.5 17.5h183q33 0 56.5 -23.5t23.5 -56.5v-113v0zM519 767q0 -11 -9 -22.5
t-25 -11.5t-25 13l-68 83l-67 -83q-11 -12 -25 -12t-24.5 9t-10.5 23q0 10 6 18l40 62q13 20 34.5 32t47.5 12q24 0 45 -12t35 -32l41 -62q5 -6 5 -17z" />
    <glyph glyph-name="gcircumflex" unicode="&#x11d;" horiz-adv-x="585" 
d="M522 33q0 -69 -24 -113.5t-62 -70t-84 -35.5t-91 -10q-22 0 -50 3t-55 10t-49 18.5t-33 28.5q-8 13 -8 28q0 23 16 38t37 15q14 0 27 -7q26 -16 54.5 -23t60.5 -7q23 0 46.5 5.5t43 19.5t31.5 37.5t12 59.5v49q-29 -36 -66.5 -56t-82.5 -20t-84 16t-67.5 47t-45 77
t-16.5 106q0 59 16 105t44.5 77.5t67.5 47.5t85 16q44 0 82 -18.5t67 -55.5v5q0 26 18.5 44.5t46.5 18.5q26 0 44.5 -18.5t18.5 -44.5v-393zM394 171v156q-8 12 -20 22t-26.5 17.5t-30.5 11.5t-32 4q-27 0 -49.5 -9t-38.5 -26.5t-25 -42t-9 -55.5t9 -55.5t25 -42t38.5 -26.5
t49.5 -9q16 0 32 4t30.5 11.5t26.5 17.5t20 22zM419 583q0 -11 -9 -22.5t-25 -11.5t-25 13l-68 83l-67 -83q-11 -12 -25 -12t-24.5 9t-10.5 23q0 10 6 18l40 62q13 20 34.5 32t47.5 12q24 0 45 -12t35 -32l41 -62q5 -6 5 -17z" />
    <glyph glyph-name="Gbreve" unicode="&#x11e;" horiz-adv-x="720" 
d="M673 176q0 -45 -25.5 -80.5t-66 -59.5t-91 -36.5t-101.5 -12.5q-73 0 -137.5 24.5t-113 69.5t-76.5 109t-28 143t28 143t76.5 109t113 69t137.5 24q81 0 139.5 -28t97.5 -70q8 -9 12.5 -20.5t4.5 -22.5q0 -26 -20.5 -45t-46.5 -19q-28 0 -48 20q-29 28 -65 43.5t-74 15.5
q-45 0 -83.5 -16.5t-66.5 -46t-43.5 -69.5t-15.5 -87t15.5 -87.5t43.5 -69.5t66.5 -45.5t83.5 -16.5q22 0 43 4.5t40 11.5t34 16.5t25 18.5v80h-121q-26 0 -43.5 18t-17.5 45q0 26 17.5 43.5t43.5 17.5h183q33 0 56.5 -23.5t23.5 -56.5v-113v0zM553 798q0 -13 -9 -22
q-30 -29 -68.5 -45t-83.5 -16t-83.5 16t-68.5 45q-9 9 -9 22q0 14 11 25t25 11q15 0 29 -11q19 -17 43 -26t53 -9q28 0 52 9.5t43 26.5q13 11 29 11q14 0 25.5 -11t11.5 -26z" />
    <glyph glyph-name="gbreve" unicode="&#x11f;" horiz-adv-x="585" 
d="M522 33q0 -69 -24 -113.5t-62 -70t-84 -35.5t-91 -10q-22 0 -50 3t-55 10t-49 18.5t-33 28.5q-8 13 -8 28q0 23 16 38t37 15q14 0 27 -7q26 -16 54.5 -23t60.5 -7q23 0 46.5 5.5t43 19.5t31.5 37.5t12 59.5v49q-29 -36 -66.5 -56t-82.5 -20t-84 16t-67.5 47t-45 77
t-16.5 106q0 59 16 105t44.5 77.5t67.5 47.5t85 16q44 0 82 -18.5t67 -55.5v5q0 26 18.5 44.5t46.5 18.5q26 0 44.5 -18.5t18.5 -44.5v-393zM394 171v156q-8 12 -20 22t-26.5 17.5t-30.5 11.5t-32 4q-27 0 -49.5 -9t-38.5 -26.5t-25 -42t-9 -55.5t9 -55.5t25 -42t38.5 -26.5
t49.5 -9q16 0 32 4t30.5 11.5t26.5 17.5t20 22zM453 614q0 -13 -9 -22q-30 -29 -68.5 -45t-83.5 -16t-83.5 16t-68.5 45q-9 9 -9 22q0 14 11 25t25 11q15 0 29 -11q19 -17 43 -26t53 -9q28 0 52 9.5t43 26.5q13 11 29 11q14 0 25.5 -11t11.5 -26z" />
    <glyph glyph-name="Gdotaccent" unicode="&#x120;" horiz-adv-x="720" 
d="M673 176q0 -45 -25.5 -80.5t-66 -59.5t-91 -36.5t-101.5 -12.5q-73 0 -137.5 24.5t-113 69.5t-76.5 109t-28 143t28 143t76.5 109t113 69t137.5 24q81 0 139.5 -28t97.5 -70q8 -9 12.5 -20.5t4.5 -22.5q0 -26 -20.5 -45t-46.5 -19q-28 0 -48 20q-29 28 -65 43.5t-74 15.5
q-45 0 -83.5 -16.5t-66.5 -46t-43.5 -69.5t-15.5 -87t15.5 -87.5t43.5 -69.5t66.5 -45.5t83.5 -16.5q22 0 43 4.5t40 11.5t34 16.5t25 18.5v80h-121q-26 0 -43.5 18t-17.5 45q0 26 17.5 43.5t43.5 17.5h183q33 0 56.5 -23.5t23.5 -56.5v-113v0zM459 795q0 -29 -20 -48.5
t-47 -19.5q-29 0 -48.5 19.5t-19.5 48.5q0 28 19.5 48t48.5 20q27 0 47 -20t20 -48z" />
    <glyph glyph-name="gdotaccent" unicode="&#x121;" horiz-adv-x="585" 
d="M522 33q0 -69 -24 -113.5t-62 -70t-84 -35.5t-91 -10q-22 0 -50 3t-55 10t-49 18.5t-33 28.5q-8 13 -8 28q0 23 16 38t37 15q14 0 27 -7q26 -16 54.5 -23t60.5 -7q23 0 46.5 5.5t43 19.5t31.5 37.5t12 59.5v49q-29 -36 -66.5 -56t-82.5 -20t-84 16t-67.5 47t-45 77
t-16.5 106q0 59 16 105t44.5 77.5t67.5 47.5t85 16q44 0 82 -18.5t67 -55.5v5q0 26 18.5 44.5t46.5 18.5q26 0 44.5 -18.5t18.5 -44.5v-393zM394 171v156q-8 12 -20 22t-26.5 17.5t-30.5 11.5t-32 4q-27 0 -49.5 -9t-38.5 -26.5t-25 -42t-9 -55.5t9 -55.5t25 -42t38.5 -26.5
t49.5 -9q16 0 32 4t30.5 11.5t26.5 17.5t20 22zM360 611q0 -29 -20 -48.5t-47 -19.5q-29 0 -48.5 19.5t-19.5 48.5q0 28 19.5 48t48.5 20q27 0 47 -20t20 -48z" />
    <glyph glyph-name="Gcommaaccent" unicode="&#x122;" horiz-adv-x="720" 
d="M673 176q0 -45 -25.5 -80.5t-66 -59.5t-91 -36.5t-101.5 -12.5q-73 0 -137.5 24.5t-113 69.5t-76.5 109t-28 143t28 143t76.5 109t113 69t137.5 24q81 0 139.5 -28t97.5 -70q8 -9 12.5 -20.5t4.5 -22.5q0 -26 -20.5 -45t-46.5 -19q-28 0 -48 20q-29 28 -65 43.5t-74 15.5
q-45 0 -83.5 -16.5t-66.5 -46t-43.5 -69.5t-15.5 -87t15.5 -87.5t43.5 -69.5t66.5 -45.5t83.5 -16.5q22 0 43 4.5t40 11.5t34 16.5t25 18.5v80h-121q-26 0 -43.5 18t-17.5 45q0 26 17.5 43.5t43.5 17.5h183q33 0 56.5 -23.5t23.5 -56.5v-113v0zM461 -138q0 -39 -17.5 -74
t-49.5 -62q-10 -8 -23 -8q-9 0 -18 7l-1 1q-7 9 -7 17q0 5 5 13q9 13 25.5 31t21.5 39q-2 -1 -6 -1.5t-9 -0.5q-23 0 -38 15.5t-15 40.5q0 26 17.5 44.5t43.5 18.5q28 0 49.5 -21t21.5 -60z" />
    <glyph glyph-name="gcommaaccent" unicode="&#x123;" horiz-adv-x="585" 
d="M522 33q0 -69 -24 -113.5t-62 -70t-84 -35.5t-91 -10q-22 0 -50 3t-55 10t-49 18.5t-33 28.5q-8 13 -8 28q0 23 16 38t37 15q14 0 27 -7q26 -16 54.5 -23t60.5 -7q23 0 46.5 5.5t43 19.5t31.5 37.5t12 59.5v49q-29 -36 -66.5 -56t-82.5 -20t-84 16t-67.5 47t-45 77
t-16.5 106q0 59 16 105t44.5 77.5t67.5 47.5t85 16q44 0 82 -18.5t67 -55.5v5q0 26 18.5 44.5t46.5 18.5q26 0 44.5 -18.5t18.5 -44.5v-393zM394 171v156q-8 12 -20 22t-26.5 17.5t-30.5 11.5t-32 4q-27 0 -49.5 -9t-38.5 -26.5t-25 -42t-9 -55.5t9 -55.5t25 -42t38.5 -26.5
t49.5 -9q16 0 32 4t30.5 11.5t26.5 17.5t20 22zM225 616q0 39 17.5 74t49.5 62q10 8 23 8q9 0 18 -7l1 -1q7 -9 7 -17q0 -5 -5 -13q-9 -13 -25.5 -31t-21.5 -39q2 1 6 1.5t9 0.5q23 0 38 -15.5t15 -40.5q0 -26 -17.5 -44.5t-43.5 -18.5q-28 0 -49.5 21t-21.5 60z" />
    <glyph glyph-name="Hcircumflex" unicode="&#x124;" horiz-adv-x="731" 
d="M666 65q0 -29 -21 -50t-51 -21q-29 0 -50 21t-21 50v215h-315v-216q0 -29 -21 -49.5t-51 -20.5q-29 0 -49.5 20.5t-20.5 49.5v539q0 29 21 49.5t51 20.5q29 0 49.5 -20.5t20.5 -49.5v-198h315v198q0 29 21 49.5t52 20.5q29 0 49.5 -20.5t20.5 -49.5v-538v0zM492 767
q0 -11 -9 -22.5t-25 -11.5t-25 13l-68 83l-67 -83q-11 -12 -25 -12t-24.5 9t-10.5 23q0 10 6 18l40 62q13 20 34.5 32t47.5 12q24 0 45 -12t35 -32l41 -62q5 -6 5 -17z" />
    <glyph glyph-name="hcircumflex" unicode="&#x125;" horiz-adv-x="580" 
d="M517 57q0 -26 -18.5 -44.5t-45.5 -18.5q-26 0 -44.5 18.5t-18.5 44.5v237q0 25 -6.5 42t-18 27t-28 14.5t-37.5 4.5q-18 0 -34.5 -5t-30.5 -13t-25.5 -18t-19.5 -21v-268q0 -26 -18.5 -44.5t-45.5 -18.5q-26 0 -44.5 18.5t-18.5 44.5v554q0 26 18.5 44t46.5 18
q26 0 44 -18t18 -44v-191q12 14 28.5 27.5t38.5 24t47.5 17t55.5 6.5q80 0 118.5 -40.5t38.5 -111.5v-286v0zM417 750q0 -11 -9 -22.5t-25 -11.5t-25 13l-68 83l-67 -83q-11 -12 -25 -12t-24.5 9t-10.5 23q0 10 6 18l40 62q13 20 34.5 32t47.5 12q24 0 45 -12t35 -32l41 -62
q5 -6 5 -17z" />
    <glyph glyph-name="Hbar" unicode="&#x126;" horiz-adv-x="731" 
d="M723 520q0 -16 -10.5 -26.5t-24.5 -10.5h-22v-418q0 -29 -21 -50t-51 -21q-29 0 -50 21t-21 50v215h-315v-216q0 -29 -21 -49.5t-51 -20.5q-29 0 -49.5 20.5t-20.5 49.5v419h-23q-14 0 -24.5 10.5t-10.5 26.5q0 14 10.5 24.5t24.5 10.5h23v48q0 29 21 49.5t51 20.5
q29 0 49.5 -20.5t20.5 -49.5v-48h315v48q0 29 21 49.5t52 20.5q29 0 49.5 -20.5t20.5 -49.5v-48h22q14 0 24.5 -10.5t10.5 -24.5zM523 405v78h-315v-78h315z" />
    <glyph glyph-name="hbar" unicode="&#x127;" horiz-adv-x="580" 
d="M351 565q0 -16 -10.5 -26.5t-24.5 -10.5h-126v-108q12 14 28.5 27.5t38.5 24t47.5 17t55.5 6.5q80 0 118.5 -40.5t38.5 -111.5v-286q0 -26 -18.5 -44.5t-45.5 -18.5q-26 0 -44.5 18.5t-18.5 44.5v237q0 25 -6.5 42t-18 27t-28 14.5t-37.5 4.5q-18 0 -34.5 -5t-30.5 -13
t-25.5 -18t-19.5 -21v-268q0 -26 -18.5 -44.5t-45.5 -18.5q-26 0 -44.5 18.5t-18.5 44.5v471h-24q-14 0 -24.5 10.5t-10.5 26.5q0 14 10.5 24.5t24.5 10.5h24v11q0 26 18.5 44t46.5 18q26 0 44 -18t18 -44v-11h126q14 0 24.5 -10.5t10.5 -24.5z" />
    <glyph glyph-name="Itilde" unicode="&#x128;" horiz-adv-x="274" 
d="M208 64q0 -29 -21 -49.5t-51 -20.5q-29 0 -49.5 20.5t-20.5 49.5v539q0 29 21 49.5t51 20.5q29 0 49.5 -20.5t20.5 -49.5v-539v0zM299 846q0 -12 -4.5 -30.5t-16.5 -35.5t-32.5 -29.5t-51.5 -12.5q-26 0 -42 10.5t-28 23.5t-22.5 23.5t-24.5 10.5q-11 0 -19.5 -8
t-13.5 -28q-3 -14 -14.5 -23t-25.5 -9q-13 0 -20.5 9.5t-7.5 22.5q0 12 4.5 30.5t16.5 35.5t32.5 29.5t52.5 12.5q25 0 40.5 -10.5t27.5 -23t23 -23t25 -10.5q11 0 19.5 8t13.5 27q3 14 14 23t25 9t21.5 -9.5t7.5 -22.5z" />
    <glyph glyph-name="itilde" unicode="&#x129;" horiz-adv-x="253" 
d="M190 57q0 -26 -18.5 -44.5t-45.5 -18.5q-26 0 -44.5 18.5t-18.5 44.5v370q0 26 18.5 44t46.5 18q26 0 44 -18t18 -44v-370v0zM288 662q0 -12 -4.5 -30.5t-16.5 -35.5t-32.5 -29.5t-51.5 -12.5q-26 0 -42 10.5t-28 23.5t-22.5 23.5t-24.5 10.5q-11 0 -19.5 -8t-13.5 -28
q-3 -14 -14.5 -23t-25.5 -9q-13 0 -20.5 9.5t-7.5 22.5q0 12 4.5 30.5t16.5 35.5t32.5 29.5t52.5 12.5q25 0 40.5 -10.5t27.5 -23t23 -23t25 -10.5q11 0 19.5 8t13.5 27q3 14 14 23t25 9t21.5 -9.5t7.5 -22.5z" />
    <glyph glyph-name="Imacron" unicode="&#x12a;" horiz-adv-x="274" 
d="M208 64q0 -29 -21 -49.5t-51 -20.5q-29 0 -49.5 20.5t-20.5 49.5v539q0 29 21 49.5t51 20.5q29 0 49.5 -20.5t20.5 -49.5v-539v0zM320 766q0 -16 -10.5 -26.5t-24.5 -10.5h-293q-14 0 -24.5 10.5t-10.5 26.5q0 14 10.5 24.5t24.5 10.5h293q14 0 24.5 -10.5t10.5 -24.5z
" />
    <glyph glyph-name="imacron" unicode="&#x12b;" horiz-adv-x="253" 
d="M190 57q0 -26 -18.5 -44.5t-45.5 -18.5q-26 0 -44.5 18.5t-18.5 44.5v370q0 26 18.5 44t46.5 18q26 0 44 -18t18 -44v-370v0zM309 599q0 -16 -10.5 -26.5t-24.5 -10.5h-293q-14 0 -24.5 10.5t-10.5 26.5q0 14 10.5 24.5t24.5 10.5h293q14 0 24.5 -10.5t10.5 -24.5z" />
    <glyph glyph-name="Ibreve" unicode="&#x12c;" horiz-adv-x="274" 
d="M208 64q0 -29 -21 -49.5t-51 -20.5q-29 0 -49.5 20.5t-20.5 49.5v539q0 29 21 49.5t51 20.5q29 0 49.5 -20.5t20.5 -49.5v-539v0zM298 798q0 -13 -9 -22q-30 -29 -68.5 -45t-83.5 -16t-83.5 16t-68.5 45q-9 9 -9 22q0 14 11 25t25 11q15 0 29 -11q19 -17 43 -26t53 -9
q28 0 52 9.5t43 26.5q13 11 29 11q14 0 25.5 -11t11.5 -26z" />
    <glyph glyph-name="ibreve" unicode="&#x12d;" horiz-adv-x="253" 
d="M190 57q0 -26 -18.5 -44.5t-45.5 -18.5q-26 0 -44.5 18.5t-18.5 44.5v370q0 26 18.5 44t46.5 18q26 0 44 -18t18 -44v-370v0zM288 614q0 -13 -9 -22q-30 -29 -68.5 -45t-83.5 -16t-83.5 16t-68.5 45q-9 9 -9 22q0 14 11 25t25 11q15 0 29 -11q19 -17 43 -26t53 -9
q28 0 52 9.5t43 26.5q13 11 29 11q14 0 25.5 -11t11.5 -26z" />
    <glyph glyph-name="Iogonek" unicode="&#x12e;" horiz-adv-x="274" 
d="M262 -133q0 -12 -8.5 -21.5t-21.5 -16.5t-28.5 -11t-28.5 -4q-40 0 -70 21t-30 69q0 27 11 50t31 43q-22 6 -36.5 24.5t-14.5 42.5v539q0 29 21 49.5t51 20.5q29 0 49.5 -20.5t20.5 -49.5v-539q0 -13 -3.5 -23t-8.5 -19q-8 -13 -18 -24t-19 -24t-15 -28t-6 -36
q0 -23 11.5 -33t25.5 -10t22.5 8t19.5 13q8 5 17 5q12 0 20 -7.5t8 -18.5z" />
    <glyph glyph-name="iogonek" unicode="&#x12f;" horiz-adv-x="253" 
d="M126 686q32 0 54 -21.5t22 -53.5t-22 -54t-54 -22q-31 0 -53.5 22t-22.5 54t22.5 53.5t53.5 21.5zM244 -133q0 -12 -8.5 -21.5t-21.5 -16.5t-28.5 -11t-28.5 -4q-40 0 -70 21t-30 69q0 28 11.5 51.5t32.5 43.5q-17 7 -27.5 22.5t-10.5 35.5v370q0 26 18.5 44t46.5 18
q26 0 44 -18t18 -44v-370q0 -9 -2 -16.5t-6 -15.5q-7 -13 -17.5 -24t-20.5 -24t-17 -29t-7 -38q0 -23 11.5 -33t25.5 -10t22.5 8t19.5 13q8 5 17 5q12 0 20 -7.5t8 -18.5z" />
    <glyph glyph-name="Idotaccent" unicode="&#x130;" horiz-adv-x="274" 
d="M208 64q0 -29 -21 -49.5t-51 -20.5q-29 0 -49.5 20.5t-20.5 49.5v539q0 29 21 49.5t51 20.5q29 0 49.5 -20.5t20.5 -49.5v-539v0zM204 795q0 -29 -20 -48.5t-47 -19.5q-29 0 -48.5 19.5t-19.5 48.5q0 28 19.5 48t48.5 20q27 0 47 -20t20 -48z" />
    <glyph glyph-name="dotlessi" unicode="&#x131;" horiz-adv-x="253" 
d="M190 57q0 -26 -18.5 -44.5t-45.5 -18.5q-26 0 -44.5 18.5t-18.5 44.5v370q0 26 18.5 44t46.5 18q26 0 44 -18t18 -44v-370v0z" />
    <glyph glyph-name="IJ" unicode="&#x132;" horiz-adv-x="760" 
d="M208 64q0 -29 -21 -49.5t-51 -20.5q-29 0 -49.5 20.5t-20.5 49.5v539q0 29 21 49.5t51 20.5q29 0 49.5 -20.5t20.5 -49.5v-539v0zM694 219q0 -59 -17.5 -102.5t-48.5 -72t-74.5 -42.5t-94.5 -14q-19 0 -42.5 2.5t-46 9.5t-41.5 17.5t-29 27.5q-8 13 -8 29q0 27 19.5 45
t44.5 18q8 0 17 -3q17 -5 35.5 -12.5t39.5 -7.5q48 0 76 29t28 78v382q0 29 21 49.5t51 20.5q29 0 49.5 -20.5t20.5 -49.5v-384v0z" />
    <glyph glyph-name="ij" unicode="&#x133;" horiz-adv-x="506" 
d="M126 686q32 0 54 -21.5t22 -53.5t-22 -54t-54 -22q-31 0 -53.5 22t-22.5 54t22.5 53.5t53.5 21.5zM190 57q0 -26 -18.5 -44.5t-45.5 -18.5q-26 0 -44.5 18.5t-18.5 44.5v370q0 26 18.5 44t46.5 18q26 0 44 -18t18 -44v-370zM379 686q32 0 54 -21.5t22 -53.5t-22 -54
t-54 -22q-31 0 -53.5 22t-22.5 54t22.5 53.5t53.5 21.5zM443 -13q0 -83 -42.5 -133t-129.5 -50q-27 0 -48.5 3t-36 10t-22 18.5t-7.5 27.5q0 22 15 36.5t35 14.5q11 0 18.5 -3t24.5 -3q29 0 47.5 19t18.5 60v440q0 26 18.5 44t46.5 18q26 0 44 -18t18 -44v-440z" />
    <glyph glyph-name="Jcircumflex" unicode="&#x134;" horiz-adv-x="486" 
d="M420 219q0 -59 -17.5 -102.5t-48.5 -72t-74.5 -42.5t-94.5 -14q-19 0 -42.5 2.5t-46 9.5t-41.5 17.5t-29 27.5q-8 13 -8 29q0 27 19.5 45t44.5 18q8 0 17 -3q17 -5 35.5 -12.5t39.5 -7.5q48 0 76 29t28 78v382q0 29 21 49.5t51 20.5q29 0 49.5 -20.5t20.5 -49.5v-384v0z
M478 767q0 -11 -9 -22.5t-25 -11.5t-25 13l-68 83l-67 -83q-11 -12 -25 -12t-24.5 9t-10.5 23q0 10 6 18l40 62q13 20 34.5 32t47.5 12q24 0 45 -12t35 -32l41 -62q5 -6 5 -17z" />
    <glyph glyph-name="jcircumflex" unicode="&#x135;" horiz-adv-x="253" 
d="M190 -13q0 -83 -42.5 -133t-129.5 -50q-27 0 -48.5 3t-36 10t-22 18.5t-7.5 27.5q0 22 15 36.5t35 14.5q11 0 18.5 -3t24.5 -3q29 0 47.5 19t18.5 60v440q0 26 18.5 44t46.5 18q26 0 44 -18t18 -44v-440zM254 583q0 -11 -9 -22.5t-25 -11.5t-25 13l-68 83l-67 -83
q-11 -12 -25 -12t-24.5 9t-10.5 23q0 10 6 18l40 62q13 20 34.5 32t47.5 12q24 0 45 -12t35 -32l41 -62q5 -6 5 -17z" />
    <glyph glyph-name="Kcommaaccent" unicode="&#x136;" horiz-adv-x="648" 
d="M569 63q0 -26 -20 -47.5t-49 -21.5q-16 0 -30 6.5t-24 20.5l-186 246l-52 -62v-141q0 -29 -21 -49.5t-51 -20.5q-29 0 -49.5 20.5t-20.5 49.5v539q0 29 21 49.5t51 20.5q29 0 49.5 -20.5t20.5 -49.5v-234l220 278q9 12 23 18t28 6q27 0 47.5 -19t20.5 -46q0 -24 -15 -42
l-178 -210l201 -251q14 -19 14 -40zM395 -138q0 -39 -17.5 -74t-49.5 -62q-10 -8 -23 -8q-9 0 -18 7l-1 1q-7 9 -7 17q0 5 5 13q9 13 25.5 31t21.5 39q-2 -1 -6 -1.5t-9 -0.5q-23 0 -38 15.5t-15 40.5q0 26 17.5 44.5t43.5 18.5q28 0 49.5 -21t21.5 -60z" />
    <glyph glyph-name="kcommaaccent" unicode="&#x137;" horiz-adv-x="535" 
d="M477 58q0 -23 -17.5 -43.5t-45.5 -20.5q-15 0 -29.5 6.5t-23.5 20.5l-113 165l-58 -62v-67q0 -26 -18.5 -44.5t-45.5 -18.5q-26 0 -44.5 18.5t-18.5 44.5v554q0 26 18.5 44t46.5 18q26 0 44 -18t18 -44v-343l171 202q17 20 43 20q24 0 42 -18t18 -42q0 -21 -14 -38
l-112 -128l127 -170q12 -17 12 -36zM339 -138q0 -39 -17.5 -74t-49.5 -62q-10 -8 -23 -8q-9 0 -18 7l-1 1q-7 9 -7 17q0 5 5 13q9 13 25.5 31t21.5 39q-2 -1 -6 -1.5t-9 -0.5q-23 0 -38 15.5t-15 40.5q0 26 17.5 44.5t43.5 18.5q28 0 49.5 -21t21.5 -60z" />
    <glyph glyph-name="Lacute" unicode="&#x139;" horiz-adv-x="523" 
d="M496 64q0 -27 -18 -45.5t-43 -18.5h-289q-33 0 -56.5 23.5t-23.5 56.5v523q0 29 21 49.5t51 20.5q29 0 49.5 -20.5t20.5 -49.5v-478h227q25 0 43 -18t18 -43zM410 834q0 -17 -12 -27l-93 -82q-10 -8 -21 -8q-12 0 -22.5 9.5t-10.5 23.5q0 13 9 22l83 89q10 12 27 12
q15 0 27.5 -11t12.5 -28z" />
    <glyph glyph-name="lacute" unicode="&#x13a;" horiz-adv-x="253" 
d="M190 57q0 -26 -18.5 -44.5t-45.5 -18.5q-26 0 -44.5 18.5t-18.5 44.5v554q0 26 18.5 44t46.5 18q26 0 44 -18t18 -44v-554v0zM259 834q0 -17 -12 -27l-93 -82q-10 -8 -21 -8q-12 0 -22.5 9.5t-10.5 23.5q0 13 9 22l83 89q10 12 27 12q15 0 27.5 -11t12.5 -28z" />
    <glyph glyph-name="Lcommaaccent" unicode="&#x13b;" horiz-adv-x="523" 
d="M496 64q0 -27 -18 -45.5t-43 -18.5h-289q-33 0 -56.5 23.5t-23.5 56.5v523q0 29 21 49.5t51 20.5q29 0 49.5 -20.5t20.5 -49.5v-478h227q25 0 43 -18t18 -43zM331 -138q0 -39 -17.5 -74t-49.5 -62q-10 -8 -23 -8q-9 0 -18 7l-1 1q-7 9 -7 17q0 5 5 13q9 13 25.5 31
t21.5 39q-2 -1 -6 -1.5t-9 -0.5q-23 0 -38 15.5t-15 40.5q0 26 17.5 44.5t43.5 18.5q28 0 49.5 -21t21.5 -60z" />
    <glyph glyph-name="lcommaaccent" unicode="&#x13c;" horiz-adv-x="253" 
d="M190 57q0 -26 -18.5 -44.5t-45.5 -18.5q-26 0 -44.5 18.5t-18.5 44.5v554q0 26 18.5 44t46.5 18q26 0 44 -18t18 -44v-554v0zM198 -138q0 -39 -17.5 -74t-49.5 -62q-10 -8 -23 -8q-9 0 -18 7l-1 1q-7 9 -7 17q0 5 5 13q9 13 25.5 31t21.5 39q-2 -1 -6 -1.5t-9 -0.5
q-23 0 -38 15.5t-15 40.5q0 26 17.5 44.5t43.5 18.5q28 0 49.5 -21t21.5 -60z" />
    <glyph glyph-name="Lcaron" unicode="&#x13d;" horiz-adv-x="523" 
d="M496 64q0 -27 -18 -45.5t-43 -18.5h-289q-33 0 -56.5 23.5t-23.5 56.5v523q0 29 21 49.5t51 20.5q29 0 49.5 -20.5t20.5 -49.5v-478h227q25 0 43 -18t18 -43zM421 599q0 -39 -17.5 -74t-49.5 -62q-10 -8 -23 -8q-9 0 -18 7l-1 1q-7 9 -7 17q0 5 5 13q9 13 25.5 31
t21.5 39q-2 -1 -6 -1.5t-9 -0.5q-23 0 -38 15.5t-15 40.5q0 26 17.5 44.5t43.5 18.5q28 0 49.5 -21t21.5 -60z" />
    <glyph glyph-name="lcaron" unicode="&#x13e;" horiz-adv-x="354" 
d="M190 57q0 -26 -18.5 -44.5t-45.5 -18.5q-26 0 -44.5 18.5t-18.5 44.5v554q0 26 18.5 44t46.5 18q26 0 44 -18t18 -44v-554v0zM373 599q0 -39 -17.5 -74t-49.5 -62q-10 -8 -23 -8q-9 0 -18 7l-1 1q-7 9 -7 17q0 5 5 13q9 13 25.5 31t21.5 39q-2 -1 -6 -1.5t-9 -0.5
q-23 0 -38 15.5t-15 40.5q0 26 17.5 44.5t43.5 18.5q28 0 49.5 -21t21.5 -60z" />
    <glyph glyph-name="Ldot" unicode="&#x13f;" horiz-adv-x="523" 
d="M496 64q0 -27 -18 -45.5t-43 -18.5h-289q-33 0 -56.5 23.5t-23.5 56.5v523q0 29 21 49.5t51 20.5q29 0 49.5 -20.5t20.5 -49.5v-478h227q25 0 43 -18t18 -43zM476 342q0 -16 -6.5 -30.5t-17.5 -25.5t-26 -17.5t-31 -6.5q-17 0 -31.5 6.5t-25.5 17.5t-17.5 25.5t-6.5 30.5
q0 33 24 57t57 24t57 -24t24 -57z" />
    <glyph glyph-name="ldot" unicode="&#x140;" horiz-adv-x="415" 
d="M190 57q0 -26 -18.5 -44.5t-45.5 -18.5q-26 0 -44.5 18.5t-18.5 44.5v554q0 26 18.5 44t46.5 18q26 0 44 -18t18 -44v-554v0zM415 244q0 -16 -6.5 -30.5t-17.5 -25.5t-26 -17.5t-31 -6.5q-17 0 -31.5 6.5t-25.5 17.5t-17.5 25.5t-6.5 30.5q0 33 24 57t57 24t57 -24
t24 -57z" />
    <glyph glyph-name="Lslash" unicode="&#x141;" horiz-adv-x="537" 
d="M510 62q0 -26 -18 -44t-43 -18h-289q-33 0 -56.5 23.5t-23.5 56.5v153l-5 -3q-11 -6 -23 -6q-19 0 -34.5 14t-15.5 37q0 14 6.5 25.5t18.5 18.5l53 30v254q0 29 21 49.5t51 20.5q29 0 49.5 -20.5t20.5 -49.5v-172l10 6q10 6 22 6q18 0 34.5 -14t16.5 -37q0 -14 -7 -25.5
t-19 -18.5l-57 -33v-190h227q25 0 43 -18.5t18 -44.5z" />
    <glyph glyph-name="lslash" unicode="&#x142;" horiz-adv-x="308" 
d="M305 398q0 -11 -5 -20.5t-15 -14.5l-67 -39v-267q0 -26 -18.5 -44.5t-45.5 -18.5q-26 0 -44.5 18.5t-18.5 44.5v194l-30 -17q-10 -5 -19 -5q-14 0 -27 11t-13 30q0 23 20 34l69 40v267q0 26 18.5 44t46.5 18q26 0 44 -18t18 -44v-194l29 17q10 5 18 5q15 0 27.5 -11.5
t12.5 -29.5z" />
    <glyph glyph-name="Nacute" unicode="&#x143;" horiz-adv-x="729" 
d="M663 80q0 -17 -6.5 -32.5t-18.5 -27.5t-28 -19t-35 -7q-20 0 -39 9.5t-32 26.5l-296 405v-371q0 -29 -21 -49.5t-51 -20.5q-29 0 -49.5 20.5t-20.5 49.5v518q0 18 7 34t19.5 29t29.5 20.5t37 7.5q23 0 43.5 -10t34.5 -29l284 -386v355q0 29 21 49.5t51 20.5
q29 0 49.5 -20.5t20.5 -49.5v-523v0zM497 834q0 -17 -12 -27l-93 -82q-10 -8 -21 -8q-12 0 -22.5 9.5t-10.5 23.5q0 13 9 22l83 89q10 12 27 12q15 0 27.5 -11t12.5 -28z" />
    <glyph glyph-name="nacute" unicode="&#x144;" 
d="M516 57q0 -26 -18.5 -44.5t-45.5 -18.5q-26 0 -44.5 18.5t-18.5 44.5v235q0 51 -24 70.5t-65 19.5q-19 0 -35.5 -5t-30.5 -13t-25 -18t-19 -21v-268q0 -26 -18.5 -44.5t-45.5 -18.5q-26 0 -44.5 18.5t-18.5 44.5v370q0 26 18.5 44t46.5 18q26 0 44 -18t18 -44v-7
q12 14 28.5 27.5t38 24t47 17t55.5 6.5q80 0 118.5 -41.5t38.5 -112.5v-284v0zM422 667q0 -17 -12 -27l-93 -82q-10 -8 -21 -8q-12 0 -22.5 9.5t-10.5 23.5q0 13 9 22l83 89q10 12 27 12q15 0 27.5 -11t12.5 -28z" />
    <glyph glyph-name="Ncommaaccent" unicode="&#x145;" horiz-adv-x="729" 
d="M663 80q0 -17 -6.5 -32.5t-18.5 -27.5t-28 -19t-35 -7q-20 0 -39 9.5t-32 26.5l-296 405v-371q0 -29 -21 -49.5t-51 -20.5q-29 0 -49.5 20.5t-20.5 49.5v518q0 18 7 34t19.5 29t29.5 20.5t37 7.5q23 0 43.5 -10t34.5 -29l284 -386v355q0 29 21 49.5t51 20.5
q29 0 49.5 -20.5t20.5 -49.5v-523v0zM436 -138q0 -39 -17.5 -74t-49.5 -62q-10 -8 -23 -8q-9 0 -18 7l-1 1q-7 9 -7 17q0 5 5 13q9 13 25.5 31t21.5 39q-2 -1 -6 -1.5t-9 -0.5q-23 0 -38 15.5t-15 40.5q0 26 17.5 44.5t43.5 18.5q28 0 49.5 -21t21.5 -60z" />
    <glyph glyph-name="ncommaaccent" unicode="&#x146;" 
d="M516 57q0 -26 -18.5 -44.5t-45.5 -18.5q-26 0 -44.5 18.5t-18.5 44.5v235q0 51 -24 70.5t-65 19.5q-19 0 -35.5 -5t-30.5 -13t-25 -18t-19 -21v-268q0 -26 -18.5 -44.5t-45.5 -18.5q-26 0 -44.5 18.5t-18.5 44.5v370q0 26 18.5 44t46.5 18q26 0 44 -18t18 -44v-7
q12 14 28.5 27.5t38 24t47 17t55.5 6.5q80 0 118.5 -41.5t38.5 -112.5v-284v0zM358 -138q0 -39 -17.5 -74t-49.5 -62q-10 -8 -23 -8q-9 0 -18 7l-1 1q-7 9 -7 17q0 5 5 13q9 13 25.5 31t21.5 39q-2 -1 -6 -1.5t-9 -0.5q-23 0 -38 15.5t-15 40.5q0 26 17.5 44.5t43.5 18.5
q28 0 49.5 -21t21.5 -60z" />
    <glyph glyph-name="Ncaron" unicode="&#x147;" horiz-adv-x="729" 
d="M663 80q0 -17 -6.5 -32.5t-18.5 -27.5t-28 -19t-35 -7q-20 0 -39 9.5t-32 26.5l-296 405v-371q0 -29 -21 -49.5t-51 -20.5q-29 0 -49.5 20.5t-20.5 49.5v518q0 18 7 34t19.5 29t29.5 20.5t37 7.5q23 0 43.5 -10t34.5 -29l284 -386v355q0 29 21 49.5t51 20.5
q29 0 49.5 -20.5t20.5 -49.5v-523v0zM492 839q0 -11 -5 -17l-41 -62q-14 -20 -35 -32t-47 -12q-24 0 -45.5 12t-34.5 32l-40 62q-6 7 -6 17q0 11 9 22t25 11q15 0 26 -12l67 -83l68 83q9 12 24 12q14 0 24.5 -9.5t10.5 -23.5z" />
    <glyph glyph-name="ncaron" unicode="&#x148;" 
d="M516 57q0 -26 -18.5 -44.5t-45.5 -18.5q-26 0 -44.5 18.5t-18.5 44.5v235q0 51 -24 70.5t-65 19.5q-19 0 -35.5 -5t-30.5 -13t-25 -18t-19 -21v-268q0 -26 -18.5 -44.5t-45.5 -18.5q-26 0 -44.5 18.5t-18.5 44.5v370q0 26 18.5 44t46.5 18q26 0 44 -18t18 -44v-7
q12 14 28.5 27.5t38 24t47 17t55.5 6.5q80 0 118.5 -41.5t38.5 -112.5v-284v0zM419 672q0 -11 -5 -17l-41 -62q-14 -20 -35 -32t-47 -12q-24 0 -45.5 12t-34.5 32l-40 62q-6 7 -6 17q0 11 9 22t25 11q15 0 26 -12l67 -83l68 83q9 12 24 12q14 0 24.5 -9.5t10.5 -23.5z" />
    <glyph glyph-name="Eng" unicode="&#x14a;" horiz-adv-x="729" 
d="M663 35q0 -59 -17.5 -102.5t-48.5 -72t-74.5 -42.5t-94.5 -14q-19 0 -42.5 2.5t-46 9.5t-41.5 17.5t-29 27.5q-8 13 -8 29q0 27 19.5 45t44.5 18q8 0 17 -3q17 -5 35.5 -12.5t39.5 -7.5q48 0 76 29q21 22 26 54q-8 8 -15 17l-296 405v-371q0 -29 -21 -49.5t-51 -20.5
q-29 0 -49.5 20.5t-20.5 49.5v518q0 18 7 34t19.5 29t29.5 20.5t37 7.5q23 0 43.5 -10t34.5 -29l284 -386v355q0 29 21 49.5t51 20.5q29 0 49.5 -20.5t20.5 -49.5v-568z" />
    <glyph glyph-name="eng" unicode="&#x14b;" 
d="M516 -13q0 -83 -42.5 -133t-129.5 -50q-27 0 -48.5 3t-36 10t-22 18.5t-7.5 27.5q0 22 15 36.5t35 14.5q11 0 18.5 -3t24.5 -3q29 0 47.5 19t18.5 60v305q0 51 -24 70.5t-65 19.5q-19 0 -35.5 -5t-30.5 -13t-25 -18t-19 -21v-268q0 -26 -18.5 -44.5t-45.5 -18.5
q-26 0 -44.5 18.5t-18.5 44.5v370q0 26 18.5 44t46.5 18q26 0 44 -18t18 -44v-7q12 14 28.5 27.5t38 24t47 17t55.5 6.5q80 0 118.5 -41.5t38.5 -112.5v-354z" />
    <glyph glyph-name="Omacron" unicode="&#x14c;" horiz-adv-x="765" 
d="M731 333q0 -75 -26 -138.5t-72.5 -109.5t-110.5 -71.5t-140 -25.5q-75 0 -139 25.5t-110.5 71.5t-72.5 109.5t-26 138.5t26 138.5t72.5 109.5t110.5 71.5t139 25.5q76 0 140 -25.5t110.5 -71.5t72.5 -109.5t26 -138.5zM585 333q0 47 -14.5 87t-41 69.5t-64 46t-83.5 16.5
t-83.5 -16.5t-63.5 -46t-40.5 -69.5t-14.5 -87t14.5 -87t40.5 -69t63.5 -46t83.5 -17t83.5 17t64 46t41 69t14.5 87zM563 766q0 -16 -10.5 -26.5t-24.5 -10.5h-293q-14 0 -24.5 10.5t-10.5 26.5q0 14 10.5 24.5t24.5 10.5h293q14 0 24.5 -10.5t10.5 -24.5z" />
    <glyph glyph-name="omacron" unicode="&#x14d;" horiz-adv-x="574" 
d="M543 242q0 -52 -17.5 -98t-50.5 -80.5t-80.5 -55t-107.5 -20.5t-107 20.5t-80 55t-50.5 80.5t-17.5 98q0 51 17.5 97t50.5 80.5t80 55t107 20.5t107.5 -20.5t80.5 -55t50.5 -80.5t17.5 -97zM411 242q0 28 -8.5 53.5t-24 44.5t-38.5 30.5t-53 11.5t-52.5 -11.5
t-38.5 -30.5t-24 -44.5t-8 -53.5q0 -29 8 -54.5t24 -44.5t38.5 -30.5t52.5 -11.5t53 11.5t38.5 30.5t24 44.5t8.5 54.5zM469 599q0 -16 -10.5 -26.5t-24.5 -10.5h-293q-14 0 -24.5 10.5t-10.5 26.5q0 14 10.5 24.5t24.5 10.5h293q14 0 24.5 -10.5t10.5 -24.5z" />
    <glyph glyph-name="Obreve" unicode="&#x14e;" horiz-adv-x="765" 
d="M731 333q0 -75 -26 -138.5t-72.5 -109.5t-110.5 -71.5t-140 -25.5q-75 0 -139 25.5t-110.5 71.5t-72.5 109.5t-26 138.5t26 138.5t72.5 109.5t110.5 71.5t139 25.5q76 0 140 -25.5t110.5 -71.5t72.5 -109.5t26 -138.5zM585 333q0 47 -14.5 87t-41 69.5t-64 46t-83.5 16.5
t-83.5 -16.5t-63.5 -46t-40.5 -69.5t-14.5 -87t14.5 -87t40.5 -69t63.5 -46t83.5 -17t83.5 17t64 46t41 69t14.5 87zM543 798q0 -13 -9 -22q-30 -29 -68.5 -45t-83.5 -16t-83.5 16t-68.5 45q-9 9 -9 22q0 14 11 25t25 11q15 0 29 -11q19 -17 43 -26t53 -9q28 0 52 9.5
t43 26.5q13 11 29 11q14 0 25.5 -11t11.5 -26z" />
    <glyph glyph-name="obreve" unicode="&#x14f;" horiz-adv-x="574" 
d="M543 242q0 -52 -17.5 -98t-50.5 -80.5t-80.5 -55t-107.5 -20.5t-107 20.5t-80 55t-50.5 80.5t-17.5 98q0 51 17.5 97t50.5 80.5t80 55t107 20.5t107.5 -20.5t80.5 -55t50.5 -80.5t17.5 -97zM411 242q0 28 -8.5 53.5t-24 44.5t-38.5 30.5t-53 11.5t-52.5 -11.5
t-38.5 -30.5t-24 -44.5t-8 -53.5q0 -29 8 -54.5t24 -44.5t38.5 -30.5t52.5 -11.5t53 11.5t38.5 30.5t24 44.5t8.5 54.5zM448 614q0 -13 -9 -22q-30 -29 -68.5 -45t-83.5 -16t-83.5 16t-68.5 45q-9 9 -9 22q0 14 11 25t25 11q15 0 29 -11q19 -17 43 -26t53 -9q28 0 52 9.5
t43 26.5q13 11 29 11q14 0 25.5 -11t11.5 -26z" />
    <glyph glyph-name="Ohungarumlaut" unicode="&#x150;" horiz-adv-x="765" 
d="M731 333q0 -75 -26 -138.5t-72.5 -109.5t-110.5 -71.5t-140 -25.5q-75 0 -139 25.5t-110.5 71.5t-72.5 109.5t-26 138.5t26 138.5t72.5 109.5t110.5 71.5t139 25.5q76 0 140 -25.5t110.5 -71.5t72.5 -109.5t26 -138.5zM585 333q0 47 -14.5 87t-41 69.5t-64 46t-83.5 16.5
t-83.5 -16.5t-63.5 -46t-40.5 -69.5t-14.5 -87t14.5 -87t40.5 -69t63.5 -46t83.5 -17t83.5 17t64 46t41 69t14.5 87zM561 833q0 -14 -7 -22l-65 -82q-11 -12 -26 -12q-12 0 -23 8t-11 23q0 8 5 16l54 89q11 19 34 19q18 0 28.5 -12.5t10.5 -26.5zM412 833q0 -14 -7 -22
l-66 -82q-9 -12 -25 -12q-14 0 -23.5 9.5t-9.5 22.5q0 8 4 15l54 89q11 19 34 19q18 0 28.5 -12.5t10.5 -26.5z" />
    <glyph glyph-name="ohungarumlaut" unicode="&#x151;" horiz-adv-x="574" 
d="M543 242q0 -52 -17.5 -98t-50.5 -80.5t-80.5 -55t-107.5 -20.5t-107 20.5t-80 55t-50.5 80.5t-17.5 98q0 51 17.5 97t50.5 80.5t80 55t107 20.5t107.5 -20.5t80.5 -55t50.5 -80.5t17.5 -97zM411 242q0 28 -8.5 53.5t-24 44.5t-38.5 30.5t-53 11.5t-52.5 -11.5
t-38.5 -30.5t-24 -44.5t-8 -53.5q0 -29 8 -54.5t24 -44.5t38.5 -30.5t52.5 -11.5t53 11.5t38.5 30.5t24 44.5t8.5 54.5zM465 666q0 -14 -7 -22l-65 -82q-11 -12 -26 -12q-12 0 -23 8t-11 23q0 8 5 16l54 89q11 19 34 19q18 0 28.5 -12.5t10.5 -26.5zM316 666q0 -14 -7 -22
l-66 -82q-9 -12 -25 -12q-14 0 -23.5 9.5t-9.5 22.5q0 8 4 15l54 89q11 19 34 19q18 0 28.5 -12.5t10.5 -26.5z" />
    <glyph glyph-name="OE" unicode="&#x152;" horiz-adv-x="1084" 
d="M1047 64q0 -27 -18 -45.5t-43 -18.5h-340q-16 0 -30 6t-24.5 16.5t-16.5 25t-6 30.5q-17 -23 -40 -39.5t-50 -28t-55.5 -17t-55.5 -5.5q-73 0 -134 25.5t-105.5 71t-69.5 109t-25 139.5t25 139t69.5 108.5t105.5 71t134 25.5q27 0 55.5 -5.5t55.5 -16.5t50 -27.5
t40 -38.5q0 16 6 30.5t16.5 25t25 16.5t30.5 6h339q25 0 43 -18.5t18 -44.5t-18 -44t-43 -18h-274v-141h267q25 0 43 -18.5t18 -44.5t-18 -44t-43 -18h-267v-151h274q25 0 43 -18t18 -43zM569 230v206q-24 57 -72 86t-109 29q-48 0 -86.5 -16.5t-65.5 -45.5t-41.5 -69
t-14.5 -87t14.5 -87t41.5 -69t65.5 -46t86.5 -17q61 0 109 30t72 86z" />
    <glyph glyph-name="oe" unicode="&#x153;" horiz-adv-x="931" 
d="M900 261q0 -25 -17.5 -42.5t-42.5 -17.5h-296q3 -22 13.5 -42.5t28 -36t42 -24.5t55.5 -9q22 0 46.5 6t46.5 17q12 6 25 6q20 0 37 -13.5t17 -36.5q0 -14 -9 -26q-11 -14 -32.5 -24.5t-47 -17t-51.5 -9.5t-46 -3q-40 0 -71 10t-54 25.5t-40 34.5t-29 37
q-12 -17 -28.5 -36t-39.5 -35t-52.5 -26t-67.5 -10q-60 0 -107 20.5t-80 55t-50.5 80.5t-17.5 98q0 51 17.5 97t50.5 80.5t80 55t107 20.5q38 0 67.5 -10.5t52.5 -26.5t40 -35t29 -36q11 18 27.5 37t39 34.5t52 26t66.5 10.5q83 0 141.5 -44t83.5 -119q5 -14 9.5 -32
t4.5 -39zM780 287q-1 17 -8 36t-21.5 34.5t-37 26t-53.5 10.5q-29 0 -50.5 -10t-36 -25.5t-22 -34.5t-9.5 -37h238zM411 242q0 31 -9 56.5t-25 44t-39 29t-51 10.5t-50.5 -10.5t-38.5 -29t-25 -44t-9 -56.5t9 -57t25 -45t38.5 -29.5t50.5 -10.5t51 10.5t39 29.5t25 45t9 57z
" />
    <glyph glyph-name="Racute" unicode="&#x154;" horiz-adv-x="643" 
d="M602 452q0 -44 -12.5 -78t-33.5 -58.5t-47 -40t-53 -21.5l92 -156q9 -17 9 -34q0 -26 -19 -48t-51 -22q-19 0 -35 9.5t-26 26.5l-114 207h-104v-173q0 -29 -21 -49.5t-51 -20.5q-29 0 -49.5 20.5t-20.5 49.5v523q0 33 23.5 56.5t56.5 23.5h232q52 0 93.5 -16t70.5 -45
t44.5 -68.5t15.5 -85.5zM357 542h-149v-180h149q43 0 71.5 24t28.5 66t-28.5 66t-71.5 24zM462 834q0 -17 -12 -27l-93 -82q-10 -8 -21 -8q-12 0 -22.5 9.5t-10.5 23.5q0 13 9 22l83 89q10 12 27 12q15 0 27.5 -11t12.5 -28z" />
    <glyph glyph-name="racute" unicode="&#x155;" horiz-adv-x="360" 
d="M350 435q0 -29 -17.5 -45t-43.5 -20q-29 -4 -55.5 -16t-43.5 -35v-262q0 -26 -18 -44.5t-44 -18.5h-2q-26 0 -44.5 18.5t-18.5 44.5v370q0 26 18.5 44t46.5 18q26 0 44 -18t18 -44v-10q9 12 19.5 24.5t23.5 22.5t28 16.5t33 6.5q28 0 42 -15t14 -37zM336 667
q0 -17 -12 -27l-93 -82q-10 -8 -21 -8q-12 0 -22.5 9.5t-10.5 23.5q0 13 9 22l83 89q10 12 27 12q15 0 27.5 -11t12.5 -28z" />
    <glyph glyph-name="Rcommaaccent" unicode="&#x156;" horiz-adv-x="643" 
d="M602 452q0 -44 -12.5 -78t-33.5 -58.5t-47 -40t-53 -21.5l92 -156q9 -17 9 -34q0 -26 -19 -48t-51 -22q-19 0 -35 9.5t-26 26.5l-114 207h-104v-173q0 -29 -21 -49.5t-51 -20.5q-29 0 -49.5 20.5t-20.5 49.5v523q0 33 23.5 56.5t56.5 23.5h232q52 0 93.5 -16t70.5 -45
t44.5 -68.5t15.5 -85.5zM357 542h-149v-180h149q43 0 71.5 24t28.5 66t-28.5 66t-71.5 24zM396 -138q0 -39 -17.5 -74t-49.5 -62q-10 -8 -23 -8q-9 0 -18 7l-1 1q-7 9 -7 17q0 5 5 13q9 13 25.5 31t21.5 39q-2 -1 -6 -1.5t-9 -0.5q-23 0 -38 15.5t-15 40.5q0 26 17.5 44.5
t43.5 18.5q28 0 49.5 -21t21.5 -60z" />
    <glyph glyph-name="rcommaaccent" unicode="&#x157;" horiz-adv-x="360" 
d="M350 435q0 -29 -17.5 -45t-43.5 -20q-29 -4 -55.5 -16t-43.5 -35v-262q0 -26 -18 -44.5t-44 -18.5h-2q-26 0 -44.5 18.5t-18.5 44.5v370q0 26 18.5 44t46.5 18q26 0 44 -18t18 -44v-10q9 12 19.5 24.5t23.5 22.5t28 16.5t33 6.5q28 0 42 -15t14 -37zM251 -138
q0 -39 -17.5 -74t-49.5 -62q-10 -8 -23 -8q-9 0 -18 7l-1 1q-7 9 -7 17q0 5 5 13q9 13 25.5 31t21.5 39q-2 -1 -6 -1.5t-9 -0.5q-23 0 -38 15.5t-15 40.5q0 26 17.5 44.5t43.5 18.5q28 0 49.5 -21t21.5 -60z" />
    <glyph glyph-name="Rcaron" unicode="&#x158;" horiz-adv-x="643" 
d="M602 452q0 -44 -12.5 -78t-33.5 -58.5t-47 -40t-53 -21.5l92 -156q9 -17 9 -34q0 -26 -19 -48t-51 -22q-19 0 -35 9.5t-26 26.5l-114 207h-104v-173q0 -29 -21 -49.5t-51 -20.5q-29 0 -49.5 20.5t-20.5 49.5v523q0 33 23.5 56.5t56.5 23.5h232q52 0 93.5 -16t70.5 -45
t44.5 -68.5t15.5 -85.5zM357 542h-149v-180h149q43 0 71.5 24t28.5 66t-28.5 66t-71.5 24zM453 839q0 -11 -5 -17l-41 -62q-14 -20 -35 -32t-47 -12q-24 0 -45.5 12t-34.5 32l-40 62q-6 7 -6 17q0 11 9 22t25 11q15 0 26 -12l67 -83l68 83q9 12 24 12q14 0 24.5 -9.5
t10.5 -23.5z" />
    <glyph glyph-name="rcaron" unicode="&#x159;" horiz-adv-x="360" 
d="M350 435q0 -29 -17.5 -45t-43.5 -20q-29 -4 -55.5 -16t-43.5 -35v-262q0 -26 -18 -44.5t-44 -18.5h-2q-26 0 -44.5 18.5t-18.5 44.5v370q0 26 18.5 44t46.5 18q26 0 44 -18t18 -44v-10q9 12 19.5 24.5t23.5 22.5t28 16.5t33 6.5q28 0 42 -15t14 -37zM331 672
q0 -11 -5 -17l-41 -62q-14 -20 -35 -32t-47 -12q-24 0 -45.5 12t-34.5 32l-40 62q-6 7 -6 17q0 11 9 22t25 11q15 0 26 -12l67 -83l68 83q9 12 24 12q14 0 24.5 -9.5t10.5 -23.5z" />
    <glyph glyph-name="Sacute" unicode="&#x15a;" horiz-adv-x="600" 
d="M570 202q0 -46 -16.5 -85t-49.5 -67.5t-83.5 -45t-117.5 -16.5q-36 0 -75 6t-74.5 17t-63 27t-41.5 37q-11 16 -11 34q0 29 20.5 47.5t46.5 18.5q10 0 20 -2.5t18 -8.5q34 -23 76 -37.5t91 -14.5q29 0 51 6t36.5 16.5t21.5 24t7 27.5q0 22 -16.5 36t-43.5 23.5t-61.5 17
t-70.5 17.5t-70.5 24t-61.5 36t-43.5 54.5t-16.5 79.5q0 42 17.5 78.5t50 64.5t79.5 44t106 16q28 0 62.5 -4.5t66.5 -14t59 -23.5t41 -32q12 -15 12 -34q0 -29 -22.5 -46.5t-48.5 -17.5q-19 0 -36 10q-35 20 -72.5 29t-74.5 9q-46 0 -70.5 -18.5t-24.5 -48.5
q0 -20 16.5 -32.5t43.5 -21.5t61.5 -16.5t70 -17.5t70 -24.5t61.5 -37t43.5 -55t16.5 -79.5zM431 834q0 -17 -12 -27l-93 -82q-10 -8 -21 -8q-12 0 -22.5 9.5t-10.5 23.5q0 13 9 22l83 89q10 12 27 12q15 0 27.5 -11t12.5 -28z" />
    <glyph glyph-name="sacute" unicode="&#x15b;" horiz-adv-x="477" 
d="M446 143q0 -33 -14 -61.5t-40.5 -49t-65.5 -32.5t-89 -12q-24 0 -53 4t-56.5 12t-50.5 20t-34 28q-9 12 -9 27q0 23 16.5 38t36.5 15q15 0 26 -7q29 -17 63.5 -28t66.5 -11q42 0 61.5 14.5t19.5 37.5q0 20 -21.5 30t-53 16.5t-69 14.5t-69 24t-53 44t-21.5 76
q0 30 13 57.5t38.5 48.5t62 33.5t84.5 12.5q24 0 50.5 -3.5t51 -11t44.5 -18.5t30 -26q8 -11 8 -25q0 -20 -15 -34t-35 -14q-14 0 -24 6q-23 14 -51.5 21.5t-57.5 7.5q-35 0 -55.5 -14t-20.5 -34q0 -18 21 -27t53 -15.5t69 -15t69 -25.5t53 -46t21 -78zM370 667
q0 -17 -12 -27l-93 -82q-10 -8 -21 -8q-12 0 -22.5 9.5t-10.5 23.5q0 13 9 22l83 89q10 12 27 12q15 0 27.5 -11t12.5 -28z" />
    <glyph glyph-name="Scircumflex" unicode="&#x15c;" horiz-adv-x="600" 
d="M570 202q0 -46 -16.5 -85t-49.5 -67.5t-83.5 -45t-117.5 -16.5q-36 0 -75 6t-74.5 17t-63 27t-41.5 37q-11 16 -11 34q0 29 20.5 47.5t46.5 18.5q10 0 20 -2.5t18 -8.5q34 -23 76 -37.5t91 -14.5q29 0 51 6t36.5 16.5t21.5 24t7 27.5q0 22 -16.5 36t-43.5 23.5t-61.5 17
t-70.5 17.5t-70.5 24t-61.5 36t-43.5 54.5t-16.5 79.5q0 42 17.5 78.5t50 64.5t79.5 44t106 16q28 0 62.5 -4.5t66.5 -14t59 -23.5t41 -32q12 -15 12 -34q0 -29 -22.5 -46.5t-48.5 -17.5q-19 0 -36 10q-35 20 -72.5 29t-74.5 9q-46 0 -70.5 -18.5t-24.5 -48.5
q0 -20 16.5 -32.5t43.5 -21.5t61.5 -16.5t70 -17.5t70 -24.5t61.5 -37t43.5 -55t16.5 -79.5zM427 767q0 -11 -9 -22.5t-25 -11.5t-25 13l-68 83l-67 -83q-11 -12 -25 -12t-24.5 9t-10.5 23q0 10 6 18l40 62q13 20 34.5 32t47.5 12q24 0 45 -12t35 -32l41 -62q5 -6 5 -17z
" />
    <glyph glyph-name="scircumflex" unicode="&#x15d;" horiz-adv-x="477" 
d="M446 143q0 -33 -14 -61.5t-40.5 -49t-65.5 -32.5t-89 -12q-24 0 -53 4t-56.5 12t-50.5 20t-34 28q-9 12 -9 27q0 23 16.5 38t36.5 15q15 0 26 -7q29 -17 63.5 -28t66.5 -11q42 0 61.5 14.5t19.5 37.5q0 20 -21.5 30t-53 16.5t-69 14.5t-69 24t-53 44t-21.5 76
q0 30 13 57.5t38.5 48.5t62 33.5t84.5 12.5q24 0 50.5 -3.5t51 -11t44.5 -18.5t30 -26q8 -11 8 -25q0 -20 -15 -34t-35 -14q-14 0 -24 6q-23 14 -51.5 21.5t-57.5 7.5q-35 0 -55.5 -14t-20.5 -34q0 -18 21 -27t53 -15.5t69 -15t69 -25.5t53 -46t21 -78zM365 583
q0 -11 -9 -22.5t-25 -11.5t-25 13l-68 83l-67 -83q-11 -12 -25 -12t-24.5 9t-10.5 23q0 10 6 18l40 62q13 20 34.5 32t47.5 12q24 0 45 -12t35 -32l41 -62q5 -6 5 -17z" />
    <glyph glyph-name="Scedilla" unicode="&#x15e;" horiz-adv-x="600" 
d="M570 202q0 -45 -15.5 -83.5t-47.5 -67t-80 -45.5t-112 -18l-16 -39q17 10 36 10q28 0 47.5 -19t19.5 -51q0 -40 -33 -62.5t-78 -22.5q-18 0 -36.5 3t-34.5 8.5t-26 14t-10 20.5t8.5 20t19.5 8q6 0 12 -3q16 -8 32.5 -12.5t30.5 -4.5q20 0 36 8t16 25q0 12 -7.5 19
t-21.5 7q-12 0 -20 -6t-20 -6q-15 0 -24 10t-9 21q0 3 0.5 5.5t1.5 5.5l16 43q-29 3 -60.5 10t-60 18t-51.5 25.5t-35 32.5q-10 17 -10 33q0 29 20.5 47.5t46.5 18.5q10 0 20 -2.5t18 -8.5q34 -23 76 -37.5t91 -14.5q29 0 51 6t36.5 16.5t21.5 24t7 27.5q0 22 -16.5 36
t-43.5 23.5t-61.5 17t-70.5 17.5t-70.5 24t-61.5 36t-43.5 54.5t-16.5 79.5q0 42 17.5 78.5t50 64.5t79.5 44t106 16q28 0 62.5 -4.5t66.5 -14t59 -23.5t41 -32q12 -15 12 -34q0 -29 -22.5 -46.5t-48.5 -17.5q-19 0 -36 10q-35 20 -72.5 29t-74.5 9q-46 0 -70.5 -18.5
t-24.5 -48.5q0 -20 16.5 -32.5t43.5 -21.5t61.5 -16.5t70 -17.5t70 -24.5t61.5 -37t43.5 -55t16.5 -79.5z" />
    <glyph glyph-name="scedilla" unicode="&#x15f;" horiz-adv-x="477" 
d="M446 143q0 -31 -12.5 -58t-36 -47.5t-58 -33t-79.5 -15.5l-16 -40q17 10 36 10q28 0 47.5 -19t19.5 -51q0 -40 -33 -62.5t-78 -22.5q-18 0 -36.5 3t-34.5 8.5t-26 14t-10 20.5t8.5 20t19.5 8q6 0 12 -3q16 -8 32.5 -12.5t30.5 -4.5q20 0 36 8t16 25q0 12 -7.5 19t-21.5 7
q-12 0 -20 -6t-20 -6q-15 0 -24 10t-9 21q0 3 0.5 5.5t1.5 5.5l16 43q-21 2 -44.5 7t-45.5 12.5t-40.5 18.5t-27.5 25q-8 13 -8 26q0 23 16.5 38t36.5 15q15 0 26 -7q29 -17 63.5 -28t66.5 -11q42 0 61.5 14.5t19.5 37.5q0 20 -21.5 30t-53 16.5t-69 14.5t-69 24t-53 44
t-21.5 76q0 30 13 57.5t38.5 48.5t62 33.5t84.5 12.5q24 0 50.5 -3.5t51 -11t44.5 -18.5t30 -26q8 -11 8 -25q0 -20 -15 -34t-35 -14q-14 0 -24 6q-23 14 -51.5 21.5t-57.5 7.5q-35 0 -55.5 -14t-20.5 -34q0 -18 21 -27t53 -15.5t69 -15t69 -25.5t53 -46t21 -78z" />
    <glyph glyph-name="Scaron" unicode="&#x160;" horiz-adv-x="600" 
d="M570 202q0 -46 -16.5 -85t-49.5 -67.5t-83.5 -45t-117.5 -16.5q-36 0 -75 6t-74.5 17t-63 27t-41.5 37q-11 16 -11 34q0 29 20.5 47.5t46.5 18.5q10 0 20 -2.5t18 -8.5q34 -23 76 -37.5t91 -14.5q29 0 51 6t36.5 16.5t21.5 24t7 27.5q0 22 -16.5 36t-43.5 23.5t-61.5 17
t-70.5 17.5t-70.5 24t-61.5 36t-43.5 54.5t-16.5 79.5q0 42 17.5 78.5t50 64.5t79.5 44t106 16q28 0 62.5 -4.5t66.5 -14t59 -23.5t41 -32q12 -15 12 -34q0 -29 -22.5 -46.5t-48.5 -17.5q-19 0 -36 10q-35 20 -72.5 29t-74.5 9q-46 0 -70.5 -18.5t-24.5 -48.5
q0 -20 16.5 -32.5t43.5 -21.5t61.5 -16.5t70 -17.5t70 -24.5t61.5 -37t43.5 -55t16.5 -79.5zM422 839q0 -11 -5 -17l-41 -62q-14 -20 -35 -32t-47 -12q-24 0 -45.5 12t-34.5 32l-40 62q-6 7 -6 17q0 11 9 22t25 11q15 0 26 -12l67 -83l68 83q9 12 24 12q14 0 24.5 -9.5
t10.5 -23.5z" />
    <glyph glyph-name="scaron" unicode="&#x161;" horiz-adv-x="477" 
d="M446 143q0 -33 -14 -61.5t-40.5 -49t-65.5 -32.5t-89 -12q-24 0 -53 4t-56.5 12t-50.5 20t-34 28q-9 12 -9 27q0 23 16.5 38t36.5 15q15 0 26 -7q29 -17 63.5 -28t66.5 -11q42 0 61.5 14.5t19.5 37.5q0 20 -21.5 30t-53 16.5t-69 14.5t-69 24t-53 44t-21.5 76
q0 30 13 57.5t38.5 48.5t62 33.5t84.5 12.5q24 0 50.5 -3.5t51 -11t44.5 -18.5t30 -26q8 -11 8 -25q0 -20 -15 -34t-35 -14q-14 0 -24 6q-23 14 -51.5 21.5t-57.5 7.5q-35 0 -55.5 -14t-20.5 -34q0 -18 21 -27t53 -15.5t69 -15t69 -25.5t53 -46t21 -78zM366 672
q0 -11 -5 -17l-41 -62q-14 -20 -35 -32t-47 -12q-24 0 -45.5 12t-34.5 32l-40 62q-6 7 -6 17q0 11 9 22t25 11q15 0 26 -12l67 -83l68 83q9 12 24 12q14 0 24.5 -9.5t10.5 -23.5z" />
    <glyph glyph-name="Tcommaaccent" unicode="&#x162;" horiz-adv-x="582" 
d="M563 604q0 -26 -18 -44t-43 -18h-139v-477q0 -29 -21 -50t-51 -21q-29 0 -50 21t-21 50v477h-139q-26 0 -44 18.5t-18 45.5q0 25 18 43t44 18h421q25 0 43 -18.5t18 -44.5zM362 -138q0 -39 -17.5 -74t-49.5 -62q-10 -8 -23 -8q-9 0 -18 7l-1 1q-7 9 -7 17q0 5 5 13
q9 13 25.5 31t21.5 39q-2 -1 -6 -1.5t-9 -0.5q-23 0 -38 15.5t-15 40.5q0 26 17.5 44.5t43.5 18.5q28 0 49.5 -21t21.5 -60z" />
    <glyph glyph-name="tcommaaccent" unicode="&#x163;" horiz-adv-x="338" 
d="M327 46q0 -12 -4.5 -22.5t-15.5 -18.5t-31 -12.5t-51 -4.5q-67 0 -102 33.5t-35 98.5v252h-31q-23 0 -39 16.5t-16 40.5q0 22 16 38t39 16h31v75q0 26 18.5 44.5t46.5 18.5q26 0 44.5 -18.5t18.5 -44.5v-75h50q22 0 38 -16.5t16 -39.5t-16 -39t-38 -16h-50v-218
q0 -29 14.5 -41t29.5 -12h5.5h5.5q27 0 41.5 -16t14.5 -39zM240 -138q0 -39 -17.5 -74t-49.5 -62q-10 -8 -23 -8q-9 0 -18 7l-1 1q-7 9 -7 17q0 5 5 13q9 13 25.5 31t21.5 39q-2 -1 -6 -1.5t-9 -0.5q-23 0 -38 15.5t-15 40.5q0 26 17.5 44.5t43.5 18.5q28 0 49.5 -21
t21.5 -60z" />
    <glyph glyph-name="Tcaron" unicode="&#x164;" horiz-adv-x="582" 
d="M563 604q0 -26 -18 -44t-43 -18h-139v-477q0 -29 -21 -50t-51 -21q-29 0 -50 21t-21 50v477h-139q-26 0 -44 18.5t-18 45.5q0 25 18 43t44 18h421q25 0 43 -18.5t18 -44.5zM420 839q0 -11 -5 -17l-41 -62q-14 -20 -35 -32t-47 -12q-24 0 -45.5 12t-34.5 32l-40 62
q-6 7 -6 17q0 11 9 22t25 11q15 0 26 -12l67 -83l68 83q9 12 24 12q14 0 24.5 -9.5t10.5 -23.5z" />
    <glyph glyph-name="tcaron" unicode="&#x165;" horiz-adv-x="380" 
d="M327 46q0 -12 -4.5 -22.5t-15.5 -18.5t-31 -12.5t-51 -4.5q-67 0 -102 33.5t-35 98.5v252h-31q-23 0 -39 16.5t-16 40.5q0 22 16 38t39 16h31v75q0 26 18.5 44.5t46.5 18.5q26 0 44.5 -18.5t18.5 -44.5v-75h50q22 0 38 -16.5t16 -39.5t-16 -39t-38 -16h-50v-218
q0 -29 14.5 -41t29.5 -12h5.5h5.5q27 0 41.5 -16t14.5 -39zM402 683q0 -39 -17.5 -74t-49.5 -62q-10 -8 -23 -8q-9 0 -18 7l-1 1q-7 9 -7 17q0 5 5 13q9 13 25.5 31t21.5 39q-2 -1 -6 -1.5t-9 -0.5q-23 0 -38 15.5t-15 40.5q0 26 17.5 44.5t43.5 18.5q28 0 49.5 -21
t21.5 -60z" />
    <glyph glyph-name="Tbar" unicode="&#x166;" horiz-adv-x="582" 
d="M482 345q0 -23 -15.5 -39t-37.5 -16h-66v-225q0 -29 -21 -50t-51 -21q-29 0 -50 21t-21 50v225h-65q-22 0 -37.5 16t-15.5 39q0 22 15.5 37.5t37.5 15.5h65v144h-139q-26 0 -44 18.5t-18 45.5q0 25 18 43t44 18h421q25 0 43 -18.5t18 -44.5t-18 -44t-43 -18h-139v-144h66
q22 0 37.5 -15.5t15.5 -37.5z" />
    <glyph glyph-name="tbar" unicode="&#x167;" horiz-adv-x="338" 
d="M303 243q0 -23 -15.5 -39t-37.5 -16h-34v-34q0 -29 14.5 -41t29.5 -12h11q27 0 41.5 -16t14.5 -39q0 -12 -4.5 -22.5t-15.5 -18.5t-31 -12.5t-51 -4.5q-67 0 -102 33.5t-35 98.5v68h-33q-22 0 -37.5 16t-15.5 39q0 22 15.5 37.5t37.5 15.5h33v76h-31q-23 0 -39 16.5
t-16 40.5q0 22 16 38t39 16h31v75q0 26 18.5 44.5t46.5 18.5q26 0 44.5 -18.5t18.5 -44.5v-75h50q22 0 38 -16.5t16 -39.5t-16 -39t-38 -16h-50v-76h34q22 0 37.5 -15.5t15.5 -37.5z" />
    <glyph glyph-name="Utilde" unicode="&#x168;" horiz-adv-x="733" 
d="M668 267q0 -62 -18.5 -113.5t-56 -88.5t-94 -57t-132.5 -20t-132.5 20.5t-94 57t-56 87.5t-18.5 113v336q0 29 21 50t52 21q29 0 50 -21t21 -50v-331q0 -70 39.5 -113.5t117.5 -43.5t117 43.5t39 113.5v331q0 29 21 50t53 21q29 0 50 -21t21 -50v-335v0zM528 846
q0 -12 -4.5 -30.5t-16.5 -35.5t-32.5 -29.5t-51.5 -12.5q-26 0 -42 10.5t-28 23.5t-22.5 23.5t-24.5 10.5q-11 0 -19.5 -8t-13.5 -28q-3 -14 -14.5 -23t-25.5 -9q-13 0 -20.5 9.5t-7.5 22.5q0 12 4.5 30.5t16.5 35.5t32.5 29.5t52.5 12.5q25 0 40.5 -10.5t27.5 -23t23 -23
t25 -10.5q11 0 19.5 8t13.5 27q3 14 14 23t25 9t21.5 -9.5t7.5 -22.5z" />
    <glyph glyph-name="utilde" unicode="&#x169;" 
d="M516 57q0 -26 -18.5 -44.5t-45.5 -18.5q-26 0 -44.5 18.5t-18.5 44.5v4q-25 -28 -67.5 -50.5t-102.5 -22.5q-80 0 -118 40.5t-38 111.5v287q0 26 18.5 44t46.5 18q26 0 44 -18t18 -44v-237q0 -25 6.5 -42t18 -27.5t28 -15t36.5 -4.5q37 0 65 17t45 38v271q0 26 18.5 44
t46.5 18q26 0 44 -18t18 -44v-370v0zM451 662q0 -12 -4.5 -30.5t-16.5 -35.5t-32.5 -29.5t-51.5 -12.5q-26 0 -42 10.5t-28 23.5t-22.5 23.5t-24.5 10.5q-11 0 -19.5 -8t-13.5 -28q-3 -14 -14.5 -23t-25.5 -9q-13 0 -20.5 9.5t-7.5 22.5q0 12 4.5 30.5t16.5 35.5t32.5 29.5
t52.5 12.5q25 0 40.5 -10.5t27.5 -23t23 -23t25 -10.5q11 0 19.5 8t13.5 27q3 14 14 23t25 9t21.5 -9.5t7.5 -22.5z" />
    <glyph glyph-name="Umacron" unicode="&#x16a;" horiz-adv-x="733" 
d="M668 267q0 -62 -18.5 -113.5t-56 -88.5t-94 -57t-132.5 -20t-132.5 20.5t-94 57t-56 87.5t-18.5 113v336q0 29 21 50t52 21q29 0 50 -21t21 -50v-331q0 -70 39.5 -113.5t117.5 -43.5t117 43.5t39 113.5v331q0 29 21 50t53 21q29 0 50 -21t21 -50v-335v0zM550 766
q0 -16 -10.5 -26.5t-24.5 -10.5h-293q-14 0 -24.5 10.5t-10.5 26.5q0 14 10.5 24.5t24.5 10.5h293q14 0 24.5 -10.5t10.5 -24.5z" />
    <glyph glyph-name="umacron" unicode="&#x16b;" 
d="M516 57q0 -26 -18.5 -44.5t-45.5 -18.5q-26 0 -44.5 18.5t-18.5 44.5v4q-25 -28 -67.5 -50.5t-102.5 -22.5q-80 0 -118 40.5t-38 111.5v287q0 26 18.5 44t46.5 18q26 0 44 -18t18 -44v-237q0 -25 6.5 -42t18 -27.5t28 -15t36.5 -4.5q37 0 65 17t45 38v271q0 26 18.5 44
t46.5 18q26 0 44 -18t18 -44v-370v0zM470 599q0 -16 -10.5 -26.5t-24.5 -10.5h-293q-14 0 -24.5 10.5t-10.5 26.5q0 14 10.5 24.5t24.5 10.5h293q14 0 24.5 -10.5t10.5 -24.5z" />
    <glyph glyph-name="Ubreve" unicode="&#x16c;" horiz-adv-x="733" 
d="M668 267q0 -62 -18.5 -113.5t-56 -88.5t-94 -57t-132.5 -20t-132.5 20.5t-94 57t-56 87.5t-18.5 113v336q0 29 21 50t52 21q29 0 50 -21t21 -50v-331q0 -70 39.5 -113.5t117.5 -43.5t117 43.5t39 113.5v331q0 29 21 50t53 21q29 0 50 -21t21 -50v-335v0zM527 798
q0 -13 -9 -22q-30 -29 -68.5 -45t-83.5 -16t-83.5 16t-68.5 45q-9 9 -9 22q0 14 11 25t25 11q15 0 29 -11q19 -17 43 -26t53 -9q28 0 52 9.5t43 26.5q13 11 29 11q14 0 25.5 -11t11.5 -26z" />
    <glyph glyph-name="ubreve" unicode="&#x16d;" 
d="M516 57q0 -26 -18.5 -44.5t-45.5 -18.5q-26 0 -44.5 18.5t-18.5 44.5v4q-25 -28 -67.5 -50.5t-102.5 -22.5q-80 0 -118 40.5t-38 111.5v287q0 26 18.5 44t46.5 18q26 0 44 -18t18 -44v-237q0 -25 6.5 -42t18 -27.5t28 -15t36.5 -4.5q37 0 65 17t45 38v271q0 26 18.5 44
t46.5 18q26 0 44 -18t18 -44v-370v0zM450 614q0 -13 -9 -22q-30 -29 -68.5 -45t-83.5 -16t-83.5 16t-68.5 45q-9 9 -9 22q0 14 11 25t25 11q15 0 29 -11q19 -17 43 -26t53 -9q28 0 52 9.5t43 26.5q13 11 29 11q14 0 25.5 -11t11.5 -26z" />
    <glyph glyph-name="Uring" unicode="&#x16e;" horiz-adv-x="733" 
d="M668 267q0 -62 -18.5 -113.5t-56 -88.5t-94 -57t-132.5 -20t-132.5 20.5t-94 57t-56 87.5t-18.5 113v336q0 29 21 50t52 21q29 0 50 -21t21 -50v-331q0 -70 39.5 -113.5t117.5 -43.5t117 43.5t39 113.5v331q0 29 21 50t53 21q29 0 50 -21t21 -50v-335v0zM473 803
q0 -22 -8 -41t-22 -33.5t-33 -22.5t-41 -8q-21 0 -40.5 8t-33.5 22.5t-22.5 33.5t-8.5 41q0 21 8.5 40.5t22.5 34t33.5 23t40.5 8.5q22 0 41 -8.5t33 -23t22 -34t8 -40.5zM415 803q0 20 -13 33.5t-33 13.5q-19 0 -33 -13.5t-14 -33.5q0 -19 14 -33t33 -14q20 0 33 14t13 33z
" />
    <glyph glyph-name="uring" unicode="&#x16f;" 
d="M516 57q0 -26 -18.5 -44.5t-45.5 -18.5q-26 0 -44.5 18.5t-18.5 44.5v4q-25 -28 -67.5 -50.5t-102.5 -22.5q-80 0 -118 40.5t-38 111.5v287q0 26 18.5 44t46.5 18q26 0 44 -18t18 -44v-237q0 -25 6.5 -42t18 -27.5t28 -15t36.5 -4.5q37 0 65 17t45 38v271q0 26 18.5 44
t46.5 18q26 0 44 -18t18 -44v-370v0zM394 636q0 -22 -8 -41t-22 -33.5t-33 -22.5t-41 -8q-21 0 -40.5 8t-33.5 22.5t-22.5 33.5t-8.5 41q0 21 8.5 40.5t22.5 34t33.5 23t40.5 8.5q22 0 41 -8.5t33 -23t22 -34t8 -40.5zM336 636q0 20 -13 33.5t-33 13.5q-19 0 -33 -13.5
t-14 -33.5q0 -19 14 -33t33 -14q20 0 33 14t13 33z" />
    <glyph glyph-name="Uhungarumlaut" unicode="&#x170;" horiz-adv-x="733" 
d="M668 267q0 -62 -18.5 -113.5t-56 -88.5t-94 -57t-132.5 -20t-132.5 20.5t-94 57t-56 87.5t-18.5 113v336q0 29 21 50t52 21q29 0 50 -21t21 -50v-331q0 -70 39.5 -113.5t117.5 -43.5t117 43.5t39 113.5v331q0 29 21 50t53 21q29 0 50 -21t21 -50v-335v0zM547 833
q0 -14 -7 -22l-65 -82q-11 -12 -26 -12q-12 0 -23 8t-11 23q0 8 5 16l54 89q11 19 34 19q18 0 28.5 -12.5t10.5 -26.5zM398 833q0 -14 -7 -22l-66 -82q-9 -12 -25 -12q-14 0 -23.5 9.5t-9.5 22.5q0 8 4 15l54 89q11 19 34 19q18 0 28.5 -12.5t10.5 -26.5z" />
    <glyph glyph-name="uhungarumlaut" unicode="&#x171;" 
d="M516 57q0 -26 -18.5 -44.5t-45.5 -18.5q-26 0 -44.5 18.5t-18.5 44.5v4q-25 -28 -67.5 -50.5t-102.5 -22.5q-80 0 -118 40.5t-38 111.5v287q0 26 18.5 44t46.5 18q26 0 44 -18t18 -44v-237q0 -25 6.5 -42t18 -27.5t28 -15t36.5 -4.5q37 0 65 17t45 38v271q0 26 18.5 44
t46.5 18q26 0 44 -18t18 -44v-370v0zM467 666q0 -14 -7 -22l-65 -82q-11 -12 -26 -12q-12 0 -23 8t-11 23q0 8 5 16l54 89q11 19 34 19q18 0 28.5 -12.5t10.5 -26.5zM318 666q0 -14 -7 -22l-66 -82q-9 -12 -25 -12q-14 0 -23.5 9.5t-9.5 22.5q0 8 4 15l54 89q11 19 34 19
q18 0 28.5 -12.5t10.5 -26.5z" />
    <glyph glyph-name="Uogonek" unicode="&#x172;" horiz-adv-x="733" 
d="M668 267q0 -102 -48 -172t-148 -95q-36 -18 -53 -41t-17 -49q0 -23 11.5 -33t25.5 -10q13 0 22 7.5t19 13.5q8 5 17 5q13 0 21 -7.5t8 -18.5q0 -12 -8.5 -21.5t-21.5 -16.5t-28.5 -11t-28.5 -4q-40 0 -70 21t-30 69q0 24 8 45t20 39q-76 0 -132.5 20.5t-94 57t-56 87.5
t-18.5 113v336q0 29 21 50t52 21q29 0 50 -21t21 -50v-331q0 -70 39.5 -113.5t117.5 -43.5t117 43.5t39 113.5v331q0 29 21 50t53 21q29 0 50 -21t21 -50v-335v0z" />
    <glyph glyph-name="uogonek" unicode="&#x173;" 
d="M540 -133q0 -12 -8.5 -21.5t-21.5 -16.5t-28.5 -11t-28.5 -4q-40 0 -70 21t-30 69q0 32 14.5 58.5t42.5 46.5q-10 9 -15.5 21.5t-5.5 26.5v4q-25 -28 -67.5 -50.5t-102.5 -22.5q-80 0 -118 40.5t-38 111.5v287q0 26 18.5 44t46.5 18q26 0 44 -18t18 -44v-237
q0 -25 6.5 -42t18 -27.5t28 -15t36.5 -4.5q37 0 65 17t45 38v271q0 26 18.5 44t46.5 18q26 0 44 -18t18 -44v-370q0 -15 -5.5 -25.5t-13.5 -18.5t-19 -15.5t-21 -14.5q-41 -30 -41 -73q0 -23 11.5 -33t25.5 -10t22.5 8t19.5 13q8 5 17 5q12 0 20 -7.5t8 -18.5z" />
    <glyph glyph-name="Wcircumflex" unicode="&#x174;" horiz-adv-x="918" 
d="M897 605q0 -11 -3 -20l-149 -521q-9 -31 -34.5 -50.5t-57.5 -19.5h-2q-33 0 -58 19.5t-33 50.5l-101 394l-100 -394q-8 -31 -33.5 -50.5t-56.5 -19.5h-2q-32 0 -58 19.5t-35 50.5l-150 522q-3 9 -3 19q0 29 21 51.5t55 22.5q26 0 46.5 -16t27.5 -42l106 -436l114 436
q6 23 25 37.5t45 14.5q23 0 41.5 -14.5t24.5 -37.5l114 -436l104 435q6 26 27.5 42.5t48.5 16.5q34 0 55 -22.5t21 -51.5zM586 767q0 -11 -9 -22.5t-25 -11.5t-25 13l-68 83l-67 -83q-11 -12 -25 -12t-24.5 9t-10.5 23q0 10 6 18l40 62q13 20 34.5 32t47.5 12q24 0 45 -12
t35 -32l41 -62q5 -6 5 -17z" />
    <glyph glyph-name="wcircumflex" unicode="&#x175;" horiz-adv-x="769" 
d="M750 428q0 -9 -3 -18l-108 -354q-8 -27 -31.5 -44.5t-51.5 -17.5h-2q-29 0 -52.5 17t-31.5 45l-85 273l-85 -273q-8 -27 -31.5 -44.5t-52.5 -17.5h-2q-29 0 -52.5 17.5t-31.5 44.5l-108 354q-3 9 -3 18q0 23 17.5 42t46.5 19q20 0 37.5 -12.5t22.5 -32.5l79 -286l91 280
q8 23 27.5 37t45.5 14q23 0 42.5 -14t27.5 -37l91 -280l79 286q5 20 22.5 32.5t38.5 12.5q28 0 45.5 -18.5t17.5 -42.5zM511 583q0 -11 -9 -22.5t-25 -11.5t-25 13l-68 83l-67 -83q-11 -12 -25 -12t-24.5 9t-10.5 23q0 10 6 18l40 62q13 20 34.5 32t47.5 12q24 0 45 -12
t35 -32l41 -62q5 -6 5 -17z" />
    <glyph glyph-name="Ycircumflex" unicode="&#x176;" horiz-adv-x="645" 
d="M597 607q0 -19 -10 -35l-193 -299v-209q0 -29 -21 -49.5t-51 -20.5q-29 0 -49.5 20.5t-20.5 49.5v209l-195 300q-10 14 -10 34q0 24 19 44.5t49 20.5q17 0 32.5 -8t25.5 -24l150 -241l147 240q10 16 25.5 24.5t33.5 8.5q31 0 49.5 -20t18.5 -45zM449 767q0 -11 -9 -22.5
t-25 -11.5t-25 13l-68 83l-67 -83q-11 -12 -25 -12t-24.5 9t-10.5 23q0 10 6 18l40 62q13 20 34.5 32t47.5 12q24 0 45 -12t35 -32l41 -62q5 -6 5 -17z" />
    <glyph glyph-name="ycircumflex" unicode="&#x177;" horiz-adv-x="513" 
d="M491 427q0 -14 -4 -23l-195 -483q-26 -63 -69 -90t-97 -27q-17 0 -31 4t-24.5 11.5t-16.5 18t-6 23.5q0 23 16.5 39.5t43.5 16.5h8t8 1q16 3 28.5 11t19.5 23l18 41l-165 412q-4 9 -4 21q0 23 17.5 43t46.5 20q19 0 35 -11t24 -31l112 -300l112 300q7 19 24 30.5t37 11.5
q29 0 45.5 -19.5t16.5 -42.5zM383 583q0 -11 -9 -22.5t-25 -11.5t-25 13l-68 83l-67 -83q-11 -12 -25 -12t-24.5 9t-10.5 23q0 10 6 18l40 62q13 20 34.5 32t47.5 12q24 0 45 -12t35 -32l41 -62q5 -6 5 -17z" />
    <glyph glyph-name="Ydieresis" unicode="&#x178;" horiz-adv-x="645" 
d="M597 607q0 -19 -10 -35l-193 -299v-209q0 -29 -21 -49.5t-51 -20.5q-29 0 -49.5 20.5t-20.5 49.5v209l-195 300q-10 14 -10 34q0 24 19 44.5t49 20.5q17 0 32.5 -8t25.5 -24l150 -241l147 240q10 16 25.5 24.5t33.5 8.5q31 0 49.5 -20t18.5 -45zM497 778q0 -29 -20 -48.5
t-48 -19.5t-48 19.5t-20 48.5q0 28 20 47.5t48 19.5t48 -19.5t20 -47.5zM285 778q0 -29 -19.5 -48.5t-47.5 -19.5q-29 0 -48.5 19.5t-19.5 48.5q0 28 19.5 47.5t48.5 19.5q28 0 47.5 -19.5t19.5 -47.5z" />
    <glyph glyph-name="Zacute" unicode="&#x179;" horiz-adv-x="592" 
d="M556 64q0 -27 -18 -45.5t-43 -18.5h-381q-30 0 -54 22.5t-24 57.5q0 26 15 47l306 415h-259q-26 0 -44 18.5t-18 45.5q0 25 18 43t44 18h377q29 0 51 -22t22 -56q0 -29 -17 -52l-303 -412h267q25 0 43 -18t18 -43zM413 834q0 -17 -12 -27l-93 -82q-10 -8 -21 -8
q-12 0 -22.5 9.5t-10.5 23.5q0 13 9 22l83 89q10 12 27 12q15 0 27.5 -11t12.5 -28z" />
    <glyph glyph-name="zacute" unicode="&#x17a;" horiz-adv-x="479" 
d="M442 57q0 -24 -16 -40.5t-38 -16.5h-289q-25 0 -44 18.5t-19 46.5q0 11 3.5 21t10.5 19l210 267h-169q-23 0 -39 16.5t-16 40.5q0 22 16 38t39 16h285q23 0 42 -17.5t19 -44.5q0 -24 -13 -40l-213 -270h177q22 0 38 -16t16 -38zM371 667q0 -17 -12 -27l-93 -82
q-10 -8 -21 -8q-12 0 -22.5 9.5t-10.5 23.5q0 13 9 22l83 89q10 12 27 12q15 0 27.5 -11t12.5 -28z" />
    <glyph glyph-name="Zdotaccent" unicode="&#x17b;" horiz-adv-x="592" 
d="M556 64q0 -27 -18 -45.5t-43 -18.5h-381q-30 0 -54 22.5t-24 57.5q0 26 15 47l306 415h-259q-26 0 -44 18.5t-18 45.5q0 25 18 43t44 18h377q29 0 51 -22t22 -56q0 -29 -17 -52l-303 -412h267q25 0 43 -18t18 -43zM358 778q0 -29 -20 -48.5t-47 -19.5q-29 0 -48.5 19.5
t-19.5 48.5q0 28 19.5 48t48.5 20q27 0 47 -20t20 -48z" />
    <glyph glyph-name="zdotaccent" unicode="&#x17c;" horiz-adv-x="479" 
d="M442 57q0 -24 -16 -40.5t-38 -16.5h-289q-25 0 -44 18.5t-19 46.5q0 11 3.5 21t10.5 19l210 267h-169q-23 0 -39 16.5t-16 40.5q0 22 16 38t39 16h285q23 0 42 -17.5t19 -44.5q0 -24 -13 -40l-213 -270h177q22 0 38 -16t16 -38zM305 611q0 -29 -20 -48.5t-47 -19.5
q-29 0 -48.5 19.5t-19.5 48.5q0 28 19.5 48t48.5 20q27 0 47 -20t20 -48z" />
    <glyph glyph-name="Zcaron" unicode="&#x17d;" horiz-adv-x="592" 
d="M556 64q0 -27 -18 -45.5t-43 -18.5h-381q-30 0 -54 22.5t-24 57.5q0 26 15 47l306 415h-259q-26 0 -44 18.5t-18 45.5q0 25 18 43t44 18h377q29 0 51 -22t22 -56q0 -29 -17 -52l-303 -412h267q25 0 43 -18t18 -43zM422 839q0 -11 -5 -17l-41 -62q-14 -20 -35 -32t-47 -12
q-24 0 -45.5 12t-34.5 32l-40 62q-6 7 -6 17q0 11 9 22t25 11q15 0 26 -12l67 -83l68 83q9 12 24 12q14 0 24.5 -9.5t10.5 -23.5z" />
    <glyph glyph-name="zcaron" unicode="&#x17e;" horiz-adv-x="479" 
d="M442 57q0 -24 -16 -40.5t-38 -16.5h-289q-25 0 -44 18.5t-19 46.5q0 11 3.5 21t10.5 19l210 267h-169q-23 0 -39 16.5t-16 40.5q0 22 16 38t39 16h285q23 0 42 -17.5t19 -44.5q0 -24 -13 -40l-213 -270h177q22 0 38 -16t16 -38zM364 672q0 -11 -5 -17l-41 -62
q-14 -20 -35 -32t-47 -12q-24 0 -45.5 12t-34.5 32l-40 62q-6 7 -6 17q0 11 9 22t25 11q15 0 26 -12l67 -83l68 83q9 12 24 12q14 0 24.5 -9.5t10.5 -23.5z" />
    <glyph glyph-name="florin" unicode="&#x192;" horiz-adv-x="454" 
d="M460 609q0 -9 -3 -20t-9.5 -20.5t-17.5 -15.5t-26 -6q-8 0 -16.5 2t-16.5 2q-26 0 -47 -17t-28 -49l-30 -135h64q23 0 39 -16.5t16 -40.5q0 -23 -16 -39t-39 -16h-89l-77 -351q-5 -24 -24.5 -39t-44.5 -15q-30 0 -50.5 21.5t-20.5 49.5q0 4 0.5 7t1.5 7l70 320h-5
q-23 0 -39 16.5t-16 40.5q0 23 16 39t39 16h29l37 166q8 36 26 65.5t44.5 51t59 33t68.5 11.5q18 0 37 -3t34 -10.5t24.5 -20.5t9.5 -34z" />
    <glyph glyph-name="AEacute" unicode="&#x1fc;" horiz-adv-x="968" 
d="M932 64q0 -27 -18 -45.5t-43 -18.5h-337q-33 0 -56.5 23.5t-23.5 56.5v33h-235l-51 -88q-9 -16 -24.5 -24t-32.5 -8q-30 0 -49.5 21.5t-19.5 48.5q0 20 10 37l303 499q20 32 53 50t69 18h394q25 0 43 -18.5t18 -44.5t-18 -44t-43 -18h-274v-141h267q25 0 43 -18.5
t18 -44.5t-18 -44t-43 -18h-267v-151h274q25 0 43 -18t18 -43zM454 238v287l-167 -287h167zM619 851q0 -17 -12 -27l-93 -82q-10 -8 -21 -8q-12 0 -22.5 9.5t-10.5 23.5q0 13 9 22l83 89q10 12 27 12q15 0 27.5 -11t12.5 -28z" />
    <glyph glyph-name="aeacute" unicode="&#x1fd;" horiz-adv-x="870" 
d="M839 261q0 -25 -17.5 -42.5t-42.5 -17.5h-279q3 -22 13 -42t26.5 -35t39 -23.5t51.5 -8.5q20 0 42 5t42 16q12 6 27 6q20 0 36.5 -13.5t16.5 -35.5q0 -12 -7 -24q-10 -16 -31 -27t-45.5 -18t-49 -10t-40.5 -3q-59 0 -106 20t-80 68q-30 -38 -83 -63t-118 -25
q-40 0 -76.5 9.5t-64.5 29t-44.5 49t-16.5 70.5q0 40 14 69.5t38 49t56 29.5t67 10q50 0 93.5 -14.5t71.5 -43.5v65q0 36 -31.5 58t-83.5 22q-30 0 -59.5 -7.5t-57.5 -24.5q-12 -7 -24 -7q-17 0 -32 13.5t-15 35.5q0 14 7 25q11 18 35 31.5t53 21.5t58 12t50 4
q32 0 58.5 -5.5t47.5 -16t37 -26t26 -35.5q13 17 29 32t37 26.5t48 18t61 6.5q77 0 132 -43.5t78 -118.5q5 -14 9 -32t4 -40zM718 287q-1 17 -7 36t-19.5 34.5t-34 26t-49.5 10.5q-27 0 -47 -10t-33.5 -25.5t-20.5 -34.5t-9 -37h220zM372 169v6q-18 20 -48.5 31.5
t-64.5 11.5q-42 0 -70.5 -16.5t-28.5 -48.5q0 -33 28.5 -49t67.5 -16q24 0 45 7.5t37 19t25 26t9 28.5zM538 667q0 -17 -12 -27l-93 -82q-10 -8 -21 -8q-12 0 -22.5 9.5t-10.5 23.5q0 13 9 22l83 89q10 12 27 12q15 0 27.5 -11t12.5 -28z" />
    <glyph glyph-name="Oslashacute" unicode="&#x1fe;" horiz-adv-x="765" 
d="M731 333q0 -75 -26 -138.5t-72.5 -109.5t-110.5 -71.5t-140 -25.5q-52 0 -98.5 12t-85.5 35l-20 -26q-13 -16 -31 -16q-17 0 -29.5 11.5t-12.5 28.5q0 12 8 25l20 26q-47 46 -73 109.5t-26 139.5q0 75 26 138.5t72.5 109.5t110.5 71.5t139 25.5q48 0 91.5 -10.5
t81.5 -30.5l15 19q12 15 32 15q16 0 29 -11t13 -28q0 -11 -8 -22l-14 -19q51 -47 80 -112.5t29 -145.5zM585 333q0 44 -12.5 81t-35.5 66l-259 -339q22 -13 48 -20t56 -7q46 0 83.5 17t64 46t41 69t14.5 87zM474 531q-20 10 -43 15.5t-49 5.5q-46 0 -83.5 -16.5t-63.5 -46
t-40.5 -69.5t-14.5 -87q0 -40 10 -74.5t29 -62.5zM462 851q0 -17 -12 -27l-93 -82q-10 -8 -21 -8q-12 0 -22.5 9.5t-10.5 23.5q0 13 9 22l83 89q10 12 27 12q15 0 27.5 -11t12.5 -28z" />
    <glyph glyph-name="oslashacute" unicode="&#x1ff;" horiz-adv-x="574" 
d="M121 3q-9 -10 -22 -10q-12 0 -21 9t-9 21t7 19l21 25q-32 35 -48.5 79.5t-16.5 95.5t17.5 97t50.5 80.5t80 55t107 20.5q42 0 77 -10t64 -28l18 21q7 10 22 10q12 0 22 -8.5t10 -20.5q0 -10 -7 -19l-18 -21q33 -35 50.5 -80.5t17.5 -96.5q0 -52 -17.5 -98t-50.5 -80.5
t-80.5 -55t-107.5 -20.5q-85 0 -145 40zM220 120q14 -10 30.5 -14.5t36.5 -4.5q30 0 53 11.5t38.5 30.5t24 44.5t8.5 54.5q0 44 -20 79zM287 382q-30 0 -52.5 -11.5t-38.5 -30.5t-24 -44.5t-8 -53.5q0 -42 17 -76l169 199q-28 17 -63 17zM366 667q0 -17 -12 -27l-93 -82
q-10 -8 -21 -8q-12 0 -22.5 9.5t-10.5 23.5q0 13 9 22l83 89q10 12 27 12q15 0 27.5 -11t12.5 -28z" />
    <glyph glyph-name="Scommaaccent" unicode="&#x218;" horiz-adv-x="600" 
d="M570 202q0 -46 -16.5 -85t-49.5 -67.5t-83.5 -45t-117.5 -16.5q-36 0 -75 6t-74.5 17t-63 27t-41.5 37q-11 16 -11 34q0 29 20.5 47.5t46.5 18.5q10 0 20 -2.5t18 -8.5q34 -23 76 -37.5t91 -14.5q29 0 51 6t36.5 16.5t21.5 24t7 27.5q0 22 -16.5 36t-43.5 23.5t-61.5 17
t-70.5 17.5t-70.5 24t-61.5 36t-43.5 54.5t-16.5 79.5q0 42 17.5 78.5t50 64.5t79.5 44t106 16q28 0 62.5 -4.5t66.5 -14t59 -23.5t41 -32q12 -15 12 -34q0 -29 -22.5 -46.5t-48.5 -17.5q-19 0 -36 10q-35 20 -72.5 29t-74.5 9q-46 0 -70.5 -18.5t-24.5 -48.5
q0 -20 16.5 -32.5t43.5 -21.5t61.5 -16.5t70 -17.5t70 -24.5t61.5 -37t43.5 -55t16.5 -79.5zM368 -138q0 -39 -17.5 -74t-49.5 -62q-10 -8 -23 -8q-9 0 -18 7l-1 1q-7 9 -7 17q0 5 5 13q9 13 25.5 31t21.5 39q-2 -1 -6 -1.5t-9 -0.5q-23 0 -38 15.5t-15 40.5q0 26 17.5 44.5
t43.5 18.5q28 0 49.5 -21t21.5 -60z" />
    <glyph glyph-name="scommaaccent" unicode="&#x219;" horiz-adv-x="477" 
d="M446 143q0 -33 -14 -61.5t-40.5 -49t-65.5 -32.5t-89 -12q-24 0 -53 4t-56.5 12t-50.5 20t-34 28q-9 12 -9 27q0 23 16.5 38t36.5 15q15 0 26 -7q29 -17 63.5 -28t66.5 -11q42 0 61.5 14.5t19.5 37.5q0 20 -21.5 30t-53 16.5t-69 14.5t-69 24t-53 44t-21.5 76
q0 30 13 57.5t38.5 48.5t62 33.5t84.5 12.5q24 0 50.5 -3.5t51 -11t44.5 -18.5t30 -26q8 -11 8 -25q0 -20 -15 -34t-35 -14q-14 0 -24 6q-23 14 -51.5 21.5t-57.5 7.5q-35 0 -55.5 -14t-20.5 -34q0 -18 21 -27t53 -15.5t69 -15t69 -25.5t53 -46t21 -78zM314 -138
q0 -39 -17.5 -74t-49.5 -62q-10 -8 -23 -8q-9 0 -18 7l-1 1q-7 9 -7 17q0 5 5 13q9 13 25.5 31t21.5 39q-2 -1 -6 -1.5t-9 -0.5q-23 0 -38 15.5t-15 40.5q0 26 17.5 44.5t43.5 18.5q28 0 49.5 -21t21.5 -60z" />
    <glyph glyph-name="uni021A" unicode="&#x21a;" horiz-adv-x="582" 
d="M563 604q0 -26 -18 -44t-43 -18h-139v-477q0 -29 -21 -50t-51 -21q-29 0 -50 21t-21 50v477h-139q-26 0 -44 18.5t-18 45.5q0 25 18 43t44 18h421q25 0 43 -18.5t18 -44.5zM362 -138q0 -39 -17.5 -74t-49.5 -62q-10 -8 -23 -8q-9 0 -18 7l-1 1q-7 9 -7 17q0 5 5 13
q9 13 25.5 31t21.5 39q-2 -1 -6 -1.5t-9 -0.5q-23 0 -38 15.5t-15 40.5q0 26 17.5 44.5t43.5 18.5q28 0 49.5 -21t21.5 -60z" />
    <glyph glyph-name="uni021B" unicode="&#x21b;" horiz-adv-x="338" 
d="M327 46q0 -12 -4.5 -22.5t-15.5 -18.5t-31 -12.5t-51 -4.5q-67 0 -102 33.5t-35 98.5v252h-31q-23 0 -39 16.5t-16 40.5q0 22 16 38t39 16h31v75q0 26 18.5 44.5t46.5 18.5q26 0 44.5 -18.5t18.5 -44.5v-75h50q22 0 38 -16.5t16 -39.5t-16 -39t-38 -16h-50v-218
q0 -29 14.5 -41t29.5 -12h5.5h5.5q27 0 41.5 -16t14.5 -39zM240 -138q0 -39 -17.5 -74t-49.5 -62q-10 -8 -23 -8q-9 0 -18 7l-1 1q-7 9 -7 17q0 5 5 13q9 13 25.5 31t21.5 39q-2 -1 -6 -1.5t-9 -0.5q-23 0 -38 15.5t-15 40.5q0 26 17.5 44.5t43.5 18.5q28 0 49.5 -21
t21.5 -60z" />
    <glyph glyph-name="circumflex" unicode="&#x2c6;" horiz-adv-x="300" 
d="M276 583q0 -11 -9 -22.5t-25 -11.5t-25 13l-68 83l-67 -83q-11 -12 -25 -12t-24.5 9t-10.5 23q0 10 6 18l40 62q13 20 34.5 32t47.5 12q24 0 45 -12t35 -32l41 -62q5 -6 5 -17z" />
    <glyph glyph-name="caron" unicode="&#x2c7;" horiz-adv-x="300" 
d="M279 672q0 -11 -5 -17l-41 -62q-14 -20 -35 -32t-47 -12q-24 0 -45.5 12t-34.5 32l-40 62q-6 7 -6 17q0 11 9 22t25 11q15 0 26 -12l67 -83l68 83q9 12 24 12q14 0 24.5 -9.5t10.5 -23.5z" />
    <glyph glyph-name="breve" unicode="&#x2d8;" horiz-adv-x="351" 
d="M337 614q0 -13 -9 -22q-30 -29 -68.5 -45t-83.5 -16t-83.5 16t-68.5 45q-9 9 -9 22q0 14 11 25t25 11q15 0 29 -11q19 -17 43 -26t53 -9q28 0 52 9.5t43 26.5q13 11 29 11q14 0 25.5 -11t11.5 -26z" />
    <glyph glyph-name="dotaccent" unicode="&#x2d9;" horiz-adv-x="174" 
d="M155 611q0 -29 -20 -48.5t-47 -19.5q-29 0 -48.5 19.5t-19.5 48.5q0 28 19.5 48t48.5 20q27 0 47 -20t20 -48z" />
    <glyph glyph-name="ring" unicode="&#x2da;" horiz-adv-x="209" 
d="M209 636q0 -22 -8 -41t-22 -33.5t-33 -22.5t-41 -8q-21 0 -40.5 8t-33.5 22.5t-22.5 33.5t-8.5 41q0 21 8.5 40.5t22.5 34t33.5 23t40.5 8.5q22 0 41 -8.5t33 -23t22 -34t8 -40.5zM151 636q0 20 -13 33.5t-33 13.5q-19 0 -33 -13.5t-14 -33.5q0 -19 14 -33t33 -14
q20 0 33 14t13 33z" />
    <glyph glyph-name="ogonek" unicode="&#x2db;" horiz-adv-x="194" 
d="M187 -133q0 -12 -8.5 -21.5t-21.5 -16.5t-28.5 -11t-28.5 -4q-40 0 -70 21t-30 69q0 34 17 62t49 50q10 8 23 8q8 0 16.5 -5t8.5 -18q0 -11 -10 -18q-20 -14 -30.5 -32.5t-10.5 -40.5q0 -23 11.5 -33t25.5 -10t22.5 8t19.5 13q8 5 17 5q12 0 20 -7.5t8 -18.5z" />
    <glyph glyph-name="tilde" unicode="&#x2dc;" horiz-adv-x="327" 
d="M325 662q0 -12 -4.5 -30.5t-16.5 -35.5t-32.5 -29.5t-51.5 -12.5q-26 0 -42 10.5t-28 23.5t-22.5 23.5t-24.5 10.5q-11 0 -19.5 -8t-13.5 -28q-3 -14 -14.5 -23t-25.5 -9q-13 0 -20.5 9.5t-7.5 22.5q0 12 4.5 30.5t16.5 35.5t32.5 29.5t52.5 12.5q25 0 40.5 -10.5
t27.5 -23t23 -23t25 -10.5q11 0 19.5 8t13.5 27q3 14 14 23t25 9t21.5 -9.5t7.5 -22.5z" />
    <glyph glyph-name="hungarumlaut" unicode="&#x2dd;" horiz-adv-x="338" 
d="M301 666q0 -14 -7 -22l-65 -82q-11 -12 -26 -12q-12 0 -23 8t-11 23q0 8 5 16l54 89q11 19 34 19q18 0 28.5 -12.5t10.5 -26.5zM152 666q0 -14 -7 -22l-66 -82q-9 -12 -25 -12q-14 0 -23.5 9.5t-9.5 22.5q0 8 4 15l54 89q11 19 34 19q18 0 28.5 -12.5t10.5 -26.5z" />
    <glyph glyph-name="uni0312" unicode="&#x312;" horiz-adv-x="255" 
d="M65 616q0 39 17.5 74t49.5 62q10 8 23 8q9 0 18 -7l1 -1q7 -9 7 -17q0 -5 -5 -13q-9 -13 -25.5 -31t-21.5 -39q2 1 6 1.5t9 0.5q23 0 38 -15.5t15 -40.5q0 -26 -17.5 -44.5t-43.5 -18.5q-28 0 -49.5 21t-21.5 60z" />
    <glyph glyph-name="uni03A9" unicode="&#x3a9;" horiz-adv-x="765" 
d="M731 366q0 -43 -11.5 -79t-30 -66t-43 -54t-51.5 -42h64q25 0 43 -18.5t18 -44.5t-18 -44t-43 -18h-153q-13 0 -25.5 5.5t-22 14.5t-15 21.5t-5.5 26.5q0 21 10 40t39 36q22 14 40.5 34t31 45t19.5 53t7 58q0 40 -12 78.5t-36.5 69.5t-63 50t-91.5 19t-91 -19t-63 -50
t-36.5 -69.5t-11.5 -78.5q0 -30 7 -58.5t20 -53t31 -44.5t40 -33q29 -17 38.5 -36.5t9.5 -40.5q0 -28 -20.5 -48t-46.5 -20h-151q-26 0 -44 18t-18 44t18 44.5t44 18.5h63q-27 18 -51.5 42t-43.5 54t-30.5 66t-11.5 79q0 71 26 129t72.5 98.5t110.5 62.5t139 22
q76 0 140 -22t110.5 -62.5t72.5 -98.5t26 -129z" />
    <glyph glyph-name="pi" unicode="&#x3c0;" horiz-adv-x="631" 
d="M629 427q0 -23 -16 -39t-38 -16h-32v-315q0 -26 -18.5 -44.5t-46.5 -18.5q-26 0 -44.5 18.5t-18.5 44.5v315h-199v-315q0 -26 -18.5 -44.5t-46.5 -18.5q-26 0 -44.5 18.5t-18.5 44.5v315h-31q-23 0 -39 16.5t-16 40.5q0 22 16 38t39 16h518q22 0 38 -16.5t16 -39.5z" />
    <glyph glyph-name="Wgrave" unicode="&#x1e80;" horiz-adv-x="918" 
d="M897 605q0 -11 -3 -20l-149 -521q-9 -31 -34.5 -50.5t-57.5 -19.5h-2q-33 0 -58 19.5t-33 50.5l-101 394l-100 -394q-8 -31 -33.5 -50.5t-56.5 -19.5h-2q-32 0 -58 19.5t-35 50.5l-150 522q-3 9 -3 19q0 29 21 51.5t55 22.5q26 0 46.5 -16t27.5 -42l106 -436l114 436
q6 23 25 37.5t45 14.5q23 0 41.5 -14.5t24.5 -37.5l114 -436l104 435q6 26 27.5 42.5t48.5 16.5q34 0 55 -22.5t21 -51.5zM514 767q0 -13 -9.5 -23t-23.5 -10q-11 0 -21 8l-93 82q-12 10 -12 27q0 15 11.5 27t27.5 12t28 -12l83 -89q9 -9 9 -22z" />
    <glyph glyph-name="wgrave" unicode="&#x1e81;" horiz-adv-x="769" 
d="M750 428q0 -9 -3 -18l-108 -354q-8 -27 -31.5 -44.5t-51.5 -17.5h-2q-29 0 -52.5 17t-31.5 45l-85 273l-85 -273q-8 -27 -31.5 -44.5t-52.5 -17.5h-2q-29 0 -52.5 17.5t-31.5 44.5l-108 354q-3 9 -3 18q0 23 17.5 42t46.5 19q20 0 37.5 -12.5t22.5 -32.5l79 -286l91 280
q8 23 27.5 37t45.5 14q23 0 42.5 -14t27.5 -37l91 -280l79 286q5 20 22.5 32.5t38.5 12.5q28 0 45.5 -18.5t17.5 -42.5zM440 583q0 -13 -9.5 -23t-23.5 -10q-11 0 -21 8l-93 82q-12 10 -12 27q0 15 11.5 27t27.5 12t28 -12l83 -89q9 -9 9 -22z" />
    <glyph glyph-name="Wacute" unicode="&#x1e82;" horiz-adv-x="918" 
d="M897 605q0 -11 -3 -20l-149 -521q-9 -31 -34.5 -50.5t-57.5 -19.5h-2q-33 0 -58 19.5t-33 50.5l-101 394l-100 -394q-8 -31 -33.5 -50.5t-56.5 -19.5h-2q-32 0 -58 19.5t-35 50.5l-150 522q-3 9 -3 19q0 29 21 51.5t55 22.5q26 0 46.5 -16t27.5 -42l106 -436l114 436
q6 23 25 37.5t45 14.5q23 0 41.5 -14.5t24.5 -37.5l114 -436l104 435q6 26 27.5 42.5t48.5 16.5q34 0 55 -22.5t21 -51.5zM562 851q0 -17 -12 -27l-93 -82q-10 -8 -21 -8q-12 0 -22.5 9.5t-10.5 23.5q0 13 9 22l83 89q10 12 27 12q15 0 27.5 -11t12.5 -28z" />
    <glyph glyph-name="wacute" unicode="&#x1e83;" horiz-adv-x="769" 
d="M750 428q0 -9 -3 -18l-108 -354q-8 -27 -31.5 -44.5t-51.5 -17.5h-2q-29 0 -52.5 17t-31.5 45l-85 273l-85 -273q-8 -27 -31.5 -44.5t-52.5 -17.5h-2q-29 0 -52.5 17.5t-31.5 44.5l-108 354q-3 9 -3 18q0 23 17.5 42t46.5 19q20 0 37.5 -12.5t22.5 -32.5l79 -286l91 280
q8 23 27.5 37t45.5 14q23 0 42.5 -14t27.5 -37l91 -280l79 286q5 20 22.5 32.5t38.5 12.5q28 0 45.5 -18.5t17.5 -42.5zM488 667q0 -17 -12 -27l-93 -82q-10 -8 -21 -8q-12 0 -22.5 9.5t-10.5 23.5q0 13 9 22l83 89q10 12 27 12q15 0 27.5 -11t12.5 -28z" />
    <glyph glyph-name="Wdieresis" unicode="&#x1e84;" horiz-adv-x="918" 
d="M897 605q0 -11 -3 -20l-149 -521q-9 -31 -34.5 -50.5t-57.5 -19.5h-2q-33 0 -58 19.5t-33 50.5l-101 394l-100 -394q-8 -31 -33.5 -50.5t-56.5 -19.5h-2q-32 0 -58 19.5t-35 50.5l-150 522q-3 9 -3 19q0 29 21 51.5t55 22.5q26 0 46.5 -16t27.5 -42l106 -436l114 436
q6 23 25 37.5t45 14.5q23 0 41.5 -14.5t24.5 -37.5l114 -436l104 435q6 26 27.5 42.5t48.5 16.5q34 0 55 -22.5t21 -51.5zM632 795q0 -29 -20 -48.5t-48 -19.5t-48 19.5t-20 48.5q0 28 20 47.5t48 19.5t48 -19.5t20 -47.5zM420 795q0 -29 -19.5 -48.5t-47.5 -19.5
q-29 0 -48.5 19.5t-19.5 48.5q0 28 19.5 47.5t48.5 19.5q28 0 47.5 -19.5t19.5 -47.5z" />
    <glyph glyph-name="wdieresis" unicode="&#x1e85;" horiz-adv-x="769" 
d="M750 428q0 -9 -3 -18l-108 -354q-8 -27 -31.5 -44.5t-51.5 -17.5h-2q-29 0 -52.5 17t-31.5 45l-85 273l-85 -273q-8 -27 -31.5 -44.5t-52.5 -17.5h-2q-29 0 -52.5 17.5t-31.5 44.5l-108 354q-3 9 -3 18q0 23 17.5 42t46.5 19q20 0 37.5 -12.5t22.5 -32.5l79 -286l91 280
q8 23 27.5 37t45.5 14q23 0 42.5 -14t27.5 -37l91 -280l79 286q5 20 22.5 32.5t38.5 12.5q28 0 45.5 -18.5t17.5 -42.5zM558 611q0 -29 -20 -48.5t-48 -19.5t-48 19.5t-20 48.5q0 28 20 47.5t48 19.5t48 -19.5t20 -47.5zM346 611q0 -29 -19.5 -48.5t-47.5 -19.5
q-29 0 -48.5 19.5t-19.5 48.5q0 28 19.5 47.5t48.5 19.5q28 0 47.5 -19.5t19.5 -47.5z" />
    <glyph glyph-name="Ygrave" unicode="&#x1ef2;" horiz-adv-x="645" 
d="M597 607q0 -19 -10 -35l-193 -299v-209q0 -29 -21 -49.5t-51 -20.5q-29 0 -49.5 20.5t-20.5 49.5v209l-195 300q-10 14 -10 34q0 24 19 44.5t49 20.5q17 0 32.5 -8t25.5 -24l150 -241l147 240q10 16 25.5 24.5t33.5 8.5q31 0 49.5 -20t18.5 -45zM378 767q0 -13 -9.5 -23
t-23.5 -10q-11 0 -21 8l-93 82q-12 10 -12 27q0 15 11.5 27t27.5 12t28 -12l83 -89q9 -9 9 -22z" />
    <glyph glyph-name="ygrave" unicode="&#x1ef3;" horiz-adv-x="513" 
d="M491 427q0 -14 -4 -23l-195 -483q-26 -63 -69 -90t-97 -27q-17 0 -31 4t-24.5 11.5t-16.5 18t-6 23.5q0 23 16.5 39.5t43.5 16.5h8t8 1q16 3 28.5 11t19.5 23l18 41l-165 412q-4 9 -4 21q0 23 17.5 43t46.5 20q19 0 35 -11t24 -31l112 -300l112 300q7 19 24 30.5t37 11.5
q29 0 45.5 -19.5t16.5 -42.5zM312 583q0 -13 -9.5 -23t-23.5 -10q-11 0 -21 8l-93 82q-12 10 -12 27q0 15 11.5 27t27.5 12t28 -12l83 -89q9 -9 9 -22z" />
    <glyph glyph-name="endash" unicode="&#x2013;" horiz-adv-x="593" 
d="M569 243q0 -23 -15.5 -39t-37.5 -16h-439q-22 0 -37.5 16t-15.5 39q0 22 15.5 37.5t37.5 15.5h439q22 0 37.5 -15.5t15.5 -37.5z" />
    <glyph glyph-name="emdash" unicode="&#x2014;" horiz-adv-x="833" 
d="M809 243q0 -23 -15.5 -39t-37.5 -16h-679q-22 0 -37.5 16t-15.5 39q0 22 15.5 37.5t37.5 15.5h679q22 0 37.5 -15.5t15.5 -37.5z" />
    <glyph glyph-name="quoteleft" unicode="&#x2018;" horiz-adv-x="255" 
d="M207 470q0 -33 -23 -56.5t-55 -23.5q-18 0 -34 7t-28.5 20t-20 32t-7.5 43q0 48 21.5 91.5t59.5 77.5q10 10 27 10q18 0 27 -11t9 -22q0 -14 -9 -21q-20 -16 -34.5 -37t-19.5 -41q2 1 8 2t11 1q29 0 48.5 -20t19.5 -52z" />
    <glyph glyph-name="quoteright" unicode="&#x2019;" horiz-adv-x="255" 
d="M215 575q0 -48 -21.5 -91.5t-59.5 -77.5q-10 -10 -27 -10t-26.5 11t-9.5 22q0 12 9 21q20 16 34.5 37t19.5 41q-2 -1 -8 -2t-11 -1q-29 0 -48.5 20t-19.5 52q0 33 23 56.5t55 23.5q18 0 34 -7t28.5 -20t20 -32t7.5 -43z" />
    <glyph glyph-name="quotesinglbase" unicode="&#x201a;" horiz-adv-x="256" 
d="M215 49q0 -48 -21.5 -91.5t-59.5 -77.5q-10 -10 -27 -10t-26.5 11t-9.5 22q0 12 9 21q20 16 34.5 37t19.5 41q-2 -1 -8 -2t-11 -1q-29 0 -48.5 20t-19.5 52q0 33 23 56.5t55 23.5q18 0 34 -7t28.5 -20t20 -32t7.5 -43z" />
    <glyph glyph-name="quotedblleft" unicode="&#x201c;" horiz-adv-x="459" 
d="M410 470q0 -33 -23 -56.5t-55 -23.5q-18 0 -34 7t-28.5 20t-20 32t-7.5 43q0 48 21.5 91.5t59.5 77.5q10 10 27 10t26.5 -11.5t9.5 -21.5q0 -14 -9 -21q-20 -16 -34.5 -37t-19.5 -41q2 1 8 2t11 1q29 0 48.5 -20t19.5 -52zM207 470q0 -33 -23 -56.5t-55 -23.5
q-18 0 -34 7t-28.5 20t-20 32t-7.5 43q0 48 21.5 91.5t59.5 77.5q10 10 27 10q18 0 27 -11t9 -22q0 -14 -9 -21q-20 -16 -34.5 -37t-19.5 -41q2 1 8 2t11 1q29 0 48.5 -20t19.5 -52z" />
    <glyph glyph-name="quotedblright" unicode="&#x201d;" horiz-adv-x="459" 
d="M419 575q0 -48 -21.5 -91.5t-59.5 -77.5q-11 -10 -27 -10q-18 0 -27 11t-9 22q0 12 9 21q20 16 34.5 37t19.5 41q-2 -1 -8 -2t-11 -1q-29 0 -48.5 20t-19.5 52q0 33 23 56.5t55 23.5q18 0 34 -7t28.5 -20t20 -32t7.5 -43zM216 575q0 -48 -21.5 -91.5t-59.5 -77.5
q-11 -10 -27 -10q-18 0 -27 11t-9 22q0 12 9 21q20 16 34.5 37t19.5 41q-2 -1 -8 -2t-11 -1q-29 0 -48.5 20t-19.5 52q0 33 23 56.5t55 23.5q18 0 34 -7t28.5 -20t20 -32t7.5 -43z" />
    <glyph glyph-name="quotedblbase" unicode="&#x201e;" horiz-adv-x="459" 
d="M419 49q0 -48 -21.5 -91.5t-59.5 -77.5q-11 -10 -27 -10q-18 0 -27 11t-9 22q0 12 9 21q20 16 34.5 37t19.5 41q-2 -1 -8 -2t-11 -1q-29 0 -48.5 20t-19.5 52q0 33 23 56.5t55 23.5q18 0 34 -7t28.5 -20t20 -32t7.5 -43zM215 49q0 -48 -21.5 -91.5t-59.5 -77.5
q-11 -10 -27 -10q-18 0 -27 11t-9 22q0 12 9 21q20 16 34.5 37t19.5 41q-2 -1 -8 -2t-11 -1q-29 0 -48.5 20t-19.5 52q0 33 23 56.5t55 23.5q18 0 34 -7t28.5 -20t20 -32t7.5 -43z" />
    <glyph glyph-name="dagger" unicode="&#x2020;" horiz-adv-x="277" 
d="M263 554q0 -14 -9 -23t-21 -8l-65 3l3 -172q0 -14 -9.5 -23.5t-24.5 -9.5q-14 0 -23 9.5t-9 23.5l4 172l-65 -3q-12 -1 -21 8t-9 23q0 12 9 20.5t21 8.5l65 -2l-3 69q-1 14 8.5 23.5t24.5 9.5q13 0 23 -9.5t9 -23.5l-3 -69l65 2q12 0 21 -8.5t9 -20.5z" />
    <glyph glyph-name="daggerdbl" unicode="&#x2021;" horiz-adv-x="277" 
d="M263 304q0 -12 -9 -20.5t-21 -8.5l-65 2l3 -70q1 -14 -9.5 -23.5t-24.5 -9.5t-23.5 9.5t-8.5 23.5l3 70l-64 -2q-12 -1 -21 8t-9 23q0 11 9 20.5t21 8.5l64 -3v194l-64 -3q-12 -1 -21 8t-9 23q0 12 9 20.5t21 8.5l64 -2l-3 69q-1 14 9 23.5t25 9.5q13 0 23 -9.5t9 -23.5
l-3 -69l65 2q12 0 21 -8.5t9 -22.5q0 -12 -9 -21t-21 -8l-65 3v-194l65 3q12 1 21 -8.5t9 -22.5z" />
    <glyph glyph-name="bullet" unicode="&#x2022;" horiz-adv-x="358" 
d="M299 242q0 -24 -9.5 -45.5t-25.5 -37.5t-37.5 -25.5t-46.5 -9.5t-46.5 9.5t-37.5 25.5t-25.5 37.5t-9.5 45.5q0 25 9.5 46.5t25.5 37.5t37.5 25.5t46.5 9.5t46.5 -9.5t37.5 -25.5t25.5 -37.5t9.5 -46.5z" />
    <glyph glyph-name="ellipsis" unicode="&#x2026;" horiz-adv-x="768" 
d="M720 70q0 -16 -6.5 -30.5t-17.5 -25.5t-26 -17.5t-31 -6.5q-17 0 -31.5 6.5t-25 17.5t-17 25.5t-6.5 30.5q0 33 23.5 57t56.5 24t57 -24t24 -57zM464 70q0 -16 -6.5 -30.5t-17.5 -25.5t-26 -17.5t-31 -6.5q-17 0 -31.5 6.5t-25 17.5t-17 25.5t-6.5 30.5q0 33 23.5 57
t56.5 24t57 -24t24 -57zM208 70q0 -16 -6.5 -30.5t-17.5 -25.5t-26 -17.5t-31 -6.5q-17 0 -31.5 6.5t-25 17.5t-17 25.5t-6.5 30.5q0 33 23.5 57t56.5 24t57 -24t24 -57z" />
    <glyph glyph-name="perthousand" unicode="&#x2030;" horiz-adv-x="1122" 
d="M195 677q39 0 70 -13t53.5 -35.5t34.5 -53.5t12 -66t-12 -65t-34.5 -52t-53.5 -34.5t-70 -12.5q-38 0 -69.5 12.5t-53.5 34.5t-34 52t-12 65t12 66t34 53.5t53.5 35.5t69.5 13zM562 321q38 0 69.5 -13t54 -35.5t34.5 -53.5t12 -66t-12 -65t-34.5 -52.5t-54 -35
t-69.5 -12.5t-69.5 12.5t-53.5 35t-34 52.5t-12 65t12 66t34 53.5t53.5 35.5t69.5 13zM195 415q35 0 57 24.5t22 69.5q0 46 -22 71.5t-57 25.5q-34 0 -56.5 -25.5t-22.5 -71.5q0 -45 22.5 -69.5t56.5 -24.5zM562 58q35 0 57.5 25t22.5 70q0 46 -22.5 71.5t-57.5 25.5
t-57 -25.5t-22 -71.5q0 -45 22 -70t57 -25zM926 321q38 0 69.5 -13t54 -35.5t34.5 -53.5t12 -66t-12 -65t-34.5 -52.5t-54 -35t-69.5 -12.5t-69.5 12.5t-53.5 35t-34 52.5t-12 65t12 66t34 53.5t53.5 35.5t69.5 13zM926 58q35 0 57.5 25t22.5 70q0 46 -22.5 71.5t-57.5 25.5
t-57 -25.5t-22 -71.5q0 -45 22 -70t57 -25zM211 8q-9 -14 -26 -14q-14 0 -23.5 9t-9.5 22q0 9 5 17l394 617q9 14 26 14q13 0 23 -9.5t10 -22.5q0 -8 -5 -16z" />
    <glyph glyph-name="guilsinglleft" unicode="&#x2039;" horiz-adv-x="337" 
d="M257 102q0 -16 -11.5 -30.5t-31.5 -14.5q-19 0 -31 14l-100 112q-22 25 -22 59t23 60l99 110q12 13 30 13q17 0 30.5 -12t13.5 -31q0 -17 -10 -28l-100 -111l100 -112q10 -11 10 -29z" />
    <glyph glyph-name="guilsinglright" unicode="&#x203a;" horiz-adv-x="337" 
d="M276 242q0 -34 -22 -59l-100 -112q-12 -14 -31 -14q-17 0 -30.5 13t-13.5 32q0 17 11 29l100 112l-100 111q-10 11 -10 27q0 17 12 30.5t31 13.5t31 -13l99 -110q23 -26 23 -60z" />
    <glyph glyph-name="fraction" unicode="&#x2044;" horiz-adv-x="159" 
d="M308 641q0 -8 -5 -16l-394 -617q-9 -14 -26 -14q-14 0 -23.5 9t-9.5 22q0 9 5 17l394 617q9 14 26 14q13 0 23 -9.5t10 -22.5z" />
    <glyph glyph-name="Euro" unicode="&#x20ac;" horiz-adv-x="709" 
d="M412 678q86 0 145.5 -32t97.5 -78q14 -17 14 -39q0 -27 -20 -45.5t-48 -18.5q-14 0 -27.5 6t-24.5 17q-29 30 -64 47t-73 17q-31 0 -58.5 -8t-51 -22t-42.5 -34.5t-32 -45.5h215q14 0 25 -11t11 -27q0 -15 -11 -26t-25 -11h-238q-2 -8 -2 -17v-17t0.5 -15.5t1.5 -15.5
h237q15 0 26 -11t11 -28q0 -15 -11 -26t-26 -11h-215q13 -26 31.5 -46.5t42.5 -35t52 -22.5t59 -8q38 0 73.5 16t63.5 47q11 11 25 17t29 6q28 0 46.5 -18.5t18.5 -43.5q0 -11 -3 -21t-11 -18q-38 -46 -97 -78.5t-145 -32.5q-61 0 -115.5 17t-99 48t-77 75t-48.5 98h-20
q-15 0 -26 11t-11 28q0 15 11 26t26 11h6q-1 8 -1 15.5v15.5v17t1 17h-6q-15 0 -26 11t-11 28q0 14 11 25t26 11h21q16 54 48.5 97.5t76.5 74.5t98.5 47.5t115.5 16.5z" />
    <glyph glyph-name="trademark" unicode="&#x2122;" horiz-adv-x="454" 
d="M419 454q0 -13 -14 -13t-14 13v175l-69 -168q-3 -8 -10 -8t-10 8l-69 168v-175q0 -13 -14 -13t-14 13v197q0 9 6.5 15.5t17.5 6.5q16 0 22 -14l61 -152l60 151q7 15 23 15q11 0 17.5 -6.5t6.5 -15.5v-197zM175 654q0 -5 -3.5 -9t-8.5 -4h-56v-187q0 -13 -14 -13t-14 13
v187h-56q-5 0 -8.5 4t-3.5 9t3.5 9t8.5 4h140q5 0 8.5 -4t3.5 -9z" />
    <glyph glyph-name="partialdiff" unicode="&#x2202;" horiz-adv-x="574" 
d="M543 256q0 -60 -17.5 -109.5t-50.5 -84.5t-80.5 -54.5t-107.5 -19.5t-107 19t-80 51t-50.5 75t-17.5 91t16 91t44.5 75.5t68 51t85.5 18.5q51 0 89.5 -18.5t64.5 -60.5q-23 57 -63.5 108.5t-99.5 89.5q-14 9 -20.5 21t-6.5 26q0 23 16.5 39t37.5 16q23 0 46 -15
q48 -34 90.5 -78t74 -96.5t50 -112t18.5 -123.5zM411 224q0 26 -8.5 48.5t-24 39t-38.5 26t-53 9.5t-52.5 -9.5t-38.5 -26t-24 -39t-8 -48.5t8 -48.5t24 -39t38.5 -26t52.5 -9.5t53 9.5t38.5 26t24 39t8.5 48.5z" />
    <glyph glyph-name="Delta" unicode="&#x2206;" horiz-adv-x="684" 
d="M663 55q0 -22 -15.5 -38.5t-39.5 -16.5h-533q-24 0 -39.5 16.5t-15.5 38.5q0 11 4 20l202 523q13 34 43.5 54.5t65.5 20.5q39 4 74 -16.5t49 -58.5l201 -523q2 -5 3 -10t1 -10zM488 125l-146 400l-146 -400h292z" />
    <glyph glyph-name="product" unicode="&#x220f;" horiz-adv-x="788" 
d="M769 604q0 -26 -18 -44t-43 -18h-49v-568q0 -29 -21 -49.5t-51 -20.5q-29 0 -50 20.5t-21 49.5v568h-244v-568q0 -29 -21 -49.5t-51 -20.5q-29 0 -50 20.5t-21 49.5v568h-48q-26 0 -44 18.5t-18 45.5q0 25 18 43t44 18h627q25 0 43 -18.5t18 -44.5z" />
    <glyph glyph-name="summation" unicode="&#x2211;" horiz-adv-x="586" 
d="M546 -29q0 -25 -18 -43t-43 -18h-364q-16 0 -30.5 6.5t-26 18t-18 27t-6.5 34.5q0 32 20 58l188 241l-187 228q-20 25 -20 59q0 36 23 60.5t57 24.5h364q25 0 43 -18.5t18 -44.5t-18 -44t-43 -18h-261l149 -184q22 -28 22 -62q0 -35 -22 -63l-156 -198h268q25 0 43 -18.5
t18 -45.5z" />
    <glyph glyph-name="minus" unicode="&#x2212;" horiz-adv-x="511" 
d="M488 339q0 -18 -11 -29.5t-27 -11.5h-388q-17 0 -28 11.5t-11 29.5q0 16 11 27t28 11h388q16 0 27 -11t11 -27z" />
    <glyph glyph-name="radical" unicode="&#x221a;" horiz-adv-x="682" 
d="M640 629q0 -9 -2 -14l-222 -585q-6 -16 -21 -26t-34 -10q-17 0 -32 10t-21 27l-100 271l-101 -36q-4 -2 -12 -2q-15 0 -27 11t-12 29q0 12 7 22t19 15l105 36q11 4 26 4q25 0 46.5 -14.5t30.5 -38.5l74 -201l190 518q11 28 42 28q20 0 32 -13t12 -31z" />
    <glyph glyph-name="infinity" unicode="&#x221e;" horiz-adv-x="690" 
d="M661 335q0 -32 -9 -63.5t-29.5 -57t-52 -41t-76.5 -15.5q-25 0 -47.5 7.5t-41.5 21t-34.5 32t-25.5 39.5q-10 -21 -25.5 -39.5t-34.5 -32t-42 -21t-48 -7.5q-44 0 -75.5 16t-51.5 41t-29.5 56.5t-9.5 63.5t9.5 64t29.5 57t51.5 40.5t75.5 15.5q25 0 48 -8t42 -21.5
t34 -31.5t26 -39q10 21 25.5 39t34.5 31.5t41.5 21.5t47.5 8q45 0 76.5 -15.5t52 -41t29.5 -57t9 -63.5zM576 335q0 45 -25.5 72t-66.5 27q-18 0 -34 -8t-29 -21.5t-23 -31.5t-17 -38q7 -20 17 -37.5t23 -31t29 -21.5t34 -8q41 0 66.5 26.5t25.5 71.5zM309 335q-7 20 -17 38
t-22.5 31.5t-28.5 21.5t-34 8q-42 0 -68 -27t-26 -72t26 -72t68 -27q18 0 34 8t28.5 21.5t22.5 31.5t17 38z" />
    <glyph glyph-name="integral" unicode="&#x222b;" horiz-adv-x="373" 
d="M362 726q0 -18 -11 -30.5t-34 -12.5h-22q-26 0 -44 -20t-18 -54v-550q0 -37 -13 -66.5t-34.5 -50t-49.5 -31.5t-58 -11h-21q-23 0 -34.5 12.5t-11.5 29.5q0 18 11.5 30.5t34.5 12.5h21q26 0 44.5 20.5t18.5 54.5v548q0 37 13 66.5t34 50.5t49 32t58 11h22q23 0 34 -12.5
t11 -29.5z" />
    <glyph glyph-name="approxequal" unicode="&#x2248;" horiz-adv-x="504" 
d="M479 440q0 -17 -11.5 -28t-26.5 -11q-3 0 -5.5 0.5t-5.5 1.5q-16 5 -32.5 7t-34.5 2q-35 0 -58.5 -8t-46 -18t-49 -18t-68.5 -8q-14 0 -33.5 1.5t-38 6.5t-31.5 15t-13 28q0 17 11.5 28t26.5 11q3 0 5.5 -0.5t5.5 -1.5q31 -9 67 -9t59.5 8t45.5 17.5t48.5 17.5t68.5 8
q14 0 34 -1t38 -6t31 -15t13 -28zM479 257q0 -17 -11.5 -28t-26.5 -11q-3 0 -5.5 0.5t-5.5 1.5q-16 5 -32.5 7t-34.5 2q-35 0 -58.5 -8t-46 -18t-49 -18t-68.5 -8q-14 0 -33.5 1.5t-38 6.5t-31.5 15t-13 28q0 17 11.5 28t26.5 11q3 0 5.5 -0.5t5.5 -1.5q31 -9 67 -9t59.5 8
t45.5 17.5t48.5 17.5t68.5 8q14 0 34 -1t38 -6t31 -15t13 -28z" />
    <glyph glyph-name="notequal" unicode="&#x2260;" horiz-adv-x="504" 
d="M481 239q0 -16 -11 -27t-27 -11h-238l-62 -99q-9 -14 -27 -14q-13 0 -23 9.5t-10 22.5q0 8 5 16l41 65h-68q-16 0 -27 11.5t-11 28.5q0 16 11 27t27 11h118l70 109h-187q-16 0 -27.5 12t-11.5 29q0 16 11.5 27.5t27.5 11.5h237l62 97q9 14 26 14q15 0 24 -11t9 -22
q0 -8 -4 -15l-40 -63h66q16 0 27.5 -12t11.5 -29q0 -16 -11.5 -27.5t-27.5 -11.5h-116l-71 -109h188q16 0 27 -11.5t11 -28.5z" />
    <glyph glyph-name="lessequal" unicode="&#x2264;" horiz-adv-x="504" 
d="M480 173q0 -20 -13.5 -31t-28.5 -11q-9 0 -16 3l-361 161q-17 8 -27.5 24.5t-10.5 36.5q0 18 10.5 34t27.5 24l361 162q7 3 16 3q16 0 29 -11.5t13 -31.5q0 -12 -6.5 -23t-18.5 -16l-335 -143l335 -142q12 -5 18.5 -15.5t6.5 -23.5zM481 40q1 -17 -11 -28.5t-27 -11.5
h-382q-16 0 -27 11.5t-11 28.5q0 16 11 27t27 11h382q16 0 27 -11t11 -27z" />
    <glyph glyph-name="greaterequal" unicode="&#x2265;" horiz-adv-x="504" 
d="M481 356q0 -20 -10.5 -36.5t-27.5 -24.5l-361 -161q-8 -3 -16 -3q-16 0 -29 11.5t-13 30.5q0 13 6.5 23.5t18.5 15.5l335 142l-335 143q-13 5 -19.5 16t-6.5 23q-1 20 12.5 31.5t30.5 11.5q8 0 16 -3l361 -162q17 -8 27.5 -24t10.5 -34zM481 40q0 -17 -11 -28.5
t-27 -11.5h-383q-16 0 -27 11.5t-11 28.5q0 16 11 27t27 11h383q16 0 27 -11t11 -27z" />
    <glyph glyph-name="lozenge" unicode="&#x25ca;" horiz-adv-x="375" 
d="M345 334q0 -25 -10 -46l-133 -279q-4 -9 -15 -9q-10 0 -14 9l-132 278q-6 12 -8 24t-3 23q0 11 2.5 22.5t8.5 23.5l132 278q4 9 16 9q9 0 13 -9l133 -278q5 -13 7.5 -24t2.5 -22zM320 334l-133 292l-132 -292l133 -293z" />
    <glyph glyph-name="commaaccent" unicode="&#xf6c3;" horiz-adv-x="255" 
d="M197 -138q0 -39 -17.5 -74t-49.5 -62q-10 -8 -23 -8q-9 0 -18 7l-1 1q-7 9 -7 17q0 5 5 13q9 13 25.5 31t21.5 39q-2 -1 -6 -1.5t-9 -0.5q-23 0 -38 15.5t-15 40.5q0 26 17.5 44.5t43.5 18.5q28 0 49.5 -21t21.5 -60z" />
    <glyph glyph-name="uniF8FF" unicode="&#xf8ff;" horiz-adv-x="667" 
d="M625 154q0 -23 -9 -43.5t-24 -35.5t-35 -24t-43 -9t-43.5 9t-35.5 24t-24 35.5t-9 43.5v66h-137v-66q0 -23 -9 -43.5t-24 -35.5t-35.5 -24t-43.5 -9t-43 9t-35 24t-24 35.5t-9 43.5t9 43t24 35t35 24t43 9h66v137h-65q-23 0 -43.5 9t-35.5 24t-24 35.5t-9 43.5t9 43
t24 35t35.5 24t43.5 9t43 -9t35 -24t24 -35t9 -43v-67h137v67q0 23 9 43t24 35t35.5 24t43.5 9t43 -9t35 -24t24 -35t9 -43t-9 -43.5t-24 -35.5t-35 -24t-43 -9h-66v-137h66q23 0 43 -9t35 -24t24 -35t9 -43zM579 514q0 27 -19 46.5t-46 19.5q-28 0 -47 -19.5t-19 -46.5v-67
h66q27 0 46 19.5t19 47.5zM402 265v137h-137v-137h137zM579 154q0 27 -18.5 46.5t-46.5 19.5h-66v-66q0 -28 19 -47.5t47 -19.5q27 0 46 19.5t19 47.5zM219 447v67q0 27 -19 46.5t-46 19.5q-28 0 -47.5 -19.5t-19.5 -46.5q0 -28 19.5 -47.5t47.5 -19.5h65zM219 154v66h-67
q-27 0 -46 -19.5t-19 -46.5q0 -28 19 -47.5t47 -19.5q27 0 46.5 19.5t19.5 47.5z" />
    </font>
</defs>
</svg>
