<?xml version="1.0" standalone="no"?>
<!DOCTYPE svg PUBLIC "-//W3C//DTD SVG 1.1//EN" "http://www.w3.org/Graphics/SVG/1.1/DTD/svg11.dtd" >
<svg xmlns="http://www.w3.org/2000/svg" xmlns:xlink="http://www.w3.org/1999/xlink" version="1.1">
<metadata>
Created by FontForge 20170924 at Mon Jan 17 19:26:09 2011
 By www-data
Copyright (c) Mark Simonson, 2010. All rights reserved.
</metadata>
<defs>
<font id="ProximaNovaSoft-Semibold" horiz-adv-x="568" >
  <font-face 
    font-family="Proxima Nova Soft Sb"
    font-weight="600"
    font-stretch="normal"
    units-per-em="1000"
    panose-1="2 0 5 6 3 0 0 2 0 4"
    ascent="775"
    descent="-225"
    x-height="483"
    cap-height="673"
    bbox="-153 -275 1079 908"
    underline-thickness="20"
    underline-position="-133"
    unicode-range="U+000D-FB02"
  />
<missing-glyph horiz-adv-x="492" 
d="M422 -55q0 -14 -10.5 -24.5t-24.5 -10.5h-281q-14 0 -24.5 10.5t-10.5 24.5v772q0 14 10.5 24.5t24.5 10.5h281q14 0 24.5 -10.5t10.5 -24.5v-772zM390 -60v782h-288v-782h288z" />
    <glyph glyph-name="fi" unicode="fi" horiz-adv-x="553" 
d="M431 673q27 0 46.5 -19t19.5 -46q0 -28 -19.5 -47t-46.5 -19t-46.5 19t-19.5 47q0 27 19.5 46t46.5 19zM485 47q0 -22 -16 -37.5t-38 -15.5t-37.5 15.5t-15.5 37.5v390q0 21 15.5 36.5t39.5 15.5q21 0 36.5 -15.5t15.5 -36.5v-390zM324 633q0 -18 -10 -30.5t-27 -12.5
q-2 0 -9 1t-11 1q-30 0 -48 -20.5t-18 -58.5v-30h58q19 0 32.5 -14t13.5 -33t-13.5 -33t-32.5 -14h-58v-342q0 -22 -16 -37.5t-38 -15.5q-23 0 -38.5 15.5t-15.5 37.5v342h-40q-19 0 -32.5 14t-13.5 34q0 19 13.5 32.5t32.5 13.5h40v30q0 76 42.5 120t111.5 44q77 0 77 -44z
" />
    <glyph glyph-name="fl" unicode="fl" horiz-adv-x="553" 
d="M485 47q0 -22 -16 -37.5t-38 -15.5t-37.5 15.5t-15.5 37.5v574q0 21 15.5 36.5t39.5 15.5q21 0 36.5 -15.5t15.5 -36.5v-574zM324 633q0 -18 -10 -30.5t-27 -12.5q-2 0 -9 1t-11 1q-30 0 -48 -20.5t-18 -58.5v-30h58q19 0 32.5 -14t13.5 -33t-13.5 -33t-32.5 -14h-58
v-342q0 -22 -16 -37.5t-38 -15.5q-23 0 -38.5 15.5t-15.5 37.5v342h-40q-19 0 -32.5 14t-13.5 34q0 19 13.5 32.5t32.5 13.5h40v30q0 76 42.5 120t111.5 44q77 0 77 -44z" />
    <glyph glyph-name=".notdef" horiz-adv-x="492" 
d="M422 -55q0 -14 -10.5 -24.5t-24.5 -10.5h-281q-14 0 -24.5 10.5t-10.5 24.5v772q0 14 10.5 24.5t24.5 10.5h281q14 0 24.5 -10.5t10.5 -24.5v-772zM390 -60v782h-288v-782h288z" />
    <glyph glyph-name=".null" horiz-adv-x="0" 
 />
    <glyph glyph-name="nonmarkingreturn" horiz-adv-x="333" 
 />
    <glyph glyph-name="NULL" horiz-adv-x="0" 
 />
    <glyph glyph-name="NULL" horiz-adv-x="0" 
 />
    <glyph glyph-name="CR" unicode="&#xd;" horiz-adv-x="0" 
 />
    <glyph glyph-name="space" unicode=" " horiz-adv-x="257" 
 />
    <glyph glyph-name="exclam" unicode="!" horiz-adv-x="246" 
d="M186 610q0 -25 -15 -365q-1 -20 -14.5 -33t-34.5 -13q-19 0 -32.5 13t-14.5 33q-15 340 -15 365q-1 26 17.5 44.5t46.5 18.5q26 0 44 -18.5t18 -44.5zM194 60q0 -28 -21 -49t-50 -21t-49.5 21t-20.5 49q0 29 20.5 50t49.5 21t50 -21t21 -50z" />
    <glyph glyph-name="quotedbl" unicode="&#x22;" horiz-adv-x="382" 
d="M168 617q0 -12 -32 -211q-4 -23 -29 -23q-23 0 -27 23q-32 179 -32 211q0 25 17.5 42.5t42.5 17.5q24 0 42 -17.5t18 -42.5zM334 617q0 -18 -31 -211q-5 -23 -30 -23q-22 0 -26 23q-32 179 -32 211q0 25 17.5 42.5t42.5 17.5t42 -17.5t17 -42.5z" />
    <glyph glyph-name="numbersign" unicode="#" horiz-adv-x="607" 
d="M579 456q0 -14 -9.5 -23.5t-23.5 -9.5h-81l-60 -179h62q14 0 24 -10.5t10 -25.5q0 -14 -10 -24t-24 -10h-85l-52 -154q-8 -26 -37 -26q-17 0 -28 11t-11 26q0 4 2 12l45 131h-101l-52 -155q-8 -26 -37 -26q-17 -1 -27.5 10.5t-10.5 27.5q0 7 2 12l44 131h-55
q-14 0 -24.5 10t-10.5 26q0 14 10.5 24t24.5 10h79l59 179h-59q-14 0 -23.5 10t-9.5 25q0 14 10 24t23 10h83l51 155q8 25 36 25q17 0 28 -11t11 -26q0 -8 -1 -11l-44 -132h101l51 155q8 25 36 25q17 0 28 -11t11 -26q0 -8 -1 -12l-45 -131h58q14 0 23.5 -10.5t9.5 -25.5z
M383 423h-100l-59 -179h100z" />
    <glyph glyph-name="dollar" unicode="$" horiz-adv-x="606" 
d="M566 195q0 -82 -54.5 -138.5t-161.5 -66.5v-57q0 -16 -12 -27.5t-28 -11.5q-18 0 -30 11.5t-12 27.5v57q-64 5 -122.5 27.5t-85.5 57.5q-11 14 -11 31q0 23 16.5 40t38.5 17q17 0 33 -11q60 -46 131 -56v191q-47 12 -78 23.5t-65 33t-51.5 56t-17.5 81.5q0 78 58 132
t154 62v60q0 16 12 27.5t30 11.5q16 0 28 -11.5t12 -27.5v-61q124 -14 173 -72q11 -13 11 -30q0 -23 -17.5 -39.5t-40.5 -16.5q-9 0 -21 5q-70 38 -105 45v-170q37 -10 62.5 -19t57 -25.5t50.5 -36t32.5 -50.5t13.5 -70zM268 417v154q-41 -5 -65.5 -26.5t-24.5 -54.5
q0 -27 23 -43.5t67 -29.5zM444 183q0 31 -24.5 49.5t-69.5 32.5v-169q47 7 70.5 31.5t23.5 55.5z" />
    <glyph glyph-name="percent" unicode="%" horiz-adv-x="747" 
d="M360 510q0 -71 -46 -117.5t-121 -46.5q-73 0 -119 46.5t-46 117.5q0 72 46 119.5t119 47.5q75 0 121 -47.5t46 -119.5zM600 630l-399 -624q-7 -12 -23 -12q-12 0 -20.5 8t-8.5 20q0 8 4 15l398 624q10 12 24 12q11 0 20 -9t9 -20q0 -6 -4 -14zM720 152q0 -70 -47 -117
t-120 -47t-119 46.5t-46 117.5q0 72 46 119.5t119 47.5t120 -48t47 -119zM106 510q0 -42 24.5 -69.5t62.5 -27.5q39 0 63.5 27.5t24.5 69.5q0 45 -24.5 72t-63.5 27q-38 0 -62.5 -27.5t-24.5 -71.5zM466 152q0 -43 24.5 -70t62.5 -27q39 0 64 27t25 70q0 44 -25 71.5
t-64 27.5q-38 0 -62.5 -27.5t-24.5 -71.5z" />
    <glyph glyph-name="ampersand" unicode="&#x26;" horiz-adv-x="644" 
d="M499 131q6 -7 27 -26.5t30 -33t9 -27.5q0 -20 -14.5 -35.5t-35.5 -15.5q-5 0 -11.5 2t-11.5 5t-12.5 8.5t-11.5 9t-11 11t-10 10.5t-9.5 10.5t-7.5 8.5q-81 -70 -186 -70q-94 0 -154.5 49.5t-60.5 140.5q0 70 38.5 115t105.5 80q-47 85 -47 146q0 68 52 113t131 45
q71 0 118 -37t47 -100q0 -36 -13 -65t-40 -51.5t-50.5 -36t-62.5 -32.5q18 -25 37.5 -49t30.5 -37t33 -38t29 -33q30 46 52 100q10 27 42 27q20 0 33.5 -14t13.5 -32q0 -11 -6 -24q-24 -55 -74 -124zM143 188q0 -52 33.5 -83.5t81.5 -31.5q58 0 113 47q-95 102 -155 186
q-73 -50 -73 -118zM313 598q-33 0 -55.5 -23t-22.5 -58q0 -39 33 -100q55 26 83.5 52.5t28.5 64.5q0 30 -19 47t-48 17z" />
    <glyph glyph-name="quotesingle" unicode="'" horiz-adv-x="215" 
d="M168 617q0 -12 -32 -211q-4 -23 -29 -23q-23 0 -27 23q-32 179 -32 211q0 25 17.5 42.5t42.5 17.5q24 0 42 -17.5t18 -42.5z" />
    <glyph glyph-name="parenleft" unicode="(" horiz-adv-x="278" 
d="M251 -139q0 -19 -13.5 -34t-32.5 -15q-22 0 -33 17q-61 85 -95.5 195t-34.5 219t34.5 219t95.5 196q11 16 33 16q20 0 33 -14t13 -32q0 -9 -5 -21q-88 -178 -88 -364q0 -188 88 -361q5 -12 5 -21z" />
    <glyph glyph-name="parenright" unicode=")" horiz-adv-x="278" 
d="M237 243q0 -109 -35 -219t-95 -195q-12 -17 -34 -17q-19 0 -32 14.5t-13 33.5q0 13 4 22q88 173 88 361q0 186 -88 364q-5 10 -5 20q0 18 13 32.5t32 14.5q22 0 34 -16q61 -86 96 -196t35 -219z" />
    <glyph glyph-name="asterisk" unicode="*" horiz-adv-x="347" 
d="M175 683q11 0 19 -8t7 -19l-5 -91l76 48q5 4 14 4q10 0 18.5 -7t8.5 -20q0 -17 -13 -23l-81 -41l80 -42q14 -6 14 -22q0 -11 -8 -19.5t-20 -8.5q-8 0 -13 4l-76 49l5 -91q1 -11 -7.5 -19t-20.5 -8t-19.5 8t-7.5 19l4 91l-77 -49q-7 -5 -13 -5q-10 0 -18.5 8.5t-8.5 19.5
q0 17 14 23l80 42l-80 41q-14 8 -14 23q0 12 8 20t19 8q7 0 14 -4l76 -49l-4 91q0 12 8 19.5t21 7.5z" />
    <glyph glyph-name="plus" unicode="+" horiz-adv-x="502" 
d="M479 339q0 -16 -9.5 -26t-23.5 -10h-157v-176q0 -16 -11 -26.5t-27 -10.5t-26.5 10.5t-10.5 26.5v176h-157q-14 0 -24 10t-10 26q0 14 10 23.5t24 9.5h157v169q0 15 11 25.5t28 10.5q15 0 25.5 -10.5t10.5 -25.5v-169h157q14 0 23.5 -10t9.5 -23z" />
    <glyph glyph-name="comma" unicode="," horiz-adv-x="246" 
d="M200 39q0 -90 -77 -159q-10 -8 -21 -8q-12 0 -22.5 8t-10.5 21q0 12 9 21q45 38 51 78q-6 -3 -17 -3q-26 0 -43 18t-17 46q0 29 20 49.5t48 20.5q33 0 56.5 -25t23.5 -67z" />
    <glyph glyph-name="hyphen" unicode="-" horiz-adv-x="300" 
d="M276 243q0 -20 -13 -33.5t-32 -13.5h-162q-19 0 -32 13.5t-13 33.5q0 19 13 32t32 13h162q19 0 32 -13t13 -32z" />
    <glyph glyph-name="period" unicode="." horiz-adv-x="246" 
d="M194 60q0 -29 -21 -50t-50 -21t-50 21t-21 50t21 50t50 21t50 -21t21 -50z" />
    <glyph glyph-name="slash" unicode="/" horiz-adv-x="316" 
d="M304 658q0 -4 -2 -12l-216 -649q-8 -25 -36 -25q-16 0 -27.5 11t-11.5 26q0 6 3 12l216 649q10 25 37 25q15 0 26 -11t11 -26z" />
    <glyph glyph-name="zero" unicode="0" horiz-adv-x="617" 
d="M576 333q0 -65 -16 -125t-47.5 -110t-84.5 -80t-120 -30t-120 30t-84 80t-47 110t-16 125q0 89 26.5 164.5t89 127.5t151.5 52q67 0 120 -29.5t84.5 -79.5t47.5 -109.5t16 -125.5zM454 333q0 105 -35 171.5t-111 66.5q-75 0 -110.5 -66.5t-35.5 -171.5t35.5 -172
t110.5 -67q76 0 111 67t35 172z" />
    <glyph glyph-name="one" unicode="1" horiz-adv-x="383" 
d="M313 53q0 -24 -18 -41.5t-43 -17.5q-24 0 -41.5 17.5t-17.5 41.5v459l-80 -83q-13 -14 -33 -14t-35 14.5t-15 35.5t15 36l149 151q18 20 50 20q28 0 48.5 -19.5t20.5 -47.5v-552z" />
    <glyph glyph-name="two" unicode="2" horiz-adv-x="595" 
d="M541 54q0 -23 -15.5 -38.5t-36.5 -15.5h-391q-22 0 -38.5 16.5t-16.5 41.5q0 31 24 49q194 146 268 222t74 142q0 48 -35 74t-85 26q-84 0 -146 -49q-17 -12 -34 -12q-21 0 -37 15.5t-16 38.5q0 14 9 28q30 38 94 61.5t128 23.5q103 0 173.5 -55t70.5 -151
q0 -87 -71 -171.5t-218 -194.5h247q21 0 36.5 -15t15.5 -36z" />
    <glyph glyph-name="three" unicode="3" horiz-adv-x="575" 
d="M529 182q0 -86 -69 -140t-184 -54q-73 0 -138 24.5t-93 63.5q-9 12 -9 26q0 22 16 38t37 16q16 0 31 -10q69 -52 153 -52q64 0 100.5 27t36.5 73q0 93 -146 93q-36 -3 -60 9.5t-24 44.5q0 22 15 37t39 15q165 -5 165 86q0 44 -37.5 68t-95.5 24q-78 0 -140 -47
q-14 -9 -30 -9q-20 0 -36 14.5t-16 35.5q0 23 18 36q86 76 215 76q110 0 176 -48.5t66 -131.5q0 -62 -43.5 -102.5t-101.5 -50.5q57 -5 106 -48t49 -114z" />
    <glyph glyph-name="four" unicode="4" horiz-adv-x="582" 
d="M560 202q0 -22 -15 -37t-36 -15h-44v-97q0 -24 -17.5 -41.5t-42.5 -17.5q-24 0 -41.5 17.5t-17.5 41.5v97h-263q-25 0 -43 18.5t-18 46.5q0 20 11 39l240 371q14 22 39 35t51 13q41 5 71.5 -16.5t30.5 -59.5v-342h44q21 0 36 -15.5t15 -37.5zM346 255v305l-201 -305h201z
" />
    <glyph glyph-name="five" unicode="5" horiz-adv-x="601" 
d="M560 215q0 -104 -71 -165.5t-185 -61.5q-71 0 -134 22t-91 60q-9 12 -9 28q0 22 16.5 38t39.5 16q17 0 33 -10q60 -48 144 -48q61 0 98.5 33.5t37.5 82.5q0 53 -36 84.5t-97 31.5q-70 0 -122 -38q-20 -15 -47 -15t-43.5 16t-16.5 41v265q0 29 21 50.5t51 21.5h321
q21 0 36 -15.5t15 -37.5t-15 -37t-36 -15h-274v-190q58 58 150 58q89 0 151.5 -58.5t62.5 -156.5z" />
    <glyph glyph-name="six" unicode="6" horiz-adv-x="601" 
d="M564 213q0 -96 -68.5 -160.5t-178.5 -64.5q-139 0 -207.5 96.5t-68.5 247.5t77.5 248t217.5 97q54 0 101.5 -16t71.5 -47q8 -13 8 -27q0 -22 -16.5 -37t-37.5 -15q-17 0 -28 8q-40 28 -99 28q-80 0 -127.5 -63t-47.5 -154q0 -12 1 -19q24 37 73.5 65t104.5 28
q95 0 159.5 -56.5t64.5 -158.5zM443 209q0 57 -38.5 86.5t-97.5 29.5q-89 0 -144 -77q6 -63 42 -108.5t106 -45.5q61 0 96.5 35t35.5 80z" />
    <glyph glyph-name="seven" unicode="7" horiz-adv-x="533" 
d="M516 608q0 -11 -5 -23l-246 -555q-15 -36 -56 -36q-25 0 -42.5 18t-17.5 41q0 10 5 23l218 486h-299q-22 0 -37 15.5t-15 38.5q0 21 15 36t37 15h385q22 0 40 -17t18 -42z" />
    <glyph glyph-name="eight" unicode="8" horiz-adv-x="596" 
d="M555 171q0 -86 -74.5 -134.5t-182.5 -48.5t-182 48.5t-74 134.5q0 61 42 106t107 67q-138 44 -138 158q0 44 21.5 79t57 55t78 30.5t88.5 10.5q63 0 117 -17.5t92 -58.5t38 -99q0 -60 -38.5 -99t-101.5 -59q66 -22 108 -67t42 -106zM423 484q0 41 -35 65t-90 24t-90 -24
t-35 -65q0 -22 13.5 -39.5t34.5 -28t40 -16t37 -8.5q26 4 51.5 12.5t49.5 30t24 49.5zM434 186q0 31 -26.5 55.5t-55.5 35t-54 13.5q-25 -3 -54 -13.5t-55.5 -35t-26.5 -55.5q0 -42 39 -68t97 -26q57 0 96.5 26t39.5 68z" />
    <glyph glyph-name="nine" unicode="9" horiz-adv-x="601" 
d="M560 334q0 -151 -77.5 -248t-217.5 -97q-54 0 -101.5 16t-71.5 47q-9 12 -9 27q0 22 17 37t38 15q17 0 28 -8q40 -28 99 -28q80 0 127.5 63t47.5 154q0 12 -1 19q-24 -37 -73.5 -65t-104.5 -28q-95 0 -159.5 56.5t-64.5 158.5q0 96 68.5 160.5t178.5 64.5
q139 0 207.5 -96.5t68.5 -247.5zM438 418q-6 63 -42 108.5t-106 45.5q-61 0 -96.5 -35t-35.5 -80q0 -57 38.5 -86.5t97.5 -29.5q89 0 144 77z" />
    <glyph glyph-name="colon" unicode=":" horiz-adv-x="243" 
d="M194 419q0 -29 -21 -50t-50 -21t-50 21t-21 50t21 50t50 21t50 -21t21 -50zM194 60q0 -29 -21 -50t-50 -21t-50 21t-21 50t21 50t50 21t50 -21t21 -50z" />
    <glyph glyph-name="semicolon" unicode=";" horiz-adv-x="246" 
d="M194 419q0 -29 -21 -50t-50 -21t-50 21t-21 50t21 50t50 21t50 -21t21 -50zM200 40q0 -90 -77 -159q-10 -8 -21 -8q-12 0 -22.5 8t-10.5 21q0 12 9 20q45 40 51 79q-6 -3 -17 -3q-26 0 -43 18t-17 46q0 29 20 49.5t48 20.5q33 0 56.5 -25t23.5 -67z" />
    <glyph glyph-name="less" unicode="&#x3c;" horiz-adv-x="502" 
d="M478 145q0 -16 -11.5 -26.5t-25.5 -10.5q-7 0 -14 3l-373 174q-31 13 -31 51q0 35 31 48l373 175q5 2 14 2q14 0 25.5 -10.5t11.5 -26.5q0 -24 -21 -34l-347 -156l347 -155q21 -9 21 -34z" />
    <glyph glyph-name="equal" unicode="=" horiz-adv-x="502" 
d="M479 240q0 -15 -9.5 -25t-23.5 -10h-390q-14 0 -23.5 10t-9.5 25q0 14 9.5 23.5t23.5 9.5h390q14 0 23.5 -9.5t9.5 -23.5zM479 430q0 -15 -10 -25.5t-24 -10.5h-388q-14 0 -24 10.5t-10 25.5q0 14 10.5 24t23.5 10h388q13 0 23.5 -10t10.5 -24z" />
    <glyph glyph-name="greater" unicode="&#x3e;" horiz-adv-x="502" 
d="M479 336q0 -37 -31 -51l-374 -174q-6 -3 -14 -3q-14 0 -25.5 10.5t-11.5 26.5q0 24 21 34l348 155l-347 156q-22 10 -22 34q-1 16 10.5 26.5t26.5 10.5q10 0 15 -2l373 -175q31 -14 31 -48z" />
    <glyph glyph-name="question" unicode="?" horiz-adv-x="458" 
d="M434 520q0 -41 -18 -73.5t-44 -53t-52.5 -38t-44.5 -38.5t-18 -45q0 -7 3.5 -17.5t3.5 -16.5q0 -18 -13 -32t-34 -14q-28 0 -46.5 27.5t-18.5 62.5q0 34 16.5 61t40 45t47 34t40 35.5t16.5 42.5q0 31 -24 51t-70 20q-58 0 -104 -39q-16 -11 -35 -11q-21 0 -35.5 14
t-14.5 36q0 16 7 27q26 37 82 58t113 21q93 0 148 -44t55 -113zM296 60q0 -29 -21 -50t-50 -21t-50 21.5t-21 49.5q0 29 21 50t50 21t50 -21t21 -50z" />
    <glyph glyph-name="at" unicode="@" horiz-adv-x="783" 
d="M747 328q0 -114 -58 -178.5t-130 -64.5q-42 0 -66.5 22.5t-28.5 57.5q-28 -36 -68 -58t-82 -22q-71 0 -113 46t-42 120q0 100 70.5 173.5t159.5 73.5q45 0 77.5 -19.5t48.5 -51.5l5 26q3 16 16 26t30 10q21 0 34 -13t13 -31q0 -7 -1 -10l-43 -206q-3 -18 -3 -23
q0 -23 11.5 -35t29.5 -12q36 0 68 43t32 126q0 121 -76.5 197t-202.5 76q-143 0 -249.5 -107t-106.5 -248q0 -120 80.5 -200t203.5 -80q90 0 172 48q3 2 8 2q7 0 13 -5t6 -12q0 -9 -7 -13q-93 -56 -196 -56q-136 0 -226.5 90.5t-90.5 223.5q0 159 120 276.5t277 117.5
q139 0 227 -90t88 -220zM500 362q-10 23 -32.5 41t-56.5 18q-64 0 -108.5 -49.5t-44.5 -112.5q0 -43 24.5 -70t65.5 -27q72 0 126 75z" />
    <glyph glyph-name="A" unicode="A" horiz-adv-x="674" 
d="M646 58q0 -25 -18 -44.5t-46 -19.5q-42 0 -58 39l-35 93h-304l-36 -93q-15 -39 -58 -39q-28 0 -46 19t-18 45q0 13 5 22l208 530q11 28 36.5 45.5t56.5 17.5q32 2 60 -15.5t40 -47.5l209 -530q4 -14 4 -22zM455 232l-118 315l-119 -315h237z" />
    <glyph glyph-name="B" unicode="B" horiz-adv-x="650" 
d="M604 180q0 -80 -51.5 -130t-142.5 -50h-267q-30 0 -51 21.5t-21 50.5v523q0 29 21 50.5t51 21.5h258q89 0 139.5 -48.5t50.5 -121.5q0 -60 -33.5 -101.5t-82.5 -51.5q54 -8 91.5 -55.5t37.5 -108.5zM469 477q0 38 -25 62t-68 24h-186v-171h186q43 0 68 23.5t25 61.5z
M482 196q0 39 -27 65.5t-74 26.5h-191v-184h191q47 0 74 24.5t27 67.5z" />
    <glyph glyph-name="C" unicode="C" horiz-adv-x="683" 
d="M391 678q144 0 235 -104q13 -16 13 -35q0 -23 -17 -39t-40 -16q-25 0 -43 19q-61 69 -148 69q-99 0 -163.5 -67.5t-64.5 -171.5q0 -103 65 -171t163 -68q89 0 148 68q19 19 44 19q23 0 39 -16t16 -38q0 -20 -12 -35q-91 -104 -235 -104q-150 0 -250 96.5t-100 248.5
t100 248.5t250 96.5z" />
    <glyph glyph-name="D" unicode="D" horiz-adv-x="711" 
d="M670 333q0 -148 -97 -240.5t-253 -92.5h-177q-30 0 -51 21.5t-21 50.5v523q0 29 21 50.5t51 21.5h177q156 0 253 -93.5t97 -240.5zM547 333q0 100 -60 164.5t-167 64.5h-130v-457h130q105 0 166 65.5t61 162.5z" />
    <glyph glyph-name="E" unicode="E" horiz-adv-x="578" 
d="M535 54q0 -23 -15 -38.5t-36 -15.5h-341q-30 0 -51 21.5t-21 50.5v523q0 29 21 50.5t51 21.5h341q21 0 36 -15.5t15 -37.5t-15 -37t-36 -15h-294v-170h287q21 0 36 -15.5t15 -37.5t-15 -37t-36 -15h-287v-182h294q21 0 36 -15t15 -36z" />
    <glyph glyph-name="F" unicode="F" horiz-adv-x="563" 
d="M535 614q0 -22 -15 -37t-36 -15h-294v-170h287q21 0 36 -15.5t15 -37.5t-15 -37t-36 -15h-287v-234q0 -24 -18 -41.5t-43 -17.5q-24 0 -41 17.5t-17 41.5v542q0 29 21 50.5t51 21.5h341q21 0 36 -15.5t15 -37.5z" />
    <glyph glyph-name="G" unicode="G" horiz-adv-x="717" 
d="M666 166q0 -54 -42.5 -96t-104.5 -62.5t-128 -20.5q-148 0 -249 96t-101 250t101 249.5t249 95.5q142 0 234 -95q15 -15 15 -38q0 -22 -16.5 -38t-39.5 -16t-40 17q-64 64 -153 64q-99 0 -163.5 -67.5t-64.5 -171.5q0 -103 65 -171t163 -68q47 0 89.5 17.5t66.5 41.5v101
h-151q-21 0 -36 15.5t-15 38.5q0 21 15 36t36 15h198q30 0 51 -21.5t21 -50.5v-121z" />
    <glyph glyph-name="H" unicode="H" horiz-adv-x="724" 
d="M654 53q0 -24 -18 -41.5t-43 -17.5t-42 17.5t-17 41.5v237h-344v-237q0 -24 -18 -41.5t-43 -17.5q-24 0 -41 17.5t-17 41.5v562q0 24 17.5 41t42.5 17q24 0 41.5 -17.5t17.5 -40.5v-220h344v220q0 24 17.5 41t43.5 17q24 0 41.5 -17.5t17.5 -40.5v-562z" />
    <glyph glyph-name="I" unicode="I" horiz-adv-x="261" 
d="M190 53q0 -24 -18 -41.5t-43 -17.5q-24 0 -41 17.5t-17 41.5v562q0 24 17.5 41t42.5 17q24 0 41.5 -17.5t17.5 -40.5v-562z" />
    <glyph glyph-name="J" unicode="J" horiz-adv-x="482" 
d="M411 212q0 -111 -62 -167.5t-164 -56.5q-113 0 -157 57q-10 13 -10 28q0 22 16.5 38t37.5 16q9 0 19 -5q52 -28 85 -28q53 0 84.5 33t31.5 87v401q0 24 17.5 41t43.5 17q24 0 41 -17.5t17 -40.5v-403z" />
    <glyph glyph-name="K" unicode="K" horiz-adv-x="623" 
d="M559 51q0 -22 -16.5 -39.5t-40.5 -17.5q-29 0 -45 22l-209 264l-58 -68v-159q0 -24 -18 -41.5t-43 -17.5q-24 0 -41 17.5t-17 41.5v562q0 24 17.5 41t42.5 17q24 0 41.5 -17.5t17.5 -40.5v-264l246 301q16 19 43 19q23 0 40 -16t17 -39q0 -20 -12 -34l-198 -230l221 -267
q12 -15 12 -34z" />
    <glyph glyph-name="L" unicode="L" horiz-adv-x="518" 
d="M489 54q0 -23 -15.5 -38.5t-36.5 -15.5h-294q-30 0 -51 21.5t-21 50.5v543q0 24 17.5 41t42.5 17q24 0 41.5 -17.5t17.5 -40.5v-510h247q21 0 36.5 -15t15.5 -36z" />
    <glyph glyph-name="M" unicode="M" horiz-adv-x="837" 
d="M767 53q0 -24 -18 -41.5t-43 -17.5t-42 17.5t-17 41.5v446l-197 -484q-9 -21 -33 -21q-22 0 -31 21l-196 484v-446q0 -24 -18 -41.5t-43 -17.5q-24 0 -41 17.5t-17 41.5v541q0 31 22 53t53 22q88 7 115 -56l157 -387l158 387q11 26 34 41t51 15q43 5 74.5 -15.5
t31.5 -59.5v-541z" />
    <glyph glyph-name="N" unicode="N" horiz-adv-x="721" 
d="M650 65q0 -29 -21 -50t-52 -21q-38 0 -60 30l-327 448v-419q0 -24 -18 -41.5t-43 -17.5q-24 0 -41 17.5t-17 41.5v545q0 30 22.5 52.5t54.5 22.5q41 0 65 -32l318 -432v406q0 23 18 40.5t43 17.5q24 0 41 -17.5t17 -40.5v-550z" />
    <glyph glyph-name="O" unicode="O" horiz-adv-x="765" 
d="M724 333q0 -150 -96 -247.5t-246 -97.5q-149 0 -245 97.5t-96 247.5t96 247.5t245 97.5q150 0 246 -97.5t96 -247.5zM601 333q0 104 -60.5 171.5t-158.5 67.5t-158.5 -67.5t-60.5 -171.5t60.5 -171.5t158.5 -67.5t158.5 67.5t60.5 171.5z" />
    <glyph glyph-name="P" unicode="P" horiz-adv-x="610" 
d="M584 457q0 -88 -58.5 -148.5t-159.5 -60.5h-176v-195q0 -24 -18 -41.5t-43 -17.5q-24 0 -41 17.5t-17 41.5v542q0 29 21 50.5t51 21.5h223q101 0 159.5 -60.5t58.5 -149.5zM462 457q0 47 -31.5 76t-80.5 29h-160v-209h160q49 0 80.5 29t31.5 75z" />
    <glyph glyph-name="Q" unicode="Q" horiz-adv-x="765" 
d="M724 333q0 -143 -89 -240l24 -26q12 -15 12 -34q0 -21 -16 -37.5t-39 -16.5q-24 0 -40 19l-28 30q-74 -40 -166 -40q-149 0 -245 97.5t-96 247.5t96 247.5t245 97.5q150 0 246 -97.5t96 -247.5zM601 333q0 104 -60.5 171.5t-158.5 67.5t-158.5 -67.5t-60.5 -171.5
t60.5 -171.5t158.5 -67.5q50 0 92 20l-51 57q-13 14 -13 33q0 21 16 38t39 17t40 -18l52 -59q44 64 44 151z" />
    <glyph glyph-name="R" unicode="R" horiz-adv-x="630" 
d="M584 457q0 -83 -45.5 -134t-110.5 -62l111 -180q8 -14 8 -29q0 -22 -17 -40t-42 -18q-33 0 -50 29l-133 225h-115v-195q0 -24 -18 -41.5t-43 -17.5q-24 0 -41 17.5t-17 41.5v542q0 29 21 50.5t51 21.5h223q98 0 158 -58t60 -152zM349 562h-159v-209h159q49 0 81 28.5
t32 75.5t-32 76t-81 29z" />
    <glyph glyph-name="S" unicode="S" horiz-adv-x="595" 
d="M558 195q0 -90 -65 -148.5t-193 -58.5q-76 0 -145 23t-102 62q-12 15 -12 33q0 23 17 40t40 17q19 0 32 -10q79 -60 175 -60q65 0 98.5 27t33.5 63q0 28 -21.5 47t-55.5 30t-75.5 20.5t-83 23.5t-75.5 34t-55.5 56.5t-21.5 86.5q0 85 67 140.5t176 55.5q64 0 128.5 -19.5
t95.5 -53.5q12 -14 12 -32q0 -23 -18 -39t-40 -16q-18 0 -32 10q-68 45 -156 45q-51 0 -81 -22.5t-30 -59.5q0 -25 21.5 -42t55.5 -27t75 -20t82.5 -24.5t75.5 -35.5t55.5 -58t21.5 -88z" />
    <glyph glyph-name="T" unicode="T" horiz-adv-x="577" 
d="M556 614q0 -22 -15.5 -37t-36.5 -15h-155v-509q0 -24 -18 -41.5t-43 -17.5t-42 17.5t-17 41.5v509h-155q-22 0 -37 15.5t-15 38.5q0 21 15 36t37 15h430q21 0 36.5 -15.5t15.5 -37.5z" />
    <glyph glyph-name="U" unicode="U" horiz-adv-x="720" 
d="M650 264q0 -128 -73.5 -202t-216.5 -74q-142 0 -215.5 74t-73.5 201v351q0 24 17.5 41.5t43.5 17.5q25 0 42 -17.5t17 -41.5v-347q0 -80 44 -126.5t125 -46.5q82 0 125.5 46.5t43.5 126.5v347q0 24 18 41.5t44 17.5q25 0 42 -17.5t17 -41.5v-350z" />
    <glyph glyph-name="V" unicode="V" horiz-adv-x="674" 
d="M647 611q0 -11 -5 -23l-208 -531q-11 -28 -36.5 -45.5t-55.5 -17.5h-10q-30 0 -56 17.5t-37 45.5l-208 531q-4 9 -4 23q0 23 18 42.5t45 19.5q20 0 36 -11t23 -30l188 -502l187 502q7 18 23.5 29.5t35.5 11.5q27 0 45.5 -18.5t18.5 -43.5z" />
    <glyph glyph-name="W" unicode="W" horiz-adv-x="905" 
d="M881 615q0 -7 -2 -17l-156 -545q-7 -26 -29 -42.5t-49 -16.5h-2q-28 0 -49 16.5t-27 42.5l-115 436l-115 -436q-6 -26 -27.5 -42.5t-48.5 -16.5h-2q-28 0 -49 16t-28 42l-156 547q-3 7 -3 16q0 24 18 43t45 19q22 0 39.5 -13.5t23.5 -35.5l119 -471l126 472q5 19 22 31.5
t38 12.5q19 0 35 -12.5t21 -31.5l126 -472l118 471q5 21 23 34.5t41 13.5q27 0 45 -18t18 -43z" />
    <glyph glyph-name="X" unicode="X" horiz-adv-x="662" 
d="M608 52q0 -22 -16.5 -40t-41.5 -18q-30 0 -47 24l-172 241l-174 -242q-15 -23 -46 -23q-23 0 -40 16t-17 41q0 19 10 33l188 258l-175 242q-10 14 -10 31q0 22 16.5 39.5t41.5 17.5q30 0 49 -25l157 -223l156 223q17 25 48 25q24 0 41.5 -16.5t17.5 -39.5q0 -19 -10 -32
l-174 -241l188 -258q10 -14 10 -33z" />
    <glyph glyph-name="Y" unicode="Y" horiz-adv-x="638" 
d="M592 617q0 -18 -8 -30l-205 -311v-223q0 -24 -17.5 -41.5t-42.5 -17.5t-42 17.5t-17 41.5v223l-207 312q-9 12 -9 29q0 21 16.5 38t41.5 17q31 0 48 -26l169 -263l167 263q18 26 49 26q24 0 40.5 -16.5t16.5 -38.5z" />
    <glyph glyph-name="Z" unicode="Z" horiz-adv-x="589" 
d="M551 54q0 -23 -15.5 -38.5t-36.5 -15.5h-396q-25 0 -44.5 19t-19.5 48q0 22 12 40l331 455h-292q-21 0 -36.5 15.5t-15.5 38.5q0 21 15.5 36t36.5 15h392q24 0 42.5 -19t18.5 -47q0 -23 -14 -42l-329 -454h299q21 0 36.5 -15t15.5 -36z" />
    <glyph glyph-name="bracketleft" unicode="[" horiz-adv-x="266" 
d="M255 -153q0 -15 -10.5 -26t-24.5 -11h-103q-30 0 -51.5 21.5t-21.5 50.5v724q0 29 21.5 50.5t51.5 21.5h103q14 0 24.5 -11t10.5 -26t-10.5 -25.5t-24.5 -10.5h-97v-722h97q14 0 24.5 -10.5t10.5 -25.5z" />
    <glyph glyph-name="backslash" unicode="\" horiz-adv-x="316" 
d="M304 9q0 -14 -10.5 -25.5t-27.5 -11.5q-26 0 -36 25l-216 649q-2 4 -2 11q0 15 11 26.5t27 11.5q12 0 22 -7t14 -18l216 -649q2 -8 2 -12z" />
    <glyph glyph-name="bracketright" unicode="]" horiz-adv-x="266" 
d="M221 -118q0 -29 -21 -50.5t-51 -21.5h-102q-15 0 -25.5 10.5t-10.5 26.5q0 15 10.5 25.5t25.5 10.5h96v722h-96q-15 0 -25.5 11t-10.5 27q0 14 10.5 24.5t25.5 10.5h102q30 0 51 -21.5t21 -50.5v-724z" />
    <glyph glyph-name="asciicircum" unicode="^" horiz-adv-x="438" 
d="M400 363q0 -14 -10.5 -25t-26.5 -11q-24 0 -33 20l-112 245l-110 -245q-9 -20 -33 -20q-16 0 -27 10.5t-11 25.5q0 8 4 15l127 263q15 32 53 32q35 0 50 -32l126 -263q3 -8 3 -15z" />
    <glyph glyph-name="underscore" unicode="_" horiz-adv-x="564" 
d="M573 -76q0 -16 -10.5 -26.5t-24.5 -10.5h-511q-15 0 -25.5 10.5t-10.5 26.5q0 15 10.5 25.5t25.5 10.5h511q14 0 24.5 -10.5t10.5 -25.5z" />
    <glyph glyph-name="grave" unicode="`" horiz-adv-x="241" 
d="M210 578q0 -11 -8.5 -19.5t-19.5 -8.5q-9 0 -18 7l-106 92q-10 9 -10 23q0 13 10 23.5t24 10.5q12 0 24 -10l96 -99q8 -8 8 -19z" />
    <glyph glyph-name="a" unicode="a" horiz-adv-x="537" 
d="M469 47q0 -22 -15.5 -37.5t-37.5 -15.5h-6q-15 0 -31.5 12.5t-16.5 36.5v9q-55 -64 -155 -64q-66 0 -117.5 42.5t-51.5 117.5q0 77 51 117t118 40q104 0 155 -62v74q0 41 -31 65t-81 24q-65 0 -115 -37q-11 -7 -22 -7q-16 0 -29 11.5t-13 30.5q0 13 8 23q26 33 81 50.5
t107 17.5q89 0 145.5 -42t56.5 -133v-273zM362 111v72q-36 48 -114 48q-44 0 -72.5 -23t-28.5 -62q0 -38 28.5 -61t72.5 -23q78 0 114 49z" />
    <glyph glyph-name="b" unicode="b" horiz-adv-x="582" 
d="M543 241q0 -117 -59.5 -185t-154.5 -68t-154 78v-19q0 -22 -16 -37.5t-38 -15.5t-37.5 15.5t-15.5 37.5v574q0 21 15.5 36.5t39.5 15.5q21 0 36.5 -15.5t15.5 -36.5v-204q59 78 154 78q94 0 154 -69.5t60 -184.5zM433 241q0 70 -37 114.5t-99 44.5q-35 0 -69.5 -19
t-52.5 -46v-189q18 -27 52.5 -45t69.5 -18q62 0 99 44t37 114z" />
    <glyph glyph-name="c" unicode="c" horiz-adv-x="497" 
d="M459 75q0 -21 -16 -33q-59 -54 -155 -54q-110 0 -180 71.5t-70 182.5q0 110 70 181.5t180 71.5q55 0 99 -17.5t64 -47.5q7 -8 7 -22q0 -20 -15 -33t-35 -13q-18 0 -31 10q-37 28 -84 28q-65 0 -105 -44t-40 -114t40 -114.5t105 -44.5q46 0 84 29q14 10 31 10
q20 0 35.5 -13.5t15.5 -33.5z" />
    <glyph glyph-name="d" unicode="d" horiz-adv-x="582" 
d="M514 47q0 -22 -16 -37.5t-38 -15.5t-37.5 15.5t-15.5 37.5v19q-60 -78 -155 -78q-94 0 -154 68t-60 185q0 115 60 184.5t154 69.5t155 -78v203q0 22 15.5 37.5t39.5 15.5q21 0 36.5 -15.5t15.5 -37.5v-573zM407 146v190q-18 28 -52.5 46t-71.5 18q-61 0 -98 -44.5
t-37 -114.5t37 -114t98 -44q37 0 71.5 18t52.5 45z" />
    <glyph glyph-name="e" unicode="e" horiz-adv-x="557" 
d="M520 259q0 -21 -15 -36.5t-37 -15.5h-318q6 -57 46.5 -95t105.5 -38q58 0 108 32q10 6 22 6q17 0 31 -12.5t14 -31.5q0 -37 -63.5 -58.5t-122.5 -21.5q-110 0 -181.5 70.5t-71.5 183.5q0 106 69.5 179.5t175.5 73.5q84 0 143 -46.5t82 -125.5q12 -40 12 -64zM417 281
q-2 49 -35.5 88.5t-98.5 39.5q-61 0 -95.5 -39t-38.5 -89h268z" />
    <glyph glyph-name="f" unicode="f" horiz-adv-x="310" 
d="M354 623q0 -18 -11.5 -29.5t-26.5 -11.5q-7 0 -22.5 5t-26.5 5q-31 0 -48.5 -20.5t-17.5 -58.5v-30h58q19 0 32.5 -14t13.5 -34q0 -19 -13.5 -32.5t-32.5 -13.5h-58v-342q0 -22 -16 -37.5t-39 -15.5q-22 0 -37.5 15.5t-15.5 37.5v342h-40q-19 0 -32.5 14t-13.5 34
q0 19 13.5 32.5t32.5 13.5h40v30q0 76 42 120t112 44q44 0 75.5 -15t31.5 -39z" />
    <glyph glyph-name="g" unicode="g" horiz-adv-x="581" 
d="M513 26q0 -63 -21.5 -108t-59 -69t-79 -34.5t-89.5 -10.5q-134 0 -185 59q-9 13 -9 27q0 19 13.5 32t32.5 13q13 0 24 -7q50 -36 124 -36q59 0 100.5 31t41.5 100v56q-61 -79 -154 -79q-95 0 -154.5 65.5t-59.5 181.5q0 115 59.5 181.5t154.5 66.5q93 0 154 -78v19
q0 22 15.5 37.5t39.5 15.5q21 0 36.5 -15.5t15.5 -37.5v-410zM406 159v177q-17 27 -52 45.5t-71 18.5q-61 0 -98 -42t-37 -111t37 -111t98 -42q36 0 70.5 18.5t52.5 46.5z" />
    <glyph glyph-name="h" unicode="h" horiz-adv-x="569" 
d="M502 47q0 -22 -16 -37.5t-38 -15.5t-37.5 15.5t-15.5 37.5v256q0 97 -98 97q-37 0 -69.5 -18.5t-52.5 -45.5v-289q0 -22 -16 -37.5t-38 -15.5t-37.5 15.5t-15.5 37.5v574q0 21 15.5 36.5t39.5 15.5q21 0 36.5 -15.5t15.5 -36.5v-204q27 32 72 55t99 23q77 0 116.5 -39.5
t39.5 -113.5v-295z" />
    <glyph glyph-name="i" unicode="i" horiz-adv-x="242" 
d="M121 673q27 0 46.5 -19t19.5 -46q0 -28 -19.5 -47t-46.5 -19t-46.5 19t-19.5 47q0 27 19.5 46t46.5 19zM175 47q0 -22 -16 -37.5t-38 -15.5t-37.5 15.5t-15.5 37.5v390q0 21 15.5 36.5t39.5 15.5q21 0 36.5 -15.5t15.5 -36.5v-390z" />
    <glyph glyph-name="j" unicode="j" horiz-adv-x="242" 
d="M121 673q27 0 46.5 -19t19.5 -46q0 -28 -19.5 -47t-46.5 -19t-46.5 19t-19.5 47q0 27 19.5 46t46.5 19zM175 -26q0 -80 -41 -125t-120 -45q-110 0 -110 55q0 18 13 30.5t30 12.5q6 0 21.5 -5t28.5 -5q32 0 51.5 20.5t19.5 61.5v463q0 21 15.5 36.5t39.5 15.5
q21 0 36.5 -15.5t15.5 -36.5v-463z" />
    <glyph glyph-name="k" unicode="k" horiz-adv-x="527" 
d="M472 48q0 -21 -15 -37.5t-38 -16.5q-29 0 -44 22l-134 182l-66 -69v-82q0 -22 -16 -37.5t-38 -15.5t-37.5 15.5t-15.5 37.5v574q0 21 15.5 36.5t39.5 15.5q21 0 36.5 -15.5t15.5 -36.5v-369l201 222q14 16 35 16q20 0 35.5 -15.5t15.5 -35.5q0 -17 -12 -32l-132 -143
l144 -186q10 -15 10 -30z" />
    <glyph glyph-name="l" unicode="l" horiz-adv-x="242" 
d="M175 47q0 -22 -16 -37.5t-38 -15.5t-37.5 15.5t-15.5 37.5v574q0 21 15.5 36.5t39.5 15.5q21 0 36.5 -15.5t15.5 -36.5v-574z" />
    <glyph glyph-name="m" unicode="m" horiz-adv-x="835" 
d="M768 47q0 -22 -16 -37.5t-39 -15.5q-22 0 -37.5 15.5t-15.5 37.5v267q0 86 -78 86q-33 0 -63 -19t-48 -44v-290q0 -22 -16 -37.5t-38 -15.5t-37.5 15.5t-15.5 37.5v267q0 86 -79 86q-32 0 -62.5 -19t-47.5 -45v-289q0 -22 -16 -37.5t-38 -15.5t-37.5 15.5t-15.5 37.5v390
q0 21 15.5 36.5t39.5 15.5q21 0 36.5 -15.5t15.5 -36.5v-20q18 27 62.5 52.5t94.5 25.5q105 0 132 -89q23 36 68 62.5t97 26.5q67 0 103 -37t36 -109v-302z" />
    <glyph glyph-name="n" unicode="n" 
d="M501 47q0 -22 -16 -37.5t-38 -15.5t-37.5 15.5t-15.5 37.5v254q0 99 -97 99q-38 0 -70.5 -18.5t-51.5 -45.5v-289q0 -22 -16 -37.5t-38 -15.5t-37.5 15.5t-15.5 37.5v390q0 21 15.5 36.5t39.5 15.5q21 0 36.5 -15.5t15.5 -36.5v-20q27 32 72 55t98 23q77 0 116.5 -40.5
t39.5 -114.5v-293z" />
    <glyph glyph-name="o" unicode="o" horiz-adv-x="573" 
d="M536 242q0 -108 -68 -181t-181 -73t-181 73t-68 181q0 107 68 180t181 73t181 -73t68 -180zM424 242q0 66 -37 112t-100 46q-64 0 -101 -46t-37 -112q0 -67 37 -113t101 -46q63 0 100 46t37 113z" />
    <glyph glyph-name="p" unicode="p" horiz-adv-x="579" 
d="M543 242q0 -117 -59.5 -185.5t-154.5 -68.5q-94 0 -154 78v-204q0 -21 -16 -36.5t-38 -15.5t-37.5 15.5t-15.5 36.5v575q0 21 15.5 36.5t39.5 15.5q21 0 36.5 -15.5t15.5 -36.5v-19q58 77 154 77q95 0 154.5 -68t59.5 -185zM432 242q0 70 -37 114t-98 44
q-35 0 -69.5 -18.5t-52.5 -45.5v-189q18 -26 52.5 -45t69.5 -19q61 0 98 44.5t37 114.5z" />
    <glyph glyph-name="q" unicode="q" horiz-adv-x="579" 
d="M511 -137q0 -22 -15.5 -37.5t-38.5 -15.5q-22 0 -37.5 15.5t-15.5 37.5v203q-60 -78 -154 -78q-95 0 -155 68.5t-60 185.5t59.5 185t155.5 68t154 -77v18q0 22 16 37.5t39 15.5q22 0 37 -15.5t15 -37.5v-573zM404 147v189q-18 27 -52.5 45.5t-70.5 18.5q-60 0 -97 -44
t-37 -114t37 -114.5t97 -44.5q36 0 70.5 19t52.5 45z" />
    <glyph glyph-name="r" unicode="r" horiz-adv-x="348" 
d="M337 443q0 -23 -14.5 -38t-37.5 -18q-73 -7 -110 -59v-281q0 -22 -15.5 -37.5t-37.5 -15.5h-2q-22 0 -37 15.5t-15 37.5v390q0 21 15.5 36.5t39.5 15.5q21 0 36.5 -15.5t15.5 -36.5v-25q57 77 115 77q21 0 34 -13t13 -33z" />
    <glyph glyph-name="s" unicode="s" horiz-adv-x="472" 
d="M435 140q0 -67 -53 -109.5t-148 -42.5q-54 0 -108 16.5t-81 46.5q-10 12 -10 26q0 18 14 31.5t32 13.5q14 0 24 -7q64 -43 133 -43q46 0 70 17.5t24 46.5q0 25 -30 39.5t-73 23t-86 21t-73 44.5t-30 84q0 62 51.5 104.5t140.5 42.5q51 0 99 -15.5t72 -42.5q9 -11 9 -24
q0 -17 -13 -29t-30 -12q-11 0 -22 6q-50 34 -115 34q-40 0 -64 -17t-24 -42q0 -23 30 -36t73 -21.5t85.5 -21.5t72.5 -47t30 -87z" />
    <glyph glyph-name="t" unicode="t" horiz-adv-x="321" 
d="M311 40q0 -52 -97 -52q-61 0 -93 32t-32 93v276h-40q-19 0 -32.5 14t-13.5 34q0 19 13.5 32.5t32.5 13.5h40v85q0 22 16 37.5t39 15.5q22 0 37 -15.5t15 -37.5v-85h59q19 0 32 -14t13 -34q0 -19 -13 -32.5t-32 -13.5h-59v-249q0 -27 13 -42t33 -15q4 0 11.5 1.5t10.5 1.5
q21 0 34 -13t13 -33z" />
    <glyph glyph-name="u" unicode="u" 
d="M501 47q0 -22 -16 -37.5t-38 -15.5t-37.5 15.5t-15.5 37.5v17q-68 -76 -171 -76q-155 0 -155 153v296q0 21 15.5 36.5t39.5 15.5q21 0 36.5 -15.5t15.5 -36.5v-257q0 -53 24.5 -75t71.5 -22q37 0 69.5 18t53.5 44v292q0 21 15.5 36.5t39.5 15.5q21 0 36.5 -15.5
t15.5 -36.5v-390z" />
    <glyph glyph-name="v" unicode="v" horiz-adv-x="504" 
d="M484 435q0 -10 -4 -18l-152 -373q-22 -50 -75 -50h-2q-25 0 -45.5 13.5t-29.5 36.5l-152 373q-4 8 -4 19q0 20 15.5 36t38.5 16q36 0 49 -32l129 -332l128 331q13 33 49 33q24 0 39.5 -15.5t15.5 -37.5z" />
    <glyph glyph-name="w" unicode="w" horiz-adv-x="756" 
d="M735 438q0 -8 -3 -15l-117 -378q-7 -22 -26.5 -36.5t-42.5 -14.5h-2q-24 0 -43 14t-26 37l-97 307l-97 -307q-7 -22 -26.5 -36.5t-43.5 -14.5h-2q-23 0 -42 14t-26 37l-118 378q-2 10 -2 15q0 20 15 35.5t38 15.5q17 0 32 -10.5t19 -26.5l92 -317l102 312q6 19 22 30.5
t38 11.5q19 0 35 -11.5t23 -30.5l102 -312l92 317q4 16 19 26.5t32 10.5q23 0 38 -15t15 -36z" />
    <glyph glyph-name="x" unicode="x" horiz-adv-x="497" 
d="M451 43q0 -19 -13.5 -34t-35.5 -15q-27 0 -40 20l-113 162l-115 -162q-14 -20 -39 -20q-20 0 -35 14.5t-15 34.5q0 15 9 27l127 178l-117 164q-9 14 -9 27q0 19 14 34t36 15q26 0 41 -21l103 -146l100 145q16 22 42 22q21 0 35.5 -14.5t14.5 -33.5q0 -14 -9 -28
l-117 -164l128 -178q8 -11 8 -27z" />
    <glyph glyph-name="y" unicode="y" horiz-adv-x="504" 
d="M484 437q0 -12 -4 -20l-206 -503q-45 -110 -157 -110q-30 0 -50.5 12t-20.5 36q0 20 14.5 34t35.5 14h10q10 -1 10 0q40 3 56 40l24 54l-173 424q-3 9 -3 18q0 21 15 37t39 16q36 0 50 -35l128 -330l128 330q12 35 51 35q23 0 38 -16t15 -36z" />
    <glyph glyph-name="z" unicode="z" horiz-adv-x="476" 
d="M436 48q0 -20 -13.5 -34t-31.5 -14h-299q-21 0 -36.5 15.5t-15.5 39.5q0 17 12 34l230 300h-196q-19 0 -32.5 14t-13.5 34q0 19 13.5 32.5t32.5 13.5h295q19 0 34.5 -15t15.5 -37q0 -20 -11 -34l-233 -304h204q18 0 31.5 -13t13.5 -32z" />
    <glyph glyph-name="braceleft" unicode="{" horiz-adv-x="277" 
d="M266 -153q0 -16 -10.5 -26.5t-29.5 -10.5h-27q-58 0 -100.5 41.5t-42.5 107.5v185q0 48 -28 62q-30 15 -30 38t30 38q28 14 28 62v184q0 66 43 108t100 42h27q19 0 29.5 -10.5t10.5 -26.5t-10.5 -26t-29.5 -10h-27q-27 0 -45 -21.5t-18 -55.5v-195q0 -69 -46 -89
q46 -20 46 -89v-195q0 -33 18 -55t45 -22h27q19 0 29.5 -10t10.5 -26z" />
    <glyph glyph-name="bar" unicode="|" horiz-adv-x="214" 
d="M144 10q0 -15 -10.5 -25.5t-26.5 -10.5q-15 0 -25.5 10.5t-10.5 25.5v648q0 14 11 24.5t27 10.5q14 0 24.5 -10.5t10.5 -24.5v-648z" />
    <glyph glyph-name="braceright" unicode="}" horiz-adv-x="277" 
d="M279 244q0 -23 -30 -38q-28 -14 -28 -62v-185q0 -66 -42.5 -107.5t-100.5 -41.5h-26q-20 0 -30.5 10.5t-10.5 26.5t10.5 26t30.5 10h26q27 0 45.5 22t18.5 55v195q0 69 46 89q-46 20 -46 89v195q0 34 -18.5 55.5t-45.5 21.5h-26q-20 0 -30.5 10.5t-10.5 26.5t10.5 26
t30.5 10h26q57 0 100 -42t43 -108v-184q0 -48 28 -62q30 -15 30 -38z" />
    <glyph glyph-name="asciitilde" unicode="~" horiz-adv-x="507" 
d="M477 622q-7 -61 -20.5 -103t-44 -72.5t-76.5 -30.5q-43 0 -70 28.5t-35.5 62.5t-23 62.5t-36.5 28.5q-48 0 -66 -145q-2 -14 -12.5 -23.5t-24.5 -9.5q-38 0 -38 42q12 93 44 148.5t97 55.5q36 0 60 -18.5t35.5 -45.5t20 -54t20 -45.5t29.5 -18.5q50 0 66 147q1 13 12 22
t26 9q17 0 27 -12t10 -28z" />
    <glyph glyph-name="uni00A0" unicode="&#xa0;" horiz-adv-x="257" 
 />
    <glyph glyph-name="exclamdown" unicode="&#xa1;" horiz-adv-x="246" 
d="M193 423q-1 -29 -21.5 -50t-49.5 -21q-28 0 -49.5 21t-21.5 50t21.5 50t49.5 21q29 0 50 -21t21 -50zM186 -127q0 -26 -18.5 -44t-44.5 -18q-27 0 -45 18t-18 44q0 49 14 366q1 19 15 32t34 13q19 0 32.5 -13t14.5 -32q16 -363 16 -366z" />
    <glyph glyph-name="cent" unicode="&#xa2;" horiz-adv-x="497" 
d="M459 75q0 -12 -6 -22q-37 -51 -128 -63v-54q0 -16 -11.5 -27t-27.5 -11q-17 0 -29 11t-12 27v56q-93 13 -150 81.5t-57 168.5q0 98 57 167t150 82v38q0 16 12 27t29 11q16 0 27.5 -11t11.5 -27v-36q91 -11 127 -64q6 -11 6 -21q0 -20 -15.5 -33t-34.5 -13q-10 0 -20 5
q-38 24 -63 29v-309q20 5 63 29q9 6 20 6q20 0 35.5 -13.5t15.5 -33.5zM245 91v301q-45 -15 -71 -55t-26 -95q0 -56 26 -96.5t71 -54.5z" />
    <glyph glyph-name="sterling" unicode="&#xa3;" horiz-adv-x="538" 
d="M517 55q0 -34 -39 -51t-94 -17q-47 0 -98.5 22.5t-81.5 22.5q-35 0 -86 -24q-9 -4 -21 -4q-19 0 -32.5 13t-13.5 32q0 28 25 43q88 53 88 120q0 28 -13 57h-101q-14 0 -24.5 10.5t-10.5 25.5q0 14 10.5 24t24.5 10h54q-58 74 -58 135q0 87 71.5 145t164.5 58
q65 0 120 -23t76 -62q5 -12 5 -22q0 -22 -15.5 -36t-37.5 -14q-17 0 -29 9q-10 6 -25.5 17t-25 17t-24.5 11t-31 5q-50 0 -84.5 -29.5t-34.5 -77.5q0 -21 7 -42t12 -30t22.5 -33.5t19.5 -27.5h118q14 0 24 -10t10 -26q0 -14 -10 -24t-24 -10h-88q3 -27 3 -29q0 -74 -68 -119
q22 8 50 8q31 0 71.5 -18t65.5 -18q15 0 39 7.5t34 7.5q21 0 38 -15t17 -38z" />
    <glyph glyph-name="currency" unicode="&#xa4;" horiz-adv-x="613" 
d="M572 114q0 -18 -14 -32t-32 -14t-31 13l-48 46q-60 -38 -141 -38q-79 0 -142 39l-45 -46q-13 -13 -32 -13q-18 0 -32 13t-14 31q0 19 13 32l46 46q-42 62 -42 142t42 142l-47 48q-13 13 -13 31q0 17 13 31t32 14q20 0 33 -13l48 -48q60 38 140 38t140 -38l49 48
q12 13 31 13q18 0 32 -13.5t14 -31.5q0 -19 -13 -32l-46 -46q43 -64 43 -143q0 -80 -44 -144l47 -45q13 -15 13 -30zM447 333q0 62 -37.5 104.5t-103.5 42.5q-64 0 -102 -43t-38 -104q0 -62 38 -105t102 -43q66 0 103.5 42.5t37.5 105.5z" />
    <glyph glyph-name="yen" unicode="&#xa5;" horiz-adv-x="638" 
d="M622 151q0 -13 -10 -23t-23 -10h-210v-65q0 -24 -17.5 -41.5t-42.5 -17.5q-24 0 -41.5 17t-17.5 42v65h-209q-14 0 -24 10t-10 25q0 14 10 23.5t24 9.5h209v90h-209q-14 0 -24 10t-10 26q0 14 10 23.5t24 9.5h163l-161 243q-9 12 -9 29q0 21 16.5 38t40.5 17q32 0 49 -26
l169 -263l167 263q18 26 49 26q24 0 40.5 -16.5t16.5 -38.5q0 -18 -8 -30l-160 -242h165q14 0 23.5 -10t9.5 -25q0 -14 -9.5 -24t-23.5 -10h-210v-90h210q14 0 23.5 -10t9.5 -25z" />
    <glyph glyph-name="brokenbar" unicode="&#xa6;" horiz-adv-x="214" 
d="M144 13q0 -15 -10.5 -26t-26.5 -11q-15 0 -25.5 11t-10.5 26v251q0 15 11 25.5t27 10.5q14 0 24.5 -11t10.5 -25v-251zM144 404q0 -15 -10.5 -26t-26.5 -11q-15 0 -25.5 11t-10.5 26v251q0 15 11 25.5t27 10.5q14 0 24.5 -11t10.5 -25v-251z" />
    <glyph glyph-name="section" unicode="&#xa7;" horiz-adv-x="478" 
d="M435 72q0 -71 -55.5 -112t-145.5 -41q-58 0 -109.5 18t-77.5 46q-10 10 -10 25q0 17 12 29.5t28 12.5q13 0 23 -7q66 -49 134 -49q44 0 71 18.5t27 50.5q0 25 -21.5 41t-54 23t-70.5 18t-70.5 24t-54 42.5t-21.5 72.5q0 48 30.5 80.5t74.5 46.5q-105 37 -105 124
q0 61 53 101.5t139 40.5q68 0 123.5 -23.5t55.5 -55.5q0 -17 -11 -28.5t-27 -11.5q-13 0 -21 7q-51 36 -117 36q-41 0 -66 -17.5t-25 -46.5q0 -26 30 -40.5t73 -23t85.5 -21.5t72.5 -45.5t30 -84.5q0 -87 -86 -128q86 -36 86 -122zM330 303q0 33 -25.5 51t-69.5 29
q-50 -12 -70.5 -32.5t-20.5 -51.5q0 -24 19.5 -40.5t39.5 -23t59 -15.5q68 29 68 83z" />
    <glyph glyph-name="dieresis" unicode="&#xa8;" horiz-adv-x="286" 
d="M97 608q0 -25 -17 -42.5t-41 -17.5q-25 0 -42.5 17.5t-17.5 42.5t17.5 42t42.5 17q24 0 41 -17t17 -42zM308 608q0 -25 -18 -42.5t-42 -17.5q-25 0 -42.5 17.5t-17.5 42.5t17.5 42t42.5 17q24 0 42 -17.5t18 -41.5z" />
    <glyph glyph-name="copyright" unicode="&#xa9;" horiz-adv-x="778" 
d="M734 334q0 -143 -101 -244t-244 -101t-244 101.5t-101 243.5q0 143 101 244t244 101t244 -101t101 -244zM700 334q0 128 -91.5 219.5t-219.5 91.5t-219.5 -91.5t-91.5 -219.5t91.5 -219.5t219.5 -91.5t219.5 91.5t91.5 219.5zM535 190q0 -6 -5 -13q-57 -55 -137 -55
q-87 0 -147.5 61t-60.5 152t60.5 151t147.5 60q82 0 136 -54q5 -7 5 -13q0 -8 -5.5 -14t-14.5 -6q-8 0 -14 6q-44 44 -107 44q-69 0 -117.5 -49t-48.5 -125q0 -75 49 -125t117 -50q65 0 108 45q5 5 14 5q8 0 14 -5.5t6 -14.5z" />
    <glyph glyph-name="ordfeminine" unicode="&#xaa;" horiz-adv-x="382" 
d="M328 358q0 -16 -11.5 -27t-27.5 -11q-15 -2 -27 8.5t-12 25.5v5q-39 -41 -104 -41q-44 0 -77.5 27.5t-33.5 76.5t33.5 75.5t77.5 26.5q66 0 104 -40v46q0 26 -20.5 42t-52.5 16q-41 0 -76 -26q-8 -6 -16 -6q-11 0 -20.5 9t-9.5 21q0 9 5 16q19 23 57 34.5t72 11.5
q61 0 100 -28.5t39 -91.5v-170zM250 400v44q-23 31 -73 31q-27 0 -45.5 -14.5t-18.5 -38.5q0 -25 18.5 -39.5t45.5 -14.5q49 0 73 32z" />
    <glyph glyph-name="guillemotleft" unicode="&#xab;" horiz-adv-x="493" 
d="M249 95q0 -14 -10.5 -26t-26.5 -12t-27 12l-107 120q-20 23 -20 53q0 32 21 54l106 118q10 11 26 11q15 0 26.5 -10.5t11.5 -25.5q0 -16 -9 -25l-109 -121l109 -123q9 -10 9 -25zM422 95q0 -14 -11 -26t-27 -12t-27 12l-107 120q-20 21 -20 53q0 31 21 55l106 117
q10 11 26 11q15 0 26.5 -10.5t11.5 -26.5q0 -15 -8 -24l-110 -121l110 -123q9 -10 9 -25z" />
    <glyph glyph-name="logicalnot" unicode="&#xac;" horiz-adv-x="511" 
d="M473 234q0 -14 -10.5 -24.5t-25.5 -10.5q-14 0 -24.5 10.5t-10.5 24.5v160h-345q-14 0 -24 10.5t-10 25.5q0 14 10.5 24t23.5 10h344q30 0 51 -21.5t21 -51.5v-157z" />
    <glyph glyph-name="uni00AD" unicode="&#xad;" horiz-adv-x="300" 
d="M229 288q19 0 32 -13t13 -32q0 -20 -13 -33.5t-32 -13.5h-158q-19 0 -32 13.5t-13 32.5t13 32.5t32 13.5h158z" />
    <glyph glyph-name="registered" unicode="&#xae;" horiz-adv-x="494" 
d="M459 465q0 -88 -62 -150t-150 -62t-150 62t-62 150t62 150t150 62q89 0 150.5 -61.5t61.5 -150.5zM428 465q0 76 -53 128.5t-128 52.5q-76 0 -129 -52.5t-53 -128.5q0 -75 53 -128.5t129 -53.5q75 0 128 53.5t53 128.5zM343 512q0 -35 -22.5 -53.5t-39.5 -18.5l51 -74
q3 -6 3 -11q0 -7 -5.5 -12t-12.5 -5q-9 0 -15 9l-60 92h-43v-86q0 -16 -17 -16q-16 0 -16 16v203q0 13 9 21.5t22 8.5h68q32 0 55 -20.5t23 -53.5zM309 512q0 19 -13.5 32t-30.5 13h-66v-88h66q17 0 30.5 12.5t13.5 30.5z" />
    <glyph glyph-name="macron" unicode="&#xaf;" horiz-adv-x="363" 
d="M363 598q0 -13 -9 -22.5t-21 -9.5h-303q-12 0 -21 9.5t-9 22.5t9 22t21 9h303q12 0 21 -9t9 -22z" />
    <glyph glyph-name="degree" unicode="&#xb0;" horiz-adv-x="303" 
d="M281 546q0 -54 -38 -91.5t-92 -37.5t-92 37.5t-38 91.5t38 92.5t92 38.5t92 -38.5t38 -92.5zM220 546q0 29 -20 49.5t-49 20.5q-28 0 -48 -20.5t-20 -49.5q0 -28 19.5 -48t48.5 -20t49 20t20 48z" />
    <glyph glyph-name="plusminus" unicode="&#xb1;" horiz-adv-x="502" 
d="M479 360q0 -15 -9.5 -25t-23.5 -10h-157v-176q0 -16 -11 -27t-27 -11t-26.5 11t-10.5 27v176h-158q-14 0 -23.5 10t-9.5 25q0 14 9.5 23.5t23.5 9.5h158v171q0 15 11 25.5t28 10.5q15 0 25.5 -10.5t10.5 -25.5v-171h157q14 0 23.5 -9.5t9.5 -23.5zM479 35q0 -15 -9.5 -25
t-23.5 -10h-390q-14 0 -23.5 10t-9.5 25q0 13 9.5 23t23.5 10h390q14 0 23.5 -10t9.5 -23z" />
    <glyph glyph-name="twosuperior" unicode="&#xb2;" horiz-adv-x="394" 
d="M359 456q0 -15 -9.5 -25t-22.5 -10h-254q-13 0 -22 9.5t-9 24.5q0 20 18 35q118 82 163.5 127t45.5 82q0 30 -21.5 46t-53.5 16q-49 0 -91 -32q-10 -7 -21 -7q-13 0 -23 9.5t-10 23.5q0 13 7 21q19 24 60.5 37.5t79.5 13.5q67 0 110.5 -32t43.5 -90q0 -51 -44.5 -101
t-138.5 -117h160q13 0 22.5 -9t9.5 -22z" />
    <glyph glyph-name="threesuperior" unicode="&#xb3;" horiz-adv-x="394" 
d="M355 531q0 -52 -44 -84.5t-116 -32.5q-53 0 -103 21t-50 49q0 15 10.5 25t24.5 10q11 0 19 -6q46 -33 96 -33q38 0 59.5 15t21.5 41q0 57 -94 57h-15q-13 0 -22.5 8t-9.5 24q0 15 9.5 23.5t22.5 8.5h14q88 0 88 52q0 25 -22 38.5t-57 13.5q-51 0 -88 -30q-8 -7 -20 -7
t-21.5 9.5t-9.5 22.5q0 11 7 19q19 23 57 37.5t83 14.5q71 0 112 -29.5t41 -78.5q0 -37 -26 -61t-63 -31q35 -3 65.5 -28t30.5 -68z" />
    <glyph glyph-name="acute" unicode="&#xb4;" horiz-adv-x="241" 
d="M194 672q0 -14 -11 -23l-105 -92q-10 -7 -18 -7q-11 0 -19.5 8t-8.5 20t7 19l97 99q10 10 23 10t24 -10t11 -24z" />
    <glyph glyph-name="mu" unicode="&#xb5;" horiz-adv-x="582" 
d="M568 37q0 -22 -12.5 -35.5t-37.5 -13.5q-98 0 -120 86q-24 -38 -61.5 -62t-79.5 -24q-60 0 -82 36v-162q0 -21 -16 -36.5t-38 -15.5t-37.5 15.5t-15.5 36.5v575q0 21 15.5 36.5t39.5 15.5q21 0 36.5 -15.5t15.5 -36.5v-257q0 -98 97 -98q36 0 68.5 18t53.5 45v292
q0 21 15.5 36.5t39.5 15.5q21 0 36.5 -15.5t15.5 -36.5v-304q0 -22 10.5 -34.5t23 -16.5t23 -15t10.5 -30z" />
    <glyph glyph-name="paragraph" unicode="&#xb6;" horiz-adv-x="449" 
d="M393 -79q0 -11 -8 -19t-20 -8q-11 0 -19.5 8t-8.5 19v691h-82v-691q0 -11 -8 -19t-20 -8t-20 8t-8 19v402q-71 0 -121.5 50.5t-50.5 121.5t50.5 121.5t121.5 50.5h140q22 0 38 -16t16 -38v-692z" />
    <glyph glyph-name="periodcentered" unicode="&#xb7;" horiz-adv-x="246" 
d="M194 244q0 -29 -21 -49.5t-50 -20.5t-50 20.5t-21 49.5t21 50t50 21t50 -21t21 -50z" />
    <glyph glyph-name="cedilla" unicode="&#xb8;" horiz-adv-x="215" 
d="M215 -111q0 -37 -31.5 -60t-76.5 -23q-38 0 -71.5 11.5t-33.5 32.5q0 10 7.5 17.5t18.5 7.5q4 0 10 -3q33 -18 65 -18q23 0 39.5 10t16.5 27q0 29 -32 29q-9 0 -22 -6.5t-21 -6.5q-12 0 -20 8.5t-8 18.5q0 6 1 10l21 54q9 26 34 26q8 0 14.5 -5.5t6.5 -13.5q0 -6 -3 -12
l-18 -46q16 11 36 11q29 0 48 -19t19 -50z" />
    <glyph glyph-name="onesuperior" unicode="&#xb9;" horiz-adv-x="266" 
d="M206 456q0 -17 -12 -29t-30 -12q-17 0 -28.5 12t-11.5 29v259l-48 -49q-12 -10 -23 -10q-13 0 -23.5 10t-10.5 25q0 14 10 24l95 95q16 16 38 16q18 0 31 -12t13 -29v-329z" />
    <glyph glyph-name="ordmasculine" unicode="&#xba;" horiz-adv-x="405" 
d="M371 483q0 -70 -46 -117.5t-123 -47.5q-75 0 -121.5 47.5t-46.5 117.5t46.5 117.5t121.5 47.5q77 0 123 -47.5t46 -117.5zM290 483q0 45 -23.5 72t-64.5 27t-64 -27t-23 -72t23 -73t64 -28t64.5 28t23.5 73z" />
    <glyph glyph-name="guillemotright" unicode="&#xbb;" horiz-adv-x="493" 
d="M263 242q0 -30 -20 -53l-107 -120q-10 -12 -27 -12q-15 0 -26.5 11.5t-11.5 26.5q0 13 9 25l110 123l-110 121q-8 11 -8 24q0 14 10.5 25.5t26.5 11.5q17 0 27 -11l106 -117q21 -24 21 -55zM435 242q0 -32 -20 -53l-107 -120q-10 -12 -27 -12q-14 0 -26 11.5t-12 26.5
q0 14 10 25l109 123l-109 121q-9 9 -9 24q0 14 10.5 25.5t26.5 11.5q17 0 27 -11l107 -118q20 -23 20 -54z" />
    <glyph glyph-name="onequarter" unicode="&#xbc;" horiz-adv-x="809" 
d="M785 125q0 -14 -9.5 -24t-21.5 -10h-30v-57q0 -17 -12 -28.5t-29 -11.5t-28.5 12t-11.5 28v57h-170q-13 0 -22.5 10.5t-9.5 25.5q0 13 10 28l141 216q21 35 65 35q28 0 47.5 -19t19.5 -45v-186h30q12 0 21.5 -9t9.5 -22zM602 646q0 -7 -4 -15l-400 -626q-9 -12 -23 -12
q-13 0 -21.5 8.5t-8.5 19.5q0 7 5 15l399 626q10 13 24 13q12 0 20.5 -9t8.5 -20zM206 302q0 -17 -12 -29t-30 -12q-17 0 -28.5 12t-11.5 29v259l-48 -49q-12 -10 -23 -10q-13 0 -23.5 10t-10.5 25q0 14 10 24l95 95q16 16 38 16q18 0 31 -12t13 -29v-329zM643 156v174
l-114 -174h114z" />
    <glyph glyph-name="onehalf" unicode="&#xbd;" horiz-adv-x="844" 
d="M808 35q0 -15 -9.5 -25t-22.5 -10h-253q-14 0 -23 9.5t-9 24.5q0 21 19 35q117 82 162.5 127t45.5 82q0 30 -21.5 46t-53.5 16q-50 0 -90 -32q-12 -7 -22 -7q-13 0 -23 9.5t-10 23.5q0 33 51 52.5t96 19.5q67 0 110.5 -32t43.5 -90q0 -51 -44.5 -101t-138.5 -117h160
q13 0 22.5 -9t9.5 -22zM602 646q0 -7 -4 -15l-400 -626q-9 -12 -23 -12q-13 0 -21.5 8.5t-8.5 19.5q0 7 5 15l399 626q10 13 24 13q12 0 20.5 -9t8.5 -20zM206 302q0 -17 -12 -29t-30 -12q-17 0 -28.5 12t-11.5 29v259l-48 -49q-12 -10 -23 -10q-13 0 -23.5 10t-10.5 25
q0 14 10 24l95 95q16 16 38 16q18 0 31 -12t13 -29v-329z" />
    <glyph glyph-name="threequarters" unicode="&#xbe;" horiz-adv-x="904" 
d="M881 125q0 -14 -9 -24t-22 -10h-30v-57q0 -17 -12 -28.5t-29 -11.5t-28.5 12t-11.5 28v57h-170q-13 0 -22.5 10.5t-9.5 25.5q0 13 10 28l141 216q21 35 65 35q28 0 47.5 -19t19.5 -45v-186h30q13 0 22 -9t9 -22zM697 646q0 -7 -4 -15l-400 -626q-9 -12 -23 -12
q-12 0 -21 8.5t-9 19.5q0 7 5 15l399 626q10 13 24 13q12 0 20.5 -9t8.5 -20zM355 377q0 -52 -44 -84.5t-116 -32.5q-53 0 -103 21t-50 49q0 15 10.5 25t24.5 10q11 0 19 -6q46 -33 96 -33q38 0 59.5 15t21.5 41q0 57 -94 57h-15q-13 0 -22.5 8t-9.5 24q0 15 9.5 23.5
t22.5 8.5h14q88 0 88 52q0 25 -22 38.5t-57 13.5q-51 0 -88 -30q-8 -7 -20 -7t-21.5 9.5t-9.5 22.5q0 28 47 49.5t100 21.5q71 0 112 -29.5t41 -78.5q0 -37 -26 -61t-63 -31q35 -3 65.5 -28t30.5 -68zM739 156v174l-114 -174h114z" />
    <glyph glyph-name="questiondown" unicode="&#xbf;" horiz-adv-x="396" 
d="M304 422q0 -29 -21 -49.5t-50 -20.5t-50 20.5t-21 49.5t21 50.5t50 21.5t50 -21.5t21 -50.5zM429 -89q0 -32 -36 -57.5t-81 -37t-84 -11.5q-93 0 -148.5 44t-55.5 113q0 41 18.5 73.5t44.5 53t52 38t44.5 39t18.5 45.5q0 7 -4 17.5t-4 15.5q0 18 13 32t35 14
q28 0 46 -27.5t18 -62.5q0 -41 -25 -73.5t-54.5 -50t-54.5 -42.5t-25 -52q0 -31 23.5 -51t69.5 -20q33 0 77.5 25t61.5 25q21 0 35.5 -14t14.5 -36z" />
    <glyph glyph-name="Agrave" unicode="&#xc0;" horiz-adv-x="674" 
d="M646 58q0 -25 -18 -44.5t-46 -19.5q-42 0 -58 39l-35 93h-304l-36 -93q-15 -39 -58 -39q-28 0 -46 19t-18 45q0 13 5 22l208 530q11 28 36.5 45.5t56.5 17.5q32 2 60 -15.5t40 -47.5l209 -530q4 -14 4 -22zM455 232l-118 315l-119 -315h237zM367 745q0 -11 -8.5 -19.5
t-19.5 -8.5q-9 0 -18 7l-106 92q-10 9 -10 23q0 13 10 23.5t24 10.5q12 0 24 -10l96 -99q8 -8 8 -19z" />
    <glyph glyph-name="Aacute" unicode="&#xc1;" horiz-adv-x="674" 
d="M646 58q0 -25 -18 -44.5t-46 -19.5q-42 0 -58 39l-35 93h-304l-36 -93q-15 -39 -58 -39q-28 0 -46 19t-18 45q0 13 5 22l208 530q11 28 36.5 45.5t56.5 17.5q32 2 60 -15.5t40 -47.5l209 -530q4 -14 4 -22zM455 232l-118 315l-119 -315h237zM470 839q0 -14 -11 -23
l-105 -92q-10 -7 -18 -7q-11 0 -19.5 8t-8.5 20t7 19l97 99q10 10 23 10t24 -10t11 -24z" />
    <glyph glyph-name="Acircumflex" unicode="&#xc2;" horiz-adv-x="674" 
d="M646 58q0 -25 -18 -44.5t-46 -19.5q-42 0 -58 39l-35 93h-304l-36 -93q-15 -39 -58 -39q-28 0 -46 19t-18 45q0 13 5 22l208 530q11 28 36.5 45.5t56.5 17.5q32 2 60 -15.5t40 -47.5l209 -530q4 -14 4 -22zM455 232l-118 315l-119 -315h237zM461 745q0 -11 -8 -20t-21 -9
t-22 11l-73 92l-72 -92q-8 -10 -21 -10q-12 0 -21 8t-9 19q0 8 5 16l49 76q24 37 70 37q42 0 68 -37l51 -76q4 -7 4 -15z" />
    <glyph glyph-name="Atilde" unicode="&#xc3;" horiz-adv-x="674" 
d="M646 58q0 -25 -18 -44.5t-46 -19.5q-42 0 -58 39l-35 93h-304l-36 -93q-15 -39 -58 -39q-28 0 -46 19t-18 45q0 13 5 22l208 530q11 28 36.5 45.5t56.5 17.5q32 2 60 -15.5t40 -47.5l209 -530q4 -14 4 -22zM455 232l-118 315l-119 -315h237zM497 831q-2 -42 -27 -76
t-75 -34q-30 0 -50.5 19.5t-36 38.5t-32.5 19q-31 0 -38 -47q-2 -12 -12 -20t-22 -8q-11 0 -18 8t-7 19q0 41 26.5 76t75.5 35q23 0 41.5 -12t28 -26.5t22.5 -26.5t26 -12q30 0 39 47q2 12 11.5 20t21.5 8t19 -8t7 -20z" />
    <glyph glyph-name="Adieresis" unicode="&#xc4;" horiz-adv-x="674" 
d="M646 58q0 -25 -18 -44.5t-46 -19.5q-42 0 -58 39l-35 93h-304l-36 -93q-15 -39 -58 -39q-28 0 -46 19t-18 45q0 13 5 22l208 530q11 28 36.5 45.5t56.5 17.5q32 2 60 -15.5t40 -47.5l209 -530q4 -14 4 -22zM455 232l-118 315l-119 -315h237zM292 775q0 -25 -17 -42.5
t-41 -17.5q-25 0 -42.5 17.5t-17.5 42.5t17.5 42t42.5 17q24 0 41 -17t17 -42zM503 775q0 -25 -18 -42.5t-42 -17.5q-25 0 -42.5 17.5t-17.5 42.5t17.5 42t42.5 17q24 0 42 -17.5t18 -41.5z" />
    <glyph glyph-name="Aring" unicode="&#xc5;" horiz-adv-x="674" 
d="M646 58q0 -25 -18 -44.5t-46 -19.5q-42 0 -58 39l-35 93h-304l-36 -93q-15 -39 -58 -39q-28 0 -46 19t-18 45q0 13 5 22l208 530q11 28 36.5 45.5t56.5 17.5q32 2 60 -15.5t40 -47.5l209 -530q4 -14 4 -22zM455 232l-118 315l-119 -315h237zM439 791q0 -43 -29.5 -72.5
t-72.5 -29.5q-42 0 -72 29.5t-30 72.5q0 42 30 72.5t72 30.5t72 -30.5t30 -72.5zM388 791q0 22 -14.5 37t-36.5 15q-21 0 -36 -15.5t-15 -36.5t15.5 -36.5t35.5 -15.5q21 0 36 15.5t15 36.5z" />
    <glyph glyph-name="AE" unicode="&#xc6;" horiz-adv-x="960" 
d="M919 54q0 -23 -15 -38.5t-36 -15.5h-341q-30 0 -51 21.5t-21 50.5v54h-246l-63 -105q-15 -26 -47 -26q-25 0 -42 17.5t-17 40.5q0 16 9 31l320 522q17 28 47.5 44.5t62.5 16.5h389q21 0 36 -15.5t15 -37.5t-15 -37t-36 -15h-293v-170h286q21 0 36 -15.5t15 -37.5t-15 -37
t-36 -15h-286v-182h293q21 0 36 -15t15 -36zM455 232v315l-188 -315h188z" />
    <glyph glyph-name="Ccedilla" unicode="&#xc7;" horiz-adv-x="683" 
d="M391 678q144 0 235 -104q13 -16 13 -35q0 -23 -17 -39t-40 -16q-25 0 -43 19q-61 69 -148 69q-99 0 -163.5 -67.5t-64.5 -171.5q0 -103 65 -171t163 -68q89 0 148 68q19 19 44 19q24 0 39.5 -16t15.5 -38q0 -20 -12 -35q-87 -98 -221 -103l-15 -40q17 10 36 10
q28 0 47.5 -19t19.5 -49q0 -38 -31.5 -61t-77.5 -23q-38 0 -71 12t-33 33q0 10 7.5 17t17.5 7q7 0 11 -2q30 -18 65 -18q23 0 39.5 9.5t16.5 26.5q0 30 -33 30q-8 0 -21.5 -7t-20.5 -7q-12 0 -20.5 8.5t-8.5 19.5q0 3 2 9l16 46q-135 12 -222.5 106.5t-87.5 235.5
q0 152 100 248.5t250 96.5z" />
    <glyph glyph-name="Egrave" unicode="&#xc8;" horiz-adv-x="578" 
d="M535 54q0 -23 -15 -38.5t-36 -15.5h-341q-30 0 -51 21.5t-21 50.5v523q0 29 21 50.5t51 21.5h341q21 0 36 -15.5t15 -37.5t-15 -37t-36 -15h-294v-170h287q21 0 36 -15.5t15 -37.5t-15 -37t-36 -15h-287v-182h294q21 0 36 -15t15 -36zM328 745q0 -11 -8.5 -19.5
t-19.5 -8.5q-9 0 -18 7l-106 92q-10 9 -10 23q0 13 10 23.5t24 10.5q12 0 24 -10l96 -99q8 -8 8 -19z" />
    <glyph glyph-name="Eacute" unicode="&#xc9;" horiz-adv-x="578" 
d="M535 54q0 -23 -15 -38.5t-36 -15.5h-341q-30 0 -51 21.5t-21 50.5v523q0 29 21 50.5t51 21.5h341q21 0 36 -15.5t15 -37.5t-15 -37t-36 -15h-294v-170h287q21 0 36 -15.5t15 -37.5t-15 -37t-36 -15h-287v-182h294q21 0 36 -15t15 -36zM432 839q0 -14 -11 -23l-105 -92
q-10 -7 -18 -7q-11 0 -19.5 8t-8.5 20t7 19l97 99q10 10 23 10t24 -10t11 -24z" />
    <glyph glyph-name="Ecircumflex" unicode="&#xca;" horiz-adv-x="578" 
d="M535 54q0 -23 -15 -38.5t-36 -15.5h-341q-30 0 -51 21.5t-21 50.5v523q0 29 21 50.5t51 21.5h341q21 0 36 -15.5t15 -37.5t-15 -37t-36 -15h-294v-170h287q21 0 36 -15.5t15 -37.5t-15 -37t-36 -15h-287v-182h294q21 0 36 -15t15 -36zM422 745q0 -11 -8 -20t-21 -9
t-22 11l-73 92l-72 -92q-8 -10 -21 -10q-12 0 -21 8t-9 19q0 8 5 16l49 76q24 37 70 37q42 0 68 -37l51 -76q4 -7 4 -15z" />
    <glyph glyph-name="Edieresis" unicode="&#xcb;" horiz-adv-x="578" 
d="M535 54q0 -23 -15 -38.5t-36 -15.5h-341q-30 0 -51 21.5t-21 50.5v523q0 29 21 50.5t51 21.5h341q21 0 36 -15.5t15 -37.5t-15 -37t-36 -15h-294v-170h287q21 0 36 -15.5t15 -37.5t-15 -37t-36 -15h-287v-182h294q21 0 36 -15t15 -36zM254 775q0 -25 -17 -42.5t-41 -17.5
q-25 0 -42.5 17.5t-17.5 42.5t17.5 42t42.5 17q24 0 41 -17t17 -42zM465 775q0 -25 -18 -42.5t-42 -17.5q-25 0 -42.5 17.5t-17.5 42.5t17.5 42t42.5 17q24 0 42 -17.5t18 -41.5z" />
    <glyph glyph-name="Igrave" unicode="&#xcc;" horiz-adv-x="261" 
d="M190 53q0 -24 -18 -41.5t-43 -17.5q-24 0 -41 17.5t-17 41.5v562q0 24 17.5 41t42.5 17q24 0 41.5 -17.5t17.5 -40.5v-562zM161 745q0 -11 -8.5 -19.5t-19.5 -8.5q-9 0 -18 7l-106 92q-10 9 -10 23q0 13 10 23.5t24 10.5q12 0 24 -10l96 -99q8 -8 8 -19z" />
    <glyph glyph-name="Iacute" unicode="&#xcd;" horiz-adv-x="261" 
d="M190 53q0 -24 -18 -41.5t-43 -17.5q-24 0 -41 17.5t-17 41.5v562q0 24 17.5 41t42.5 17q24 0 41.5 -17.5t17.5 -40.5v-562zM264 839q0 -14 -11 -23l-105 -92q-10 -7 -18 -7q-11 0 -19.5 8t-8.5 20t7 19l97 99q10 10 23 10t24 -10t11 -24z" />
    <glyph glyph-name="Icircumflex" unicode="&#xce;" horiz-adv-x="261" 
d="M190 53q0 -24 -18 -41.5t-43 -17.5q-24 0 -41 17.5t-17 41.5v562q0 24 17.5 41t42.5 17q24 0 41.5 -17.5t17.5 -40.5v-562zM254 745q0 -11 -8 -20t-21 -9t-22 11l-73 92l-72 -92q-8 -10 -21 -10q-12 0 -21 8t-9 19q0 8 5 16l49 76q24 37 70 37q42 0 68 -37l51 -76
q4 -7 4 -15z" />
    <glyph glyph-name="Idieresis" unicode="&#xcf;" horiz-adv-x="261" 
d="M190 53q0 -24 -18 -41.5t-43 -17.5q-24 0 -41 17.5t-17 41.5v562q0 24 17.5 41t42.5 17q24 0 41.5 -17.5t17.5 -40.5v-562zM86 775q0 -25 -17 -42.5t-41 -17.5q-25 0 -42.5 17.5t-17.5 42.5t17.5 42t42.5 17q24 0 41 -17t17 -42zM297 775q0 -25 -18 -42.5t-42 -17.5
q-25 0 -42.5 17.5t-17.5 42.5t17.5 42t42.5 17q24 0 42 -17.5t18 -41.5z" />
    <glyph glyph-name="Eth" unicode="&#xd0;" horiz-adv-x="737" 
d="M696 333q0 -148 -97 -240.5t-253 -92.5h-177q-30 0 -51 21.5t-21 50.5v213h-51q-18 0 -30.5 13.5t-12.5 32.5q0 17 12.5 30t30.5 13h51v221q0 29 21 50.5t51 21.5h177q156 0 253 -93t97 -241zM573 333q0 100 -60 164.5t-167 64.5h-130v-188h120q18 0 30.5 -13t12.5 -32
q0 -18 -12.5 -31t-30.5 -13h-120v-180h130q105 0 166 65.5t61 162.5z" />
    <glyph glyph-name="Ntilde" unicode="&#xd1;" horiz-adv-x="721" 
d="M650 65q0 -29 -21 -50t-52 -21q-38 0 -60 30l-327 448v-419q0 -24 -18 -41.5t-43 -17.5q-24 0 -41 17.5t-17 41.5v545q0 30 22.5 52.5t54.5 22.5q41 0 65 -32l318 -432v406q0 23 18 40.5t43 17.5q24 0 41 -17.5t17 -40.5v-550zM518 831q-2 -42 -27 -76t-75 -34
q-30 0 -50.5 19.5t-36 38.5t-32.5 19q-31 0 -38 -47q-2 -12 -12 -20t-22 -8q-11 0 -18 8t-7 19q0 41 26.5 76t75.5 35q23 0 41.5 -12t28 -26.5t22.5 -26.5t26 -12q30 0 39 47q2 12 11.5 20t21.5 8t19 -8t7 -20z" />
    <glyph glyph-name="Ograve" unicode="&#xd2;" horiz-adv-x="765" 
d="M724 333q0 -150 -96 -247.5t-246 -97.5q-149 0 -245 97.5t-96 247.5t96 247.5t245 97.5q150 0 246 -97.5t96 -247.5zM601 333q0 104 -60.5 171.5t-158.5 67.5t-158.5 -67.5t-60.5 -171.5t60.5 -171.5t158.5 -67.5t158.5 67.5t60.5 171.5zM413 745q0 -11 -8.5 -19.5
t-19.5 -8.5q-9 0 -18 7l-106 92q-10 9 -10 23q0 13 10 23.5t24 10.5q12 0 24 -10l96 -99q8 -8 8 -19z" />
    <glyph glyph-name="Oacute" unicode="&#xd3;" horiz-adv-x="765" 
d="M724 333q0 -150 -96 -247.5t-246 -97.5q-149 0 -245 97.5t-96 247.5t96 247.5t245 97.5q150 0 246 -97.5t96 -247.5zM601 333q0 104 -60.5 171.5t-158.5 67.5t-158.5 -67.5t-60.5 -171.5t60.5 -171.5t158.5 -67.5t158.5 67.5t60.5 171.5zM516 839q0 -14 -11 -23l-105 -92
q-10 -7 -18 -7q-11 0 -19.5 8t-8.5 20t7 19l97 99q10 10 23 10t24 -10t11 -24z" />
    <glyph glyph-name="Ocircumflex" unicode="&#xd4;" horiz-adv-x="765" 
d="M724 333q0 -150 -96 -247.5t-246 -97.5q-149 0 -245 97.5t-96 247.5t96 247.5t245 97.5q150 0 246 -97.5t96 -247.5zM601 333q0 104 -60.5 171.5t-158.5 67.5t-158.5 -67.5t-60.5 -171.5t60.5 -171.5t158.5 -67.5t158.5 67.5t60.5 171.5zM508 745q0 -11 -8 -20t-21 -9
t-22 11l-73 92l-72 -92q-8 -10 -21 -10q-12 0 -21 8t-9 19q0 8 5 16l49 76q24 37 70 37q42 0 68 -37l51 -76q4 -7 4 -15z" />
    <glyph glyph-name="Otilde" unicode="&#xd5;" horiz-adv-x="765" 
d="M724 333q0 -150 -96 -247.5t-246 -97.5q-149 0 -245 97.5t-96 247.5t96 247.5t245 97.5q150 0 246 -97.5t96 -247.5zM601 333q0 104 -60.5 171.5t-158.5 67.5t-158.5 -67.5t-60.5 -171.5t60.5 -171.5t158.5 -67.5t158.5 67.5t60.5 171.5zM542 831q-2 -42 -27 -76t-75 -34
q-30 0 -50.5 19.5t-36 38.5t-32.5 19q-31 0 -38 -47q-2 -12 -12 -20t-22 -8q-11 0 -18 8t-7 19q0 41 26.5 76t75.5 35q23 0 41.5 -12t28 -26.5t22.5 -26.5t26 -12q30 0 39 47q2 12 11.5 20t21.5 8t19 -8t7 -20z" />
    <glyph glyph-name="Odieresis" unicode="&#xd6;" horiz-adv-x="765" 
d="M724 333q0 -150 -96 -247.5t-246 -97.5q-149 0 -245 97.5t-96 247.5t96 247.5t245 97.5q150 0 246 -97.5t96 -247.5zM601 333q0 104 -60.5 171.5t-158.5 67.5t-158.5 -67.5t-60.5 -171.5t60.5 -171.5t158.5 -67.5t158.5 67.5t60.5 171.5zM337 775q0 -25 -17 -42.5
t-41 -17.5q-25 0 -42.5 17.5t-17.5 42.5t17.5 42t42.5 17q24 0 41 -17t17 -42zM548 775q0 -25 -18 -42.5t-42 -17.5q-25 0 -42.5 17.5t-17.5 42.5t17.5 42t42.5 17q24 0 42 -17.5t18 -41.5z" />
    <glyph glyph-name="multiply" unicode="&#xd7;" horiz-adv-x="502" 
d="M433 186q0 -14 -11 -24t-24 -10q-14 0 -24 10l-123 123l-123 -123q-10 -10 -23 -10q-14 0 -25 10.5t-11 24.5q0 13 10 23l123 124l-122 123q-11 9 -11 23q0 13 10 24.5t24 11.5q15 0 25 -10l123 -124l123 124q10 10 23 10t24.5 -10.5t11.5 -24.5t-10 -24l-123 -123
l123 -124q10 -12 10 -24z" />
    <glyph glyph-name="Oslash" unicode="&#xd8;" horiz-adv-x="765" 
d="M724 333q0 -150 -96 -247.5t-246 -97.5q-99 0 -180 46l-20 -28q-10 -13 -27 -13q-15 0 -26 10t-11 24q0 13 7 21l20 29q-104 96 -104 256q0 150 96 247.5t245 97.5q92 0 171 -41l16 22q11 14 28 14q15 0 26 -10t11 -24q0 -11 -6 -20l-17 -23q113 -99 113 -263zM601 333
q0 104 -59 169l-274 -378q51 -30 114 -30q98 0 158.5 67.5t60.5 171.5zM486 547q-50 25 -104 25q-98 0 -158.5 -67.5t-60.5 -171.5q0 -97 53 -162z" />
    <glyph glyph-name="Ugrave" unicode="&#xd9;" horiz-adv-x="720" 
d="M650 264q0 -128 -73.5 -202t-216.5 -74q-142 0 -215.5 74t-73.5 201v351q0 24 17.5 41.5t43.5 17.5q25 0 42 -17.5t17 -41.5v-347q0 -80 44 -126.5t125 -46.5q82 0 125.5 46.5t43.5 126.5v347q0 24 18 41.5t44 17.5q25 0 42 -17.5t17 -41.5v-350zM390 745
q0 -11 -8.5 -19.5t-19.5 -8.5q-9 0 -18 7l-106 92q-10 9 -10 23q0 13 10 23.5t24 10.5q12 0 24 -10l96 -99q8 -8 8 -19z" />
    <glyph glyph-name="Uacute" unicode="&#xda;" horiz-adv-x="720" 
d="M650 264q0 -128 -73.5 -202t-216.5 -74q-142 0 -215.5 74t-73.5 201v351q0 24 17.5 41.5t43.5 17.5q25 0 42 -17.5t17 -41.5v-347q0 -80 44 -126.5t125 -46.5q82 0 125.5 46.5t43.5 126.5v347q0 24 18 41.5t44 17.5q25 0 42 -17.5t17 -41.5v-350zM494 839q0 -14 -11 -23
l-105 -92q-10 -7 -18 -7q-11 0 -19.5 8t-8.5 20t7 19l97 99q10 10 23 10t24 -10t11 -24z" />
    <glyph glyph-name="Ucircumflex" unicode="&#xdb;" horiz-adv-x="720" 
d="M650 264q0 -128 -73.5 -202t-216.5 -74q-142 0 -215.5 74t-73.5 201v351q0 24 17.5 41.5t43.5 17.5q25 0 42 -17.5t17 -41.5v-347q0 -80 44 -126.5t125 -46.5q82 0 125.5 46.5t43.5 126.5v347q0 24 18 41.5t44 17.5q25 0 42 -17.5t17 -41.5v-350zM487 745q0 -11 -8 -20
t-21 -9t-22 11l-73 92l-72 -92q-8 -10 -21 -10q-12 0 -21 8t-9 19q0 8 5 16l49 76q24 37 70 37q42 0 68 -37l51 -76q4 -7 4 -15z" />
    <glyph glyph-name="Udieresis" unicode="&#xdc;" horiz-adv-x="720" 
d="M650 264q0 -128 -73.5 -202t-216.5 -74q-142 0 -215.5 74t-73.5 201v351q0 24 17.5 41.5t43.5 17.5q25 0 42 -17.5t17 -41.5v-347q0 -80 44 -126.5t125 -46.5q82 0 125.5 46.5t43.5 126.5v347q0 24 18 41.5t44 17.5q25 0 42 -17.5t17 -41.5v-350zM316 775
q0 -25 -17 -42.5t-41 -17.5q-25 0 -42.5 17.5t-17.5 42.5t17.5 42t42.5 17q24 0 41 -17t17 -42zM527 775q0 -25 -18 -42.5t-42 -17.5q-25 0 -42.5 17.5t-17.5 42.5t17.5 42t42.5 17q24 0 42 -17.5t18 -41.5z" />
    <glyph glyph-name="Yacute" unicode="&#xdd;" horiz-adv-x="638" 
d="M592 617q0 -18 -8 -30l-205 -311v-223q0 -24 -17.5 -41.5t-42.5 -17.5t-42 17.5t-17 41.5v223l-207 312q-9 12 -9 29q0 21 16.5 38t41.5 17q31 0 48 -26l169 -263l167 263q18 26 49 26q24 0 40.5 -16.5t16.5 -38.5zM452 839q0 -14 -11 -23l-105 -92q-10 -7 -18 -7
q-11 0 -19.5 8t-8.5 20t7 19l97 99q10 10 23 10t24 -10t11 -24z" />
    <glyph glyph-name="Thorn" unicode="&#xde;" horiz-adv-x="610" 
d="M584 344q0 -88 -58.5 -148t-159.5 -60h-176v-81q0 -24 -18 -41.5t-43 -17.5q-24 0 -41 17.5t-17 41.5v557q0 24 17.5 41.5t42.5 17.5q24 0 41.5 -17.5t17.5 -41.5v-57h176q101 0 159.5 -61t58.5 -150zM462 345q0 46 -32 75t-81 29h-159v-207h159q49 0 81 28t32 75z" />
    <glyph glyph-name="germandbls" unicode="&#xdf;" horiz-adv-x="625" 
d="M608 141q0 -66 -52.5 -109.5t-142.5 -43.5q-57 0 -104 17t-70 46q-9 12 -9 27q0 18 11.5 30.5t28.5 12.5q12 0 25 -8q53 -41 118 -41q44 0 68 19t24 46q0 25 -28 40t-67.5 24t-79.5 22t-68 44.5t-28 81.5q0 29 13.5 53.5t33 40t39 28.5t33 26.5t13.5 27.5q0 26 -26 41.5
t-60 15.5q-45 0 -75 -26.5t-30 -71.5v-437q0 -22 -16 -37.5t-38 -15.5t-37.5 15.5t-15.5 37.5v437q0 82 58 137.5t156 55.5q79 0 136.5 -38t57.5 -100q0 -37 -21.5 -66t-48 -44t-48 -35t-21.5 -43q0 -19 20 -31t50 -17.5t65.5 -16t65.5 -24t50 -45t20 -76.5z" />
    <glyph glyph-name="agrave" unicode="&#xe0;" horiz-adv-x="537" 
d="M469 47q0 -22 -15.5 -37.5t-37.5 -15.5h-6q-15 0 -31.5 12.5t-16.5 36.5v9q-55 -64 -155 -64q-66 0 -117.5 42.5t-51.5 117.5q0 77 51 117t118 40q104 0 155 -62v74q0 41 -31 65t-81 24q-65 0 -115 -37q-11 -7 -22 -7q-16 0 -29 11.5t-13 30.5q0 13 8 23q26 33 81 50.5
t107 17.5q89 0 145.5 -42t56.5 -133v-273zM362 111v72q-36 48 -114 48q-44 0 -72.5 -23t-28.5 -62q0 -38 28.5 -61t72.5 -23q78 0 114 49zM297 578q0 -11 -8.5 -19.5t-19.5 -8.5q-9 0 -18 7l-106 92q-10 9 -10 23q0 13 10 23.5t24 10.5q12 0 24 -10l96 -99q8 -8 8 -19z" />
    <glyph glyph-name="aacute" unicode="&#xe1;" horiz-adv-x="537" 
d="M469 47q0 -22 -15.5 -37.5t-37.5 -15.5h-6q-15 0 -31.5 12.5t-16.5 36.5v9q-55 -64 -155 -64q-66 0 -117.5 42.5t-51.5 117.5q0 77 51 117t118 40q104 0 155 -62v74q0 41 -31 65t-81 24q-65 0 -115 -37q-11 -7 -22 -7q-16 0 -29 11.5t-13 30.5q0 13 8 23q26 33 81 50.5
t107 17.5q89 0 145.5 -42t56.5 -133v-273zM362 111v72q-36 48 -114 48q-44 0 -72.5 -23t-28.5 -62q0 -38 28.5 -61t72.5 -23q78 0 114 49zM400 672q0 -14 -11 -23l-105 -92q-10 -7 -18 -7q-11 0 -19.5 8t-8.5 20t7 19l97 99q10 10 23 10t24 -10t11 -24z" />
    <glyph glyph-name="acircumflex" unicode="&#xe2;" horiz-adv-x="537" 
d="M469 47q0 -22 -15.5 -37.5t-37.5 -15.5h-6q-15 0 -31.5 12.5t-16.5 36.5v9q-55 -64 -155 -64q-66 0 -117.5 42.5t-51.5 117.5q0 77 51 117t118 40q104 0 155 -62v74q0 41 -31 65t-81 24q-65 0 -115 -37q-11 -7 -22 -7q-16 0 -29 11.5t-13 30.5q0 13 8 23q26 33 81 50.5
t107 17.5q89 0 145.5 -42t56.5 -133v-273zM362 111v72q-36 48 -114 48q-44 0 -72.5 -23t-28.5 -62q0 -38 28.5 -61t72.5 -23q78 0 114 49zM392 578q0 -11 -8 -20t-21 -9t-22 11l-73 92l-72 -92q-8 -10 -21 -10q-12 0 -21 8t-9 19q0 8 5 16l49 76q24 37 70 37q42 0 68 -37
l51 -76q4 -7 4 -15z" />
    <glyph glyph-name="atilde" unicode="&#xe3;" horiz-adv-x="537" 
d="M469 47q0 -22 -15.5 -37.5t-37.5 -15.5h-6q-15 0 -31.5 12.5t-16.5 36.5v9q-55 -64 -155 -64q-66 0 -117.5 42.5t-51.5 117.5q0 77 51 117t118 40q104 0 155 -62v74q0 41 -31 65t-81 24q-65 0 -115 -37q-11 -7 -22 -7q-16 0 -29 11.5t-13 30.5q0 13 8 23q26 33 81 50.5
t107 17.5q89 0 145.5 -42t56.5 -133v-273zM362 111v72q-36 48 -114 48q-44 0 -72.5 -23t-28.5 -62q0 -38 28.5 -61t72.5 -23q78 0 114 49zM427 664q-2 -42 -27 -76t-75 -34q-23 0 -41.5 12t-28 26.5t-22.5 26.5t-27 12q-31 0 -38 -47q-2 -12 -12 -20t-22 -8q-11 0 -18 8
t-7 19q0 41 26.5 76t75.5 35q23 0 41.5 -12t28 -26.5t22.5 -26.5t26 -12q30 0 39 47q2 12 11.5 20t21.5 8t19 -8t7 -20z" />
    <glyph glyph-name="adieresis" unicode="&#xe4;" horiz-adv-x="537" 
d="M469 47q0 -22 -15.5 -37.5t-37.5 -15.5h-6q-15 0 -31.5 12.5t-16.5 36.5v9q-55 -64 -155 -64q-66 0 -117.5 42.5t-51.5 117.5q0 77 51 117t118 40q104 0 155 -62v74q0 41 -31 65t-81 24q-65 0 -115 -37q-11 -7 -22 -7q-16 0 -29 11.5t-13 30.5q0 13 8 23q26 33 81 50.5
t107 17.5q89 0 145.5 -42t56.5 -133v-273zM362 111v72q-36 48 -114 48q-44 0 -72.5 -23t-28.5 -62q0 -38 28.5 -61t72.5 -23q78 0 114 49zM222 608q0 -25 -17 -42.5t-41 -17.5q-25 0 -42.5 17.5t-17.5 42.5t17.5 42t42.5 17q24 0 41 -17t17 -42zM433 608q0 -25 -18 -42.5
t-42 -17.5q-25 0 -42.5 17.5t-17.5 42.5t17.5 42t42.5 17q24 0 42 -17.5t18 -41.5z" />
    <glyph glyph-name="aring" unicode="&#xe5;" horiz-adv-x="537" 
d="M469 47q0 -22 -15.5 -37.5t-37.5 -15.5h-6q-15 0 -31.5 12.5t-16.5 36.5v9q-55 -64 -155 -64q-66 0 -117.5 42.5t-51.5 117.5q0 77 51 117t118 40q104 0 155 -62v74q0 41 -31 65t-81 24q-65 0 -115 -37q-11 -7 -22 -7q-16 0 -29 11.5t-13 30.5q0 13 8 23q26 33 81 50.5
t107 17.5q89 0 145.5 -42t56.5 -133v-273zM362 111v72q-36 48 -114 48q-44 0 -72.5 -23t-28.5 -62q0 -38 28.5 -61t72.5 -23q78 0 114 49zM370 638q0 -43 -29.5 -72.5t-72.5 -29.5q-42 0 -72 29.5t-30 72.5q0 42 30 72.5t72 30.5t72 -30.5t30 -72.5zM319 638q0 22 -14.5 37
t-36.5 15q-20 0 -35.5 -15t-15.5 -37q0 -21 15.5 -36.5t35.5 -15.5q21 0 36 15.5t15 36.5z" />
    <glyph glyph-name="ae" unicode="&#xe6;" horiz-adv-x="877" 
d="M840 260q0 -22 -15.5 -37.5t-37.5 -15.5h-296q6 -56 43.5 -93t98.5 -37q53 0 96 28q12 6 25 6q17 0 31 -12t14 -29q0 -13 -8 -24q-24 -28 -72.5 -43t-92.5 -15q-130 0 -189 99q-28 -44 -82 -71.5t-118 -27.5q-84 0 -141.5 41.5t-57.5 117.5q0 75 50.5 116.5t125.5 41.5
q110 0 169 -60v73q0 40 -33.5 64t-88.5 24q-72 0 -125 -38q-12 -7 -23 -7q-16 0 -28.5 12t-12.5 30q0 15 8 24q26 33 83 50.5t111 17.5q134 0 170 -91q62 91 176 91q79 0 134 -46t76 -126q10 -34 10 -63zM738 281q-2 49 -33.5 88.5t-91.5 39.5q-55 0 -87.5 -39t-35.5 -89
h248zM383 173v9q-43 49 -125 49q-49 0 -80 -20.5t-31 -57.5t30.5 -58t78.5 -21q52 0 89.5 31t37.5 68z" />
    <glyph glyph-name="ccedilla" unicode="&#xe7;" horiz-adv-x="497" 
d="M459 75q0 -14 -7 -22q-39 -56 -141 -64l-16 -41q16 11 36 11q29 0 48 -19.5t19 -49.5q0 -38 -31.5 -60.5t-76.5 -22.5q-38 0 -71.5 11.5t-33.5 32.5q0 10 7.5 17.5t18.5 7.5q4 0 10 -3q33 -18 65 -18q23 0 39.5 9.5t16.5 26.5q0 30 -32 30q-9 0 -22 -7t-21 -7
q-12 0 -20 8.5t-8 19.5q0 6 1 9l17 46q-98 10 -158.5 79.5t-60.5 172.5q0 110 70 181.5t180 71.5q55 0 99 -17.5t64 -47.5q7 -8 7 -22q0 -20 -15 -33t-35 -13q-18 0 -31 10q-37 28 -84 28q-65 0 -105 -44t-40 -114t40 -114.5t105 -44.5q46 0 84 29q14 10 31 10
q20 0 35.5 -13.5t15.5 -33.5z" />
    <glyph glyph-name="egrave" unicode="&#xe8;" horiz-adv-x="557" 
d="M520 259q0 -21 -15 -36.5t-37 -15.5h-318q6 -57 46.5 -95t105.5 -38q58 0 108 32q10 6 22 6q17 0 31 -12.5t14 -31.5q0 -37 -63.5 -58.5t-122.5 -21.5q-110 0 -181.5 70.5t-71.5 183.5q0 106 69.5 179.5t175.5 73.5q84 0 143 -46.5t82 -125.5q12 -40 12 -64zM417 281
q-2 49 -35.5 88.5t-98.5 39.5q-61 0 -95.5 -39t-38.5 -89h268zM313 578q0 -11 -8.5 -19.5t-19.5 -8.5q-9 0 -18 7l-106 92q-10 9 -10 23q0 13 10 23.5t24 10.5q12 0 24 -10l96 -99q8 -8 8 -19z" />
    <glyph glyph-name="eacute" unicode="&#xe9;" horiz-adv-x="557" 
d="M520 259q0 -21 -15 -36.5t-37 -15.5h-318q6 -57 46.5 -95t105.5 -38q58 0 108 32q10 6 22 6q17 0 31 -12.5t14 -31.5q0 -37 -63.5 -58.5t-122.5 -21.5q-110 0 -181.5 70.5t-71.5 183.5q0 106 69.5 179.5t175.5 73.5q84 0 143 -46.5t82 -125.5q12 -40 12 -64zM417 281
q-2 49 -35.5 88.5t-98.5 39.5q-61 0 -95.5 -39t-38.5 -89h268zM416 672q0 -14 -11 -23l-105 -92q-10 -7 -18 -7q-11 0 -19.5 8t-8.5 20t7 19l97 99q10 10 23 10t24 -10t11 -24z" />
    <glyph glyph-name="ecircumflex" unicode="&#xea;" horiz-adv-x="557" 
d="M520 259q0 -21 -15 -36.5t-37 -15.5h-318q6 -57 46.5 -95t105.5 -38q58 0 108 32q10 6 22 6q17 0 31 -12.5t14 -31.5q0 -37 -63.5 -58.5t-122.5 -21.5q-110 0 -181.5 70.5t-71.5 183.5q0 106 69.5 179.5t175.5 73.5q84 0 143 -46.5t82 -125.5q12 -40 12 -64zM417 281
q-2 49 -35.5 88.5t-98.5 39.5q-61 0 -95.5 -39t-38.5 -89h268zM407 578q0 -11 -8 -20t-21 -9t-22 11l-73 92l-72 -92q-8 -10 -21 -10q-12 0 -21 8t-9 19q0 8 5 16l49 76q24 37 70 37q42 0 68 -37l51 -76q4 -7 4 -15z" />
    <glyph glyph-name="edieresis" unicode="&#xeb;" horiz-adv-x="557" 
d="M520 259q0 -21 -15 -36.5t-37 -15.5h-318q6 -57 46.5 -95t105.5 -38q58 0 108 32q10 6 22 6q17 0 31 -12.5t14 -31.5q0 -37 -63.5 -58.5t-122.5 -21.5q-110 0 -181.5 70.5t-71.5 183.5q0 106 69.5 179.5t175.5 73.5q84 0 143 -46.5t82 -125.5q12 -40 12 -64zM417 281
q-2 49 -35.5 88.5t-98.5 39.5q-61 0 -95.5 -39t-38.5 -89h268zM238 608q0 -25 -17 -42.5t-41 -17.5q-25 0 -42.5 17.5t-17.5 42.5t17.5 42t42.5 17q24 0 41 -17t17 -42zM449 608q0 -25 -18 -42.5t-42 -17.5q-25 0 -42.5 17.5t-17.5 42.5t17.5 42t42.5 17q24 0 42 -17.5
t18 -41.5z" />
    <glyph glyph-name="igrave" unicode="&#xec;" horiz-adv-x="242" 
d="M152 578q0 -11 -8.5 -19.5t-19.5 -8.5q-9 0 -18 7l-106 92q-10 9 -10 23q0 13 10 23.5t24 10.5q12 0 24 -10l96 -99q8 -8 8 -19zM175 47q0 -22 -16 -37.5t-38 -15.5t-37.5 15.5t-15.5 37.5v390q0 21 15.5 36.5t39.5 15.5q21 0 36.5 -15.5t15.5 -36.5v-390z" />
    <glyph glyph-name="iacute" unicode="&#xed;" horiz-adv-x="242" 
d="M254 672q0 -14 -11 -23l-105 -92q-10 -7 -18 -7q-11 0 -19.5 8t-8.5 20t7 19l97 99q10 10 23 10t24 -10t11 -24zM175 47q0 -22 -16 -37.5t-38 -15.5t-37.5 15.5t-15.5 37.5v390q0 21 15.5 36.5t39.5 15.5q21 0 36.5 -15.5t15.5 -36.5v-390z" />
    <glyph glyph-name="icircumflex" unicode="&#xee;" horiz-adv-x="242" 
d="M175 47q0 -22 -16 -37.5t-38 -15.5t-37.5 15.5t-15.5 37.5v390q0 21 15.5 36.5t39.5 15.5q21 0 36.5 -15.5t15.5 -36.5v-390zM245 578q0 -11 -8 -20t-21 -9t-22 11l-73 92l-72 -92q-8 -10 -21 -10q-12 0 -21 8t-9 19q0 8 5 16l49 76q24 37 70 37q42 0 68 -37l51 -76
q4 -7 4 -15z" />
    <glyph glyph-name="idieresis" unicode="&#xef;" horiz-adv-x="242" 
d="M76 608q0 -25 -17 -42.5t-41 -17.5q-25 0 -42.5 17.5t-17.5 42.5t17.5 42t42.5 17q24 0 41 -17t17 -42zM287 608q0 -25 -18 -42.5t-42 -17.5q-25 0 -42.5 17.5t-17.5 42.5t17.5 42t42.5 17q24 0 42 -17.5t18 -41.5zM175 47q0 -22 -16 -37.5t-38 -15.5t-37.5 15.5
t-15.5 37.5v390q0 21 15.5 36.5t39.5 15.5q21 0 36.5 -15.5t15.5 -36.5v-390z" />
    <glyph glyph-name="eth" unicode="&#xf0;" horiz-adv-x="573" 
d="M536 250q0 -117 -67 -189.5t-182 -72.5q-112 0 -180.5 67.5t-68.5 172.5q0 104 61.5 171.5t154.5 67.5q99 0 159 -91q-41 84 -158 167l-123 -54q-6 -2 -11 -2q-11 0 -19.5 8t-8.5 21q0 20 17 26l89 40q-49 27 -49 59q1 22 16.5 37t36.5 15q6 0 13.5 -2t16 -6.5t15.5 -9
t17 -11.5t16 -11.5t16 -12.5t13 -10l84 37q6 2 10 2q11 0 19.5 -7.5t8.5 -20.5q0 -19 -16 -25l-57 -26q177 -155 177 -340zM424 228q0 61 -37 102.5t-100 41.5q-64 0 -101 -41.5t-37 -102.5t37 -103t101 -42t100.5 42t36.5 103z" />
    <glyph glyph-name="ntilde" unicode="&#xf1;" 
d="M501 47q0 -22 -16 -37.5t-38 -15.5t-37.5 15.5t-15.5 37.5v254q0 99 -97 99q-38 0 -70.5 -18.5t-51.5 -45.5v-289q0 -22 -16 -37.5t-38 -15.5t-37.5 15.5t-15.5 37.5v390q0 21 15.5 36.5t39.5 15.5q21 0 36.5 -15.5t15.5 -36.5v-20q27 32 72 55t98 23q77 0 116.5 -40.5
t39.5 -114.5v-293zM444 664q-2 -42 -27 -76t-75 -34q-23 0 -41.5 12t-28 26.5t-22.5 26.5t-27 12q-31 0 -38 -47q-2 -12 -12 -20t-22 -8q-11 0 -18 8t-7 19q0 41 26.5 76t75.5 35q23 0 41.5 -12t28 -26.5t22.5 -26.5t26 -12q30 0 39 47q2 12 11.5 20t21.5 8t19 -8t7 -20z
" />
    <glyph glyph-name="ograve" unicode="&#xf2;" horiz-adv-x="573" 
d="M536 242q0 -108 -68 -181t-181 -73t-181 73t-68 181q0 107 68 180t181 73t181 -73t68 -180zM424 242q0 66 -37 112t-100 46q-64 0 -101 -46t-37 -112q0 -67 37 -113t101 -46q63 0 100 46t37 113zM317 578q0 -11 -8.5 -19.5t-19.5 -8.5q-9 0 -18 7l-106 92q-10 9 -10 23
q0 13 10 23.5t24 10.5q12 0 24 -10l96 -99q8 -8 8 -19z" />
    <glyph glyph-name="oacute" unicode="&#xf3;" horiz-adv-x="573" 
d="M536 242q0 -108 -68 -181t-181 -73t-181 73t-68 181q0 107 68 180t181 73t181 -73t68 -180zM424 242q0 66 -37 112t-100 46q-64 0 -101 -46t-37 -112q0 -67 37 -113t101 -46q63 0 100 46t37 113zM420 672q0 -14 -11 -23l-105 -92q-10 -7 -18 -7q-11 0 -19.5 8t-8.5 20
t7 19l97 99q10 10 23 10t24 -10t11 -24z" />
    <glyph glyph-name="ocircumflex" unicode="&#xf4;" horiz-adv-x="573" 
d="M536 242q0 -108 -68 -181t-181 -73t-181 73t-68 181q0 107 68 180t181 73t181 -73t68 -180zM424 242q0 66 -37 112t-100 46q-64 0 -101 -46t-37 -112q0 -67 37 -113t101 -46q63 0 100 46t37 113zM410 578q0 -11 -8 -20t-21 -9t-22 11l-73 92l-72 -92q-8 -10 -21 -10
q-12 0 -21 8t-9 19q0 8 5 16l49 76q24 37 70 37q42 0 68 -37l51 -76q4 -7 4 -15z" />
    <glyph glyph-name="otilde" unicode="&#xf5;" horiz-adv-x="573" 
d="M536 242q0 -108 -68 -181t-181 -73t-181 73t-68 181q0 107 68 180t181 73t181 -73t68 -180zM424 242q0 66 -37 112t-100 46q-64 0 -101 -46t-37 -112q0 -67 37 -113t101 -46q63 0 100 46t37 113zM446 664q-2 -42 -27 -76t-75 -34q-23 0 -41.5 12t-28 26.5t-22.5 26.5
t-27 12q-31 0 -38 -47q-2 -12 -12 -20t-22 -8q-11 0 -18 8t-7 19q0 41 26.5 76t75.5 35q23 0 41.5 -12t28 -26.5t22.5 -26.5t26 -12q30 0 39 47q2 12 11.5 20t21.5 8t19 -8t7 -20z" />
    <glyph glyph-name="odieresis" unicode="&#xf6;" horiz-adv-x="573" 
d="M536 242q0 -108 -68 -181t-181 -73t-181 73t-68 181q0 107 68 180t181 73t181 -73t68 -180zM424 242q0 66 -37 112t-100 46q-64 0 -101 -46t-37 -112q0 -67 37 -113t101 -46q63 0 100 46t37 113zM241 608q0 -25 -17 -42.5t-41 -17.5q-25 0 -42.5 17.5t-17.5 42.5t17.5 42
t42.5 17q24 0 41 -17t17 -42zM452 608q0 -25 -18 -42.5t-42 -17.5q-25 0 -42.5 17.5t-17.5 42.5t17.5 42t42.5 17q24 0 42 -17.5t18 -41.5z" />
    <glyph glyph-name="divide" unicode="&#xf7;" horiz-adv-x="511" 
d="M255 574q23 0 39.5 -16t16.5 -38q0 -23 -16.5 -39.5t-39.5 -16.5t-39 16.5t-16 39.5t16 38.5t39 15.5zM486 339q0 -16 -9.5 -26t-23.5 -10h-394q-14 0 -24 10t-10 26q0 14 10 23.5t24 9.5h394q13 0 23 -10t10 -23zM311 152q0 -23 -16.5 -39t-39.5 -16t-39 16t-16 39
t16 39t39 16t39.5 -16t16.5 -39z" />
    <glyph glyph-name="oslash" unicode="&#xf8;" horiz-adv-x="573" 
d="M143 30l-25 -30q-8 -9 -19 -9t-19 8t-8 19q0 10 6 16l25 31q-65 71 -65 177q0 107 68 180t181 73q80 0 139 -39l22 26q6 9 18 9q11 0 20 -8t9 -18q0 -7 -6 -17l-22 -26q69 -71 69 -180q0 -108 -68 -181t-181 -73q-85 0 -144 42zM208 108q33 -25 79 -25q63 0 100 46
t37 113q0 54 -26 97zM287 400q-64 0 -101 -46t-37 -112q0 -54 24 -93l188 229q-33 22 -74 22z" />
    <glyph glyph-name="ugrave" unicode="&#xf9;" 
d="M501 47q0 -22 -16 -37.5t-38 -15.5t-37.5 15.5t-15.5 37.5v17q-68 -76 -171 -76q-155 0 -155 153v296q0 21 15.5 36.5t39.5 15.5q21 0 36.5 -15.5t15.5 -36.5v-257q0 -53 24.5 -75t71.5 -22q37 0 69.5 18t53.5 44v292q0 21 15.5 36.5t39.5 15.5q21 0 36.5 -15.5
t15.5 -36.5v-390zM314 578q0 -11 -8.5 -19.5t-19.5 -8.5q-9 0 -18 7l-106 92q-10 9 -10 23q0 13 10 23.5t24 10.5q12 0 24 -10l96 -99q8 -8 8 -19z" />
    <glyph glyph-name="uacute" unicode="&#xfa;" 
d="M501 47q0 -22 -16 -37.5t-38 -15.5t-37.5 15.5t-15.5 37.5v17q-68 -76 -171 -76q-155 0 -155 153v296q0 21 15.5 36.5t39.5 15.5q21 0 36.5 -15.5t15.5 -36.5v-257q0 -53 24.5 -75t71.5 -22q37 0 69.5 18t53.5 44v292q0 21 15.5 36.5t39.5 15.5q21 0 36.5 -15.5
t15.5 -36.5v-390zM416 672q0 -14 -11 -23l-105 -92q-10 -7 -18 -7q-11 0 -19.5 8t-8.5 20t7 19l97 99q10 10 23 10t24 -10t11 -24z" />
    <glyph glyph-name="ucircumflex" unicode="&#xfb;" 
d="M501 47q0 -22 -16 -37.5t-38 -15.5t-37.5 15.5t-15.5 37.5v17q-68 -76 -171 -76q-155 0 -155 153v296q0 21 15.5 36.5t39.5 15.5q21 0 36.5 -15.5t15.5 -36.5v-257q0 -53 24.5 -75t71.5 -22q37 0 69.5 18t53.5 44v292q0 21 15.5 36.5t39.5 15.5q21 0 36.5 -15.5
t15.5 -36.5v-390zM407 578q0 -11 -8 -20t-21 -9t-22 11l-73 92l-72 -92q-8 -10 -21 -10q-12 0 -21 8t-9 19q0 8 5 16l49 76q24 37 70 37q42 0 68 -37l51 -76q4 -7 4 -15z" />
    <glyph glyph-name="udieresis" unicode="&#xfc;" 
d="M501 47q0 -22 -16 -37.5t-38 -15.5t-37.5 15.5t-15.5 37.5v17q-68 -76 -171 -76q-155 0 -155 153v296q0 21 15.5 36.5t39.5 15.5q21 0 36.5 -15.5t15.5 -36.5v-257q0 -53 24.5 -75t71.5 -22q37 0 69.5 18t53.5 44v292q0 21 15.5 36.5t39.5 15.5q21 0 36.5 -15.5
t15.5 -36.5v-390zM239 608q0 -25 -17 -42.5t-41 -17.5q-25 0 -42.5 17.5t-17.5 42.5t17.5 42t42.5 17q24 0 41 -17t17 -42zM450 608q0 -25 -18 -42.5t-42 -17.5q-25 0 -42.5 17.5t-17.5 42.5t17.5 42t42.5 17q24 0 42 -17.5t18 -41.5z" />
    <glyph glyph-name="yacute" unicode="&#xfd;" horiz-adv-x="504" 
d="M484 437q0 -12 -4 -20l-206 -503q-45 -110 -157 -110q-30 0 -50.5 12t-20.5 36q0 20 14.5 34t35.5 14h10q10 -1 10 0q40 3 56 40l24 54l-173 424q-3 9 -3 18q0 21 15 37t39 16q36 0 50 -35l128 -330l128 330q12 35 51 35q23 0 38 -16t15 -36zM384 672q0 -14 -11 -23
l-105 -92q-10 -7 -18 -7q-11 0 -19.5 8t-8.5 20t7 19l97 99q10 10 23 10t24 -10t11 -24z" />
    <glyph glyph-name="thorn" unicode="&#xfe;" horiz-adv-x="579" 
d="M543 242q0 -117 -59.5 -185.5t-154.5 -68.5q-94 0 -154 78v-202q0 -21 -16 -36.5t-38 -15.5t-37.5 15.5t-15.5 36.5v755q0 21 15.5 36.5t39.5 15.5q21 0 36.5 -15.5t15.5 -36.5v-201q58 77 154 77q95 0 154.5 -68t59.5 -185zM432 242q0 70 -37 114t-98 44
q-35 0 -69.5 -18.5t-52.5 -45.5v-189q18 -26 52.5 -45t69.5 -19q61 0 98 44.5t37 114.5z" />
    <glyph glyph-name="ydieresis" unicode="&#xff;" horiz-adv-x="504" 
d="M484 437q0 -12 -4 -20l-206 -503q-45 -110 -157 -110q-30 0 -50.5 12t-20.5 36q0 20 14.5 34t35.5 14h10q10 -1 10 0q40 3 56 40l24 54l-173 424q-3 9 -3 18q0 21 15 37t39 16q36 0 50 -35l128 -330l128 330q12 35 51 35q23 0 38 -16t15 -36zM206 608q0 -25 -17 -42.5
t-41 -17.5q-25 0 -42.5 17.5t-17.5 42.5t17.5 42t42.5 17q24 0 41 -17t17 -42zM417 608q0 -25 -18 -42.5t-42 -17.5q-25 0 -42.5 17.5t-17.5 42.5t17.5 42t42.5 17q24 0 42 -17.5t18 -41.5z" />
    <glyph glyph-name="Amacron" unicode="&#x100;" horiz-adv-x="674" 
d="M646 58q0 -25 -18 -44.5t-46 -19.5q-42 0 -58 39l-35 93h-304l-36 -93q-15 -39 -58 -39q-28 0 -46 19t-18 45q0 13 5 22l208 530q11 28 36.5 45.5t56.5 17.5q32 2 60 -15.5t40 -47.5l209 -530q4 -14 4 -22zM455 232l-118 315l-119 -315h237zM518 765q0 -13 -9 -22.5
t-21 -9.5h-303q-12 0 -21 9.5t-9 22.5t9 22t21 9h303q12 0 21 -9t9 -22z" />
    <glyph glyph-name="amacron" unicode="&#x101;" horiz-adv-x="537" 
d="M469 47q0 -22 -15.5 -37.5t-37.5 -15.5h-6q-15 0 -31.5 12.5t-16.5 36.5v9q-55 -64 -155 -64q-66 0 -117.5 42.5t-51.5 117.5q0 77 51 117t118 40q104 0 155 -62v74q0 41 -31 65t-81 24q-65 0 -115 -37q-11 -7 -22 -7q-16 0 -29 11.5t-13 30.5q0 13 8 23q26 33 81 50.5
t107 17.5q89 0 145.5 -42t56.5 -133v-273zM362 111v72q-36 48 -114 48q-44 0 -72.5 -23t-28.5 -62q0 -38 28.5 -61t72.5 -23q78 0 114 49zM449 598q0 -13 -9 -22.5t-21 -9.5h-303q-12 0 -21 9.5t-9 22.5t9 22t21 9h303q12 0 21 -9t9 -22z" />
    <glyph glyph-name="Abreve" unicode="&#x102;" horiz-adv-x="674" 
d="M646 58q0 -25 -18 -44.5t-46 -19.5q-42 0 -58 39l-35 93h-304l-36 -93q-15 -39 -58 -39q-28 0 -46 19t-18 45q0 13 5 22l208 530q11 28 36.5 45.5t56.5 17.5q32 2 60 -15.5t40 -47.5l209 -530q4 -14 4 -22zM455 232l-118 315l-119 -315h237zM500 784q0 -11 -8 -19
q-64 -64 -155 -64t-155 64q-8 7 -8 19t9 22t22 10q15 0 25 -10q45 -42 107 -42q63 0 106 43q11 9 25 9q13 0 22.5 -9.5t9.5 -22.5z" />
    <glyph glyph-name="abreve" unicode="&#x103;" horiz-adv-x="537" 
d="M469 47q0 -22 -15.5 -37.5t-37.5 -15.5h-6q-15 0 -31.5 12.5t-16.5 36.5v9q-55 -64 -155 -64q-66 0 -117.5 42.5t-51.5 117.5q0 77 51 117t118 40q104 0 155 -62v74q0 41 -31 65t-81 24q-65 0 -115 -37q-11 -7 -22 -7q-16 0 -29 11.5t-13 30.5q0 13 8 23q26 33 81 50.5
t107 17.5q89 0 145.5 -42t56.5 -133v-273zM362 111v72q-36 48 -114 48q-44 0 -72.5 -23t-28.5 -62q0 -38 28.5 -61t72.5 -23q78 0 114 49zM431 617q0 -11 -8 -19q-64 -64 -155 -64t-155 64q-8 7 -8 19t9.5 22t21.5 10q15 0 25 -10q45 -42 107 -42q63 0 106 43q10 9 25 9
q13 0 22.5 -9.5t9.5 -22.5z" />
    <glyph glyph-name="Aogonek" unicode="&#x104;" horiz-adv-x="674" 
d="M725 -133q0 -21 -28 -37t-57 -16q-41 0 -68 22t-27 67q0 55 45 95q-9 -2 -13 -1q-18 0 -32.5 10t-20.5 27l-35 92h-304l-36 -93q-15 -39 -58 -39q-28 0 -46 19t-18 45q0 13 5 22l208 530q11 28 36.5 45.5t56.5 17.5q32 2 60 -15.5t40 -47.5l211 -535q8 -22 8 -35
q0 -24 -27 -65q-24 -34 -24 -68q0 -45 39 -45q19 0 43 22q6 6 17 6t18 -6.5t7 -16.5zM455 232l-118 315l-119 -315h237z" />
    <glyph glyph-name="aogonek" unicode="&#x105;" horiz-adv-x="537" 
d="M522 -133q0 -21 -28 -37t-57 -16q-42 0 -69 22t-27 67q0 55 48 97q-27 13 -27 52q-55 -64 -155 -64q-66 0 -117.5 42.5t-51.5 117.5q0 77 51 117t118 40q104 0 155 -62v74q0 41 -31 65t-81 24q-65 0 -115 -37q-11 -7 -22 -7q-16 0 -29 11.5t-13 30.5q0 13 8 23
q26 33 81 50.5t107 17.5q89 0 145.5 -42t56.5 -133v-273q0 -14 -9 -30q-5 -6 -20.5 -23t-22 -26t-13.5 -26t-7 -35q0 -45 40 -45q18 0 42 22q7 6 17 6q11 0 18.5 -6.5t7.5 -16.5zM362 111v72q-36 48 -114 48q-44 0 -72.5 -23t-28.5 -62q0 -38 28.5 -61t72.5 -23q78 0 114 49
z" />
    <glyph glyph-name="Cacute" unicode="&#x106;" horiz-adv-x="683" 
d="M391 678q144 0 235 -104q13 -16 13 -35q0 -23 -17 -39t-40 -16q-25 0 -43 19q-61 69 -148 69q-99 0 -163.5 -67.5t-64.5 -171.5q0 -103 65 -171t163 -68q89 0 148 68q19 19 44 19q23 0 39 -16t16 -38q0 -20 -12 -35q-91 -104 -235 -104q-150 0 -250 96.5t-100 248.5
t100 248.5t250 96.5zM524 839q0 -14 -11 -23l-105 -92q-10 -7 -18 -7q-11 0 -19.5 8t-8.5 20t7 19l97 99q10 10 23 10t24 -10t11 -24z" />
    <glyph glyph-name="cacute" unicode="&#x107;" horiz-adv-x="497" 
d="M459 75q0 -21 -16 -33q-59 -54 -155 -54q-110 0 -180 71.5t-70 182.5q0 110 70 181.5t180 71.5q55 0 99 -17.5t64 -47.5q7 -8 7 -22q0 -20 -15 -33t-35 -13q-18 0 -31 10q-37 28 -84 28q-65 0 -105 -44t-40 -114t40 -114.5t105 -44.5q46 0 84 29q14 10 31 10
q20 0 35.5 -13.5t15.5 -33.5zM420 672q0 -14 -11 -23l-105 -92q-10 -7 -18 -7q-11 0 -19.5 8t-8.5 20t7 19l97 99q10 10 23 10t24 -10t11 -24z" />
    <glyph glyph-name="Ccaron" unicode="&#x10c;" horiz-adv-x="683" 
d="M391 678q144 0 235 -104q13 -16 13 -35q0 -23 -17 -39t-40 -16q-25 0 -43 19q-61 69 -148 69q-99 0 -163.5 -67.5t-64.5 -171.5q0 -103 65 -171t163 -68q89 0 148 68q19 19 44 19q23 0 39 -16t16 -38q0 -20 -12 -35q-91 -104 -235 -104q-150 0 -250 96.5t-100 248.5
t100 248.5t250 96.5zM516 844q0 -9 -4 -14l-51 -77q-27 -37 -70 -37t-68 37l-49 77q-5 7 -5 14q0 11 8 19.5t21 8.5q15 0 22 -10l72 -91l73 91q9 10 21 10t21 -8t9 -20z" />
    <glyph glyph-name="ccaron" unicode="&#x10d;" horiz-adv-x="497" 
d="M459 75q0 -21 -16 -33q-59 -54 -155 -54q-110 0 -180 71.5t-70 182.5q0 110 70 181.5t180 71.5q55 0 99 -17.5t64 -47.5q7 -8 7 -22q0 -20 -15 -33t-35 -13q-18 0 -31 10q-37 28 -84 28q-65 0 -105 -44t-40 -114t40 -114.5t105 -44.5q46 0 84 29q14 10 31 10
q20 0 35.5 -13.5t15.5 -33.5zM416 677q0 -9 -4 -14l-51 -77q-27 -37 -70 -37t-68 37l-49 77q-5 7 -5 14q0 11 8 19.5t21 8.5q15 0 22 -10l72 -91l73 91q9 10 21 10t21 -8t9 -20z" />
    <glyph glyph-name="Dcaron" unicode="&#x10e;" horiz-adv-x="711" 
d="M670 333q0 -148 -97 -240.5t-253 -92.5h-177q-30 0 -51 21.5t-21 50.5v523q0 29 21 50.5t51 21.5h177q156 0 253 -93.5t97 -240.5zM547 333q0 100 -60 164.5t-167 64.5h-130v-457h130q105 0 166 65.5t61 162.5zM484 844q0 -9 -4 -14l-51 -77q-27 -37 -70 -37t-68 37
l-49 77q-5 7 -5 14q0 11 8 19.5t21 8.5q15 0 22 -10l72 -91l73 91q9 10 21 10t21 -8t9 -20z" />
    <glyph glyph-name="dcaron" unicode="&#x10f;" horiz-adv-x="672" 
d="M514 47q0 -22 -16 -37.5t-38 -15.5t-37.5 15.5t-15.5 37.5v19q-60 -78 -155 -78q-94 0 -154 68t-60 185q0 115 60 184.5t154 69.5t155 -78v203q0 22 15.5 37.5t39.5 15.5q21 0 36.5 -15.5t15.5 -37.5v-573zM407 146v190q-18 28 -52.5 46t-71.5 18q-61 0 -98 -44.5
t-37 -114.5t37 -114t98 -44q37 0 71.5 18t52.5 45zM677 604q0 -76 -62 -130q-8 -7 -20 -7q-9 0 -17 6l-1 1q-7 7 -7 15q0 6 5 13q41 46 45 71q-2 -2 -13 -2q-21 0 -35 15t-14 37q0 23 16 40t39 17q27 0 45.5 -20.5t18.5 -55.5z" />
    <glyph glyph-name="Dcroat" unicode="&#x110;" horiz-adv-x="737" 
d="M696 333q0 -148 -97 -240.5t-253 -92.5h-177q-30 0 -51 21.5t-21 50.5v213h-51q-18 0 -30.5 13.5t-12.5 32.5q0 17 12.5 30t30.5 13h51v221q0 29 21 50.5t51 21.5h177q156 0 253 -93t97 -241zM573 333q0 100 -60 164.5t-167 64.5h-130v-188h120q18 0 30.5 -13t12.5 -32
q0 -18 -12.5 -31t-30.5 -13h-120v-180h130q105 0 166 65.5t61 162.5z" />
    <glyph glyph-name="dcroat" unicode="&#x111;" horiz-adv-x="585" 
d="M582 561q0 -13 -9 -21.5t-21 -8.5h-38v-484q0 -22 -16 -37.5t-38 -15.5t-37.5 15.5t-15.5 37.5v19q-60 -78 -155 -78q-94 0 -154 68t-60 185q0 115 60 184.5t154 69.5t155 -78v114h-126q-12 0 -21 9t-9 23q0 13 9 21.5t21 8.5h126v27q0 22 15.5 37.5t39.5 15.5
q21 0 36.5 -15.5t15.5 -37.5v-27h38q12 0 21 -9t9 -23zM407 146v190q-18 28 -52.5 46t-71.5 18q-61 0 -98 -44.5t-37 -114.5t37 -114t98 -44q37 0 71.5 18t52.5 45z" />
    <glyph glyph-name="Emacron" unicode="&#x112;" horiz-adv-x="578" 
d="M535 54q0 -23 -15 -38.5t-36 -15.5h-341q-30 0 -51 21.5t-21 50.5v523q0 29 21 50.5t51 21.5h341q21 0 36 -15.5t15 -37.5t-15 -37t-36 -15h-294v-170h287q21 0 36 -15.5t15 -37.5t-15 -37t-36 -15h-287v-182h294q21 0 36 -15t15 -36zM480 765q0 -13 -9 -22.5t-21 -9.5
h-303q-12 0 -21 9.5t-9 22.5t9 22t21 9h303q12 0 21 -9t9 -22z" />
    <glyph glyph-name="emacron" unicode="&#x113;" horiz-adv-x="557" 
d="M520 259q0 -21 -15 -36.5t-37 -15.5h-318q6 -57 46.5 -95t105.5 -38q58 0 108 32q10 6 22 6q17 0 31 -12.5t14 -31.5q0 -37 -63.5 -58.5t-122.5 -21.5q-110 0 -181.5 70.5t-71.5 183.5q0 106 69.5 179.5t175.5 73.5q84 0 143 -46.5t82 -125.5q12 -40 12 -64zM417 281
q-2 49 -35.5 88.5t-98.5 39.5q-61 0 -95.5 -39t-38.5 -89h268zM464 598q0 -13 -9 -22.5t-21 -9.5h-303q-12 0 -21 9.5t-9 22.5t9 22t21 9h303q12 0 21 -9t9 -22z" />
    <glyph glyph-name="Edotaccent" unicode="&#x116;" horiz-adv-x="578" 
d="M535 54q0 -23 -15 -38.5t-36 -15.5h-341q-30 0 -51 21.5t-21 50.5v523q0 29 21 50.5t51 21.5h341q21 0 36 -15.5t15 -37.5t-15 -37t-36 -15h-294v-170h287q21 0 36 -15.5t15 -37.5t-15 -37t-36 -15h-287v-182h294q21 0 36 -15t15 -36zM361 775q0 -25 -17.5 -42.5
t-41.5 -17.5q-25 0 -42.5 17.5t-17.5 42.5q0 24 17.5 41.5t42.5 17.5q24 0 41.5 -17.5t17.5 -41.5z" />
    <glyph glyph-name="edotaccent" unicode="&#x117;" horiz-adv-x="557" 
d="M520 259q0 -21 -15 -36.5t-37 -15.5h-318q6 -57 46.5 -95t105.5 -38q58 0 108 32q10 6 22 6q17 0 31 -12.5t14 -31.5q0 -37 -63.5 -58.5t-122.5 -21.5q-110 0 -181.5 70.5t-71.5 183.5q0 106 69.5 179.5t175.5 73.5q84 0 143 -46.5t82 -125.5q12 -40 12 -64zM417 281
q-2 49 -35.5 88.5t-98.5 39.5q-61 0 -95.5 -39t-38.5 -89h268zM345 608q0 -25 -17.5 -42.5t-41.5 -17.5q-25 0 -42.5 17.5t-17.5 42.5q0 24 17.5 41.5t42.5 17.5q24 0 41.5 -17.5t17.5 -41.5z" />
    <glyph glyph-name="Eogonek" unicode="&#x118;" horiz-adv-x="578" 
d="M575 -133q0 -21 -28 -37t-57 -16q-41 0 -68 22t-27 67q0 57 48 97h-300q-30 0 -51 21.5t-21 50.5v523q0 29 21 50.5t51 21.5h341q21 0 36 -15.5t15 -37.5t-15 -37t-36 -15h-294v-170h287q21 0 36 -15.5t15 -37.5t-15 -37t-36 -15h-287v-182h294q21 0 36 -15t15 -36
q0 -27 -39 -62q-45 -41 -45 -85q0 -45 39 -45q19 0 43 22q6 6 17 6t18 -6.5t7 -16.5z" />
    <glyph glyph-name="eogonek" unicode="&#x119;" horiz-adv-x="557" 
d="M520 260q0 -21 -15.5 -37t-37.5 -16h-317q6 -57 46.5 -95t105.5 -38q58 0 108 32q10 6 22 6q17 0 31 -12.5t14 -31.5q0 -14 -9 -25.5t-27.5 -20t-29 -12.5t-29.5 -10q-29 -12 -50.5 -36.5t-21.5 -56.5q0 -45 39 -45q19 0 43 22q6 6 17 6t18 -6.5t7 -16.5q0 -21 -28 -37
t-57 -16q-41 0 -68.5 22.5t-27.5 66.5q0 46 34 85q-109 2 -179 71.5t-70 182.5q0 106 69.5 179.5t175.5 73.5q99 0 165.5 -66.5t71.5 -168.5zM417 281q-2 49 -35.5 88.5t-98.5 39.5q-61 0 -95.5 -39t-38.5 -89h268z" />
    <glyph glyph-name="Ecaron" unicode="&#x11a;" horiz-adv-x="578" 
d="M535 54q0 -23 -15 -38.5t-36 -15.5h-341q-30 0 -51 21.5t-21 50.5v523q0 29 21 50.5t51 21.5h341q21 0 36 -15.5t15 -37.5t-15 -37t-36 -15h-294v-170h287q21 0 36 -15.5t15 -37.5t-15 -37t-36 -15h-287v-182h294q21 0 36 -15t15 -36zM427 844q0 -9 -4 -14l-51 -77
q-27 -37 -70 -37t-68 37l-49 77q-5 7 -5 14q0 11 8 19.5t21 8.5q15 0 22 -10l72 -91l73 91q9 10 21 10t21 -8t9 -20z" />
    <glyph glyph-name="ecaron" unicode="&#x11b;" horiz-adv-x="557" 
d="M520 259q0 -21 -15 -36.5t-37 -15.5h-318q6 -57 46.5 -95t105.5 -38q58 0 108 32q10 6 22 6q17 0 31 -12.5t14 -31.5q0 -37 -63.5 -58.5t-122.5 -21.5q-110 0 -181.5 70.5t-71.5 183.5q0 106 69.5 179.5t175.5 73.5q84 0 143 -46.5t82 -125.5q12 -40 12 -64zM417 281
q-2 49 -35.5 88.5t-98.5 39.5q-61 0 -95.5 -39t-38.5 -89h268zM409 677q0 -9 -4 -14l-51 -77q-27 -37 -70 -37t-68 37l-49 77q-5 7 -5 14q0 11 8 19.5t21 8.5q15 0 22 -10l72 -91l73 91q9 10 21 10t21 -8t9 -20z" />
    <glyph glyph-name="uni0122" unicode="&#x122;" horiz-adv-x="717" 
d="M666 166q0 -54 -42.5 -96t-104.5 -62.5t-128 -20.5q-148 0 -249 96t-101 250t101 249.5t249 95.5q142 0 234 -95q15 -15 15 -38q0 -22 -16.5 -38t-39.5 -16t-40 17q-64 64 -153 64q-99 0 -163.5 -67.5t-64.5 -171.5q0 -103 65 -171t163 -68q47 0 89.5 17.5t66.5 41.5v101
h-151q-21 0 -36 15.5t-15 38.5q0 21 15 36t36 15h198q30 0 51 -21.5t21 -50.5v-121zM456 -138q0 -76 -62 -130q-8 -7 -20 -7q-10 0 -17 6l-1 1q-7 7 -7 15q0 6 5 13q41 46 45 71q-2 -2 -13 -2q-21 0 -35 15t-14 37q0 23 16 40t39 17q27 0 45.5 -20.5t18.5 -55.5z" />
    <glyph glyph-name="uni0123" unicode="&#x123;" horiz-adv-x="581" 
d="M290 541q-22 0 -40 17.5t-18 52.5q0 43 23 92.5t52 49.5q10 0 19 -6.5t9 -17.5q0 -7 -22 -34.5t-23 -42.5q23 0 40.5 -15.5t17.5 -38.5t-17 -40t-41 -17zM513 26q0 -63 -21.5 -108t-59 -69t-79 -34.5t-89.5 -10.5q-27 0 -58 4.5t-62.5 14t-52.5 27t-21 40.5q0 19 13.5 32
t32.5 13q13 0 24 -7q50 -36 124 -36q59 0 100.5 31t41.5 100v56q-61 -79 -154 -79q-95 0 -154.5 65.5t-59.5 181.5q0 115 59.5 181.5t154.5 66.5q93 0 154 -78v19q0 22 15.5 37.5t39.5 15.5q21 0 36.5 -15.5t15.5 -37.5v-410zM406 159v177q-17 27 -52 45.5t-71 18.5
q-61 0 -98 -42t-37 -111t37 -111t98 -42q36 0 70.5 18.5t52.5 46.5z" />
    <glyph glyph-name="Imacron" unicode="&#x12a;" horiz-adv-x="261" 
d="M190 53q0 -24 -18 -41.5t-43 -17.5q-24 0 -41 17.5t-17 41.5v562q0 24 17.5 41t42.5 17q24 0 41.5 -17.5t17.5 -40.5v-562zM313 765q0 -13 -9 -22.5t-21 -9.5h-303q-12 0 -21 9.5t-9 22.5t9 22t21 9h303q12 0 21 -9t9 -22z" />
    <glyph glyph-name="imacron" unicode="&#x12b;" horiz-adv-x="242" 
d="M304 598q0 -13 -9 -22.5t-21 -9.5h-303q-12 0 -21 9.5t-9 22.5t9 22t21 9h303q12 0 21 -9t9 -22zM175 47q0 -22 -16 -37.5t-38 -15.5t-37.5 15.5t-15.5 37.5v390q0 21 15.5 36.5t39.5 15.5q21 0 36.5 -15.5t15.5 -36.5v-390z" />
    <glyph glyph-name="Iogonek" unicode="&#x12e;" horiz-adv-x="261" 
d="M242 -133q0 -21 -28 -37t-57 -16q-41 0 -68 22t-27 67q0 55 47 96q-38 13 -38 54v562q0 24 17.5 41t42.5 17q24 0 41.5 -17.5t17.5 -40.5v-562q0 -23 -14 -40q-5 -7 -19.5 -23.5t-20.5 -25t-12 -24.5t-6 -33q0 -45 39 -45q19 0 43 22q6 6 17 6t18 -6.5t7 -16.5z" />
    <glyph glyph-name="iogonek" unicode="&#x12f;" horiz-adv-x="242" 
d="M121 673q27 0 46.5 -19t19.5 -46q0 -28 -19.5 -47t-46.5 -19t-46.5 19t-19.5 47q0 27 19.5 46t46.5 19zM227 -133q0 -21 -28 -37t-57 -16q-42 0 -69 22t-27 67q0 56 50 98q-28 12 -28 46v390q0 21 15.5 36.5t39.5 15.5q21 0 36.5 -15.5t15.5 -36.5v-390q0 -24 -36.5 -65
t-36.5 -75q0 -45 40 -45q14 0 31.5 14t28.5 14t18 -6.5t7 -16.5z" />
    <glyph glyph-name="dotlessi" unicode="&#x131;" horiz-adv-x="242" 
d="M175 47q0 -22 -16 -37.5t-38 -15.5t-37.5 15.5t-15.5 37.5v390q0 21 15.5 36.5t39.5 15.5q21 0 36.5 -15.5t15.5 -36.5v-390z" />
    <glyph glyph-name="uni0136" unicode="&#x136;" horiz-adv-x="632" 
d="M559 51q0 -22 -16.5 -39.5t-40.5 -17.5q-29 0 -45 22l-209 264l-58 -68v-159q0 -24 -18 -41.5t-43 -17.5q-24 0 -41 17.5t-17 41.5v562q0 24 17.5 41t42.5 17q24 0 41.5 -17.5t17.5 -40.5v-264l246 301q16 19 43 19q23 0 40 -16t17 -39q0 -20 -12 -34l-198 -230l221 -267
q12 -15 12 -34zM381 -138q0 -76 -62 -130q-8 -7 -20 -7q-9 0 -17 6l-1 1q-7 7 -7 15q0 6 5 13q41 46 45 71q-2 -2 -13 -2q-21 0 -35 15t-14 37q0 23 16 40t39 17q27 0 45.5 -20.5t18.5 -55.5z" />
    <glyph glyph-name="uni0137" unicode="&#x137;" horiz-adv-x="527" 
d="M472 48q0 -21 -15 -37.5t-38 -16.5q-29 0 -44 22l-134 182l-66 -69v-82q0 -22 -16 -37.5t-38 -15.5t-37.5 15.5t-15.5 37.5v574q0 21 15.5 36.5t39.5 15.5q21 0 36.5 -15.5t15.5 -36.5v-369l201 222q14 16 35 16q20 0 35.5 -15.5t15.5 -35.5q0 -17 -12 -32l-132 -143
l144 -186q10 -15 10 -30zM329 -138q0 -76 -62 -130q-8 -7 -20 -7q-9 0 -17 6l-1 1q-7 7 -7 15q0 6 5 13q41 46 45 71q-2 -2 -13 -2q-21 0 -35 15t-14 37q0 23 16 40t39 17q27 0 45.5 -20.5t18.5 -55.5z" />
    <glyph glyph-name="Lacute" unicode="&#x139;" horiz-adv-x="518" 
d="M489 54q0 -23 -15.5 -38.5t-36.5 -15.5h-294q-30 0 -51 21.5t-21 50.5v543q0 24 17.5 41t42.5 17q24 0 41.5 -17.5t17.5 -40.5v-510h247q21 0 36.5 -15t15.5 -36zM409 839q0 -14 -11 -23l-105 -92q-10 -7 -18 -7q-11 0 -19.5 8t-8.5 20t7 19l97 99q10 10 23 10t24 -10
t11 -24z" />
    <glyph glyph-name="lacute" unicode="&#x13a;" horiz-adv-x="242" 
d="M175 47q0 -22 -16 -37.5t-38 -15.5t-37.5 15.5t-15.5 37.5v574q0 21 15.5 36.5t39.5 15.5q21 0 36.5 -15.5t15.5 -36.5v-574zM254 839q0 -14 -11 -23l-105 -92q-10 -7 -18 -7q-11 0 -19.5 8t-8.5 20t7 19l97 99q10 10 23 10t24 -10t11 -24z" />
    <glyph glyph-name="uni013B" unicode="&#x13b;" horiz-adv-x="518" 
d="M489 54q0 -23 -15.5 -38.5t-36.5 -15.5h-294q-30 0 -51 21.5t-21 50.5v543q0 24 17.5 41t42.5 17q24 0 41.5 -17.5t17.5 -40.5v-510h247q21 0 36.5 -15t15.5 -36zM326 -138q0 -76 -62 -130q-8 -7 -20 -7q-10 0 -17 6l-1 1q-7 7 -7 15q0 6 5 13q41 46 45 71q-2 -2 -13 -2
q-21 0 -35 15t-14 37q0 23 16 40t39 17q27 0 45.5 -20.5t18.5 -55.5z" />
    <glyph glyph-name="uni013C" unicode="&#x13c;" horiz-adv-x="242" 
d="M175 47q0 -22 -16 -37.5t-38 -15.5t-37.5 15.5t-15.5 37.5v574q0 21 15.5 36.5t39.5 15.5q21 0 36.5 -15.5t15.5 -36.5v-574zM187 -138q0 -76 -62 -130q-8 -7 -20 -7q-9 0 -17 6l-1 1q-7 7 -7 15q0 6 5 13q41 46 45 71q-2 -2 -13 -2q-21 0 -35 15t-14 37q0 23 16 40
t39 17q27 0 45.5 -20.5t18.5 -55.5z" />
    <glyph glyph-name="Lcaron" unicode="&#x13d;" horiz-adv-x="518" 
d="M489 54q0 -23 -15.5 -38.5t-36.5 -15.5h-294q-30 0 -51 21.5t-21 50.5v543q0 24 17.5 41t42.5 17q24 0 41.5 -17.5t17.5 -40.5v-510h247q21 0 36.5 -15t15.5 -36zM395 604q0 -76 -62 -130q-8 -7 -20 -7q-9 0 -17 6l-1 1q-7 7 -7 15q0 6 5 13q41 46 45 71q-2 -2 -13 -2
q-21 0 -35 15t-14 37q0 23 16 40t39 17q27 0 45.5 -20.5t18.5 -55.5z" />
    <glyph glyph-name="lcaron" unicode="&#x13e;" horiz-adv-x="330" 
d="M175 47q0 -22 -16 -37.5t-38 -15.5t-37.5 15.5t-15.5 37.5v574q0 21 15.5 36.5t39.5 15.5q21 0 36.5 -15.5t15.5 -36.5v-574zM349 604q0 -76 -62 -130q-8 -7 -20 -7q-9 0 -17 6l-1 1q-7 7 -7 15q0 6 5 13q41 46 45 71q-2 -2 -13 -2q-21 0 -35 15t-14 37q0 23 16 40t39 17
q27 0 45.5 -20.5t18.5 -55.5z" />
    <glyph glyph-name="Lslash" unicode="&#x141;" horiz-adv-x="534" 
d="M505 52q0 -22 -15.5 -37t-36.5 -15h-294q-30 0 -51 21.5t-21 50.5v176l-24 -14q-10 -5 -19 -5q-17 0 -30 12.5t-13 31.5q0 25 21 37l65 37v268q0 24 17.5 41t42.5 17q24 0 41.5 -17.5t17.5 -40.5v-199l29 17q10 5 19 5q17 0 30.5 -12t13.5 -31q0 -26 -21 -37l-71 -41
v-212h247q21 0 36.5 -15.5t15.5 -37.5z" />
    <glyph glyph-name="lslash" unicode="&#x142;" horiz-adv-x="300" 
d="M298 399q0 -21 -17 -29l-77 -45v-278q0 -22 -16 -37.5t-38 -15.5t-37.5 15.5t-15.5 37.5v216l-45 -26q-10 -4 -16 -4q-13 0 -24 10t-11 25q0 21 17 30l79 46v277q0 21 16 36.5t39 15.5q21 0 36.5 -15.5t15.5 -36.5v-216l43 25q8 4 16 4q13 0 24 -10t11 -25z" />
    <glyph glyph-name="Nacute" unicode="&#x143;" horiz-adv-x="721" 
d="M650 65q0 -29 -21 -50t-52 -21q-38 0 -60 30l-327 448v-419q0 -24 -18 -41.5t-43 -17.5q-24 0 -41 17.5t-17 41.5v545q0 30 22.5 52.5t54.5 22.5q41 0 65 -32l318 -432v406q0 23 18 40.5t43 17.5q24 0 41 -17.5t17 -40.5v-550zM497 839q0 -14 -11 -23l-105 -92
q-11 -7 -18 -7q-11 0 -19.5 8t-8.5 20t7 19l97 99q10 10 23 10t24 -10t11 -24z" />
    <glyph glyph-name="nacute" unicode="&#x144;" 
d="M501 47q0 -22 -16 -37.5t-38 -15.5t-37.5 15.5t-15.5 37.5v254q0 99 -97 99q-38 0 -70.5 -18.5t-51.5 -45.5v-289q0 -22 -16 -37.5t-38 -15.5t-37.5 15.5t-15.5 37.5v390q0 21 15.5 36.5t39.5 15.5q21 0 36.5 -15.5t15.5 -36.5v-20q27 32 72 55t98 23q77 0 116.5 -40.5
t39.5 -114.5v-293zM417 672q0 -14 -11 -23l-105 -92q-10 -7 -18 -7q-11 0 -19.5 8t-8.5 20t7 19l97 99q10 10 23 10t24 -10t11 -24z" />
    <glyph glyph-name="uni0145" unicode="&#x145;" horiz-adv-x="721" 
d="M650 65q0 -29 -21 -50t-52 -21q-38 0 -60 30l-327 448v-419q0 -24 -18 -41.5t-43 -17.5q-24 0 -41 17.5t-17 41.5v545q0 30 22.5 52.5t54.5 22.5q41 0 65 -32l318 -432v406q0 23 18 40.5t43 17.5q24 0 41 -17.5t17 -40.5v-550zM426 -138q0 -76 -62 -130q-8 -7 -20 -7
q-10 0 -17 6l-1 1q-7 7 -7 15q0 6 5 13q41 46 45 71q-2 -2 -13 -2q-21 0 -35 15t-14 37q0 23 16 40t39 17q27 0 45.5 -20.5t18.5 -55.5z" />
    <glyph glyph-name="uni0146" unicode="&#x146;" 
d="M501 47q0 -22 -16 -37.5t-38 -15.5t-37.5 15.5t-15.5 37.5v254q0 99 -97 99q-38 0 -70.5 -18.5t-51.5 -45.5v-289q0 -22 -16 -37.5t-38 -15.5t-37.5 15.5t-15.5 37.5v390q0 21 15.5 36.5t39.5 15.5q21 0 36.5 -15.5t15.5 -36.5v-20q27 32 72 55t98 23q77 0 116.5 -40.5
t39.5 -114.5v-293zM347 -138q0 -76 -62 -130q-8 -7 -20 -7q-9 0 -17 6l-1 1q-7 7 -7 15q0 6 5 13q41 46 45 71q-2 -2 -13 -2q-21 0 -35 15t-14 37q0 23 16 40t39 17q27 0 45.5 -20.5t18.5 -55.5z" />
    <glyph glyph-name="Ncaron" unicode="&#x147;" horiz-adv-x="721" 
d="M650 65q0 -29 -21 -50t-52 -21q-38 0 -60 30l-327 448v-419q0 -24 -18 -41.5t-43 -17.5q-24 0 -41 17.5t-17 41.5v545q0 30 22.5 52.5t54.5 22.5q41 0 65 -32l318 -432v406q0 23 18 40.5t43 17.5q24 0 41 -17.5t17 -40.5v-550zM485 844q0 -9 -4 -14l-51 -77
q-27 -37 -70 -37t-68 37l-49 77q-5 7 -5 14q0 11 8 19.5t21 8.5q15 0 22 -10l72 -91l73 91q9 10 21 10t21 -8t9 -20z" />
    <glyph glyph-name="ncaron" unicode="&#x148;" 
d="M501 47q0 -22 -16 -37.5t-38 -15.5t-37.5 15.5t-15.5 37.5v254q0 99 -97 99q-38 0 -70.5 -18.5t-51.5 -45.5v-289q0 -22 -16 -37.5t-38 -15.5t-37.5 15.5t-15.5 37.5v390q0 21 15.5 36.5t39.5 15.5q21 0 36.5 -15.5t15.5 -36.5v-20q27 32 72 55t98 23q77 0 116.5 -40.5
t39.5 -114.5v-293zM411 677q0 -9 -4 -14l-51 -77q-27 -37 -70 -37t-68 37l-49 77q-5 7 -5 14q0 11 8 19.5t21 8.5q15 0 22 -10l72 -91l73 91q9 10 21 10t21 -8t9 -20z" />
    <glyph glyph-name="Omacron" unicode="&#x14c;" horiz-adv-x="765" 
d="M724 333q0 -150 -96 -247.5t-246 -97.5q-149 0 -245 97.5t-96 247.5t96 247.5t245 97.5q150 0 246 -97.5t96 -247.5zM601 333q0 104 -60.5 171.5t-158.5 67.5t-158.5 -67.5t-60.5 -171.5t60.5 -171.5t158.5 -67.5t158.5 67.5t60.5 171.5zM563 765q0 -13 -9 -22.5
t-21 -9.5h-303q-12 0 -21 9.5t-9 22.5t9 22t21 9h303q12 0 21 -9t9 -22z" />
    <glyph glyph-name="omacron" unicode="&#x14d;" horiz-adv-x="573" 
d="M536 242q0 -108 -68 -181t-181 -73t-181 73t-68 181q0 107 68 180t181 73t181 -73t68 -180zM424 242q0 66 -37 112t-100 46q-64 0 -101 -46t-37 -112q0 -67 37 -113t101 -46q63 0 100 46t37 113zM468 598q0 -13 -9 -22.5t-21 -9.5h-303q-12 0 -21 9.5t-9 22.5t9 22t21 9
h303q12 0 21 -9t9 -22z" />
    <glyph glyph-name="Ohungarumlaut" unicode="&#x150;" horiz-adv-x="765" 
d="M724 333q0 -150 -96 -247.5t-246 -97.5q-149 0 -245 97.5t-96 247.5t96 247.5t245 97.5q150 0 246 -97.5t96 -247.5zM601 333q0 104 -60.5 171.5t-158.5 67.5t-158.5 -67.5t-60.5 -171.5t60.5 -171.5t158.5 -67.5t158.5 67.5t60.5 171.5zM412 838q0 -12 -6 -19l-74 -92
q-7 -10 -21 -10q-11 0 -19.5 8t-8.5 19q0 7 3 13l62 99q9 16 30 16q15 0 24.5 -10.5t9.5 -23.5zM559 838q0 -12 -7 -19l-73 -92q-9 -10 -22 -10q-11 0 -20 7.5t-9 18.5q0 6 4 14l63 99q9 16 29 16q16 0 25.5 -10t9.5 -24z" />
    <glyph glyph-name="ohungarumlaut" unicode="&#x151;" horiz-adv-x="573" 
d="M536 242q0 -108 -68 -181t-181 -73t-181 73t-68 181q0 107 68 180t181 73t181 -73t68 -180zM424 242q0 66 -37 112t-100 46q-64 0 -101 -46t-37 -112q0 -67 37 -113t101 -46q63 0 100 46t37 113zM316 671q0 -11 -6 -19l-74 -92q-7 -10 -21 -10q-11 0 -19.5 8t-8.5 19
q0 7 3 13l62 99q9 16 30 16q15 0 24.5 -10.5t9.5 -23.5zM463 671q0 -12 -7 -19l-73 -92q-9 -10 -22 -10q-11 0 -20 7.5t-9 18.5q0 6 4 14l63 99q9 16 29 16q16 0 25.5 -10t9.5 -24z" />
    <glyph glyph-name="OE" unicode="&#x152;" horiz-adv-x="1092" 
d="M1051 54q0 -23 -15.5 -38.5t-36.5 -15.5h-343q-35 0 -53.5 27t-16.5 67q-34 -51 -93 -78.5t-122 -27.5q-145 0 -237.5 97.5t-92.5 247.5t92.5 247t237.5 97q64 0 122.5 -27t92.5 -78q-2 41 17 68t54 27h342q21 0 36.5 -15.5t15.5 -37.5t-15.5 -37t-36.5 -15h-293v-170
h286q21 0 36.5 -15.5t15.5 -37.5t-15.5 -37t-36.5 -15h-286v-182h293q21 0 36.5 -15t15.5 -36zM586 227v212q-26 65 -78.5 98.5t-121.5 33.5q-101 0 -162 -67t-61 -171t61 -171.5t162 -67.5q68 0 121 34.5t79 98.5z" />
    <glyph glyph-name="oe" unicode="&#x153;" horiz-adv-x="943" 
d="M905 260q0 -22 -15 -37.5t-37 -15.5h-316q6 -56 46.5 -94.5t105.5 -38.5q57 0 108 31q11 6 22 6q17 0 30.5 -12t13.5 -31q0 -14 -9 -25q-26 -27 -76.5 -41t-99.5 -14q-129 0 -199 119q-70 -119 -192 -119q-113 0 -181 73t-68 181q0 107 68 180t181 73q121 0 193 -120
q66 120 190 120q84 0 142.5 -46t81.5 -126q11 -40 11 -63zM804 281q-2 49 -36 88.5t-99 39.5q-61 0 -95.5 -39t-38.5 -89h269zM424 242q0 68 -37.5 113t-99.5 45t-100 -45t-38 -113q0 -69 38 -114.5t100 -45.5t99.5 45.5t37.5 114.5z" />
    <glyph glyph-name="Racute" unicode="&#x154;" horiz-adv-x="630" 
d="M584 457q0 -83 -45.5 -134t-110.5 -62l111 -180q8 -14 8 -29q0 -22 -17 -40t-42 -18q-33 0 -50 29l-133 225h-115v-195q0 -24 -18 -41.5t-43 -17.5q-24 0 -41 17.5t-17 41.5v542q0 29 21 50.5t51 21.5h223q98 0 158 -58t60 -152zM349 562h-159v-209h159q49 0 81 28.5
t32 75.5t-32 76t-81 29zM455 839q0 -14 -11 -23l-105 -92q-11 -7 -18 -7q-11 0 -19.5 8t-8.5 20t7 19l97 99q10 10 23 10t24 -10t11 -24z" />
    <glyph glyph-name="racute" unicode="&#x155;" horiz-adv-x="348" 
d="M337 443q0 -23 -14.5 -38t-37.5 -18q-73 -7 -110 -59v-281q0 -22 -15.5 -37.5t-37.5 -15.5h-2q-22 0 -37 15.5t-15 37.5v390q0 21 15.5 36.5t39.5 15.5q21 0 36.5 -15.5t15.5 -36.5v-25q57 77 115 77q21 0 34 -13t13 -33zM332 672q0 -14 -11 -23l-105 -92q-10 -7 -18 -7
q-11 0 -19.5 8t-8.5 20t7 19l97 99q10 10 23 10t24 -10t11 -24z" />
    <glyph glyph-name="uni0156" unicode="&#x156;" horiz-adv-x="630" 
d="M584 457q0 -83 -45.5 -134t-110.5 -62l111 -180q8 -14 8 -29q0 -22 -17 -40t-42 -18q-33 0 -50 29l-133 225h-115v-195q0 -24 -18 -41.5t-43 -17.5q-24 0 -41 17.5t-17 41.5v542q0 29 21 50.5t51 21.5h223q98 0 158 -58t60 -152zM349 562h-159v-209h159q49 0 81 28.5
t32 75.5t-32 76t-81 29zM382 -138q0 -76 -62 -130q-8 -7 -20 -7q-10 0 -17 6l-1 1q-7 7 -7 15q0 6 5 13q41 46 45 71q-2 -2 -13 -2q-21 0 -35 15t-14 37q0 23 16 40t39 17q27 0 45.5 -20.5t18.5 -55.5z" />
    <glyph glyph-name="uni0157" unicode="&#x157;" horiz-adv-x="348" 
d="M337 443q0 -23 -14.5 -38t-37.5 -18q-73 -7 -110 -59v-281q0 -22 -15.5 -37.5t-37.5 -15.5h-2q-22 0 -37 15.5t-15 37.5v390q0 21 15.5 36.5t39.5 15.5q21 0 36.5 -15.5t15.5 -36.5v-25q57 77 115 77q21 0 34 -13t13 -33zM239 -138q0 -76 -62 -130q-8 -7 -20 -7
q-9 0 -17 6l-1 1q-7 7 -7 15q0 6 5 13q41 46 45 71q-2 -2 -13 -2q-21 0 -35 15t-14 37q0 23 16 40t39 17q27 0 45.5 -20.5t18.5 -55.5z" />
    <glyph glyph-name="Rcaron" unicode="&#x158;" horiz-adv-x="630" 
d="M584 457q0 -83 -45.5 -134t-110.5 -62l111 -180q8 -14 8 -29q0 -22 -17 -40t-42 -18q-33 0 -50 29l-133 225h-115v-195q0 -24 -18 -41.5t-43 -17.5q-24 0 -41 17.5t-17 41.5v542q0 29 21 50.5t51 21.5h223q98 0 158 -58t60 -152zM349 562h-159v-209h159q49 0 81 28.5
t32 75.5t-32 76t-81 29zM443 844q0 -9 -4 -14l-51 -77q-27 -37 -70 -37t-68 37l-49 77q-5 7 -5 14q0 11 8 19.5t21 8.5q15 0 22 -10l72 -91l73 91q9 10 21 10t21 -8t9 -20z" />
    <glyph glyph-name="rcaron" unicode="&#x159;" horiz-adv-x="348" 
d="M337 443q0 -23 -14.5 -38t-37.5 -18q-73 -7 -110 -59v-281q0 -22 -15.5 -37.5t-37.5 -15.5h-2q-22 0 -37 15.5t-15 37.5v390q0 21 15.5 36.5t39.5 15.5q21 0 36.5 -15.5t15.5 -36.5v-25q57 77 115 77q21 0 34 -13t13 -33zM324 677q0 -9 -4 -14l-51 -77q-27 -37 -70 -37
t-68 37l-49 77q-5 7 -5 14q0 11 8 19.5t21 8.5q15 0 22 -10l72 -91l73 91q9 10 21 10t21 -8t9 -20z" />
    <glyph glyph-name="Sacute" unicode="&#x15a;" horiz-adv-x="595" 
d="M558 195q0 -90 -65 -148.5t-193 -58.5q-76 0 -145 23t-102 62q-12 15 -12 33q0 23 17 40t40 17q19 0 32 -10q79 -60 175 -60q65 0 98.5 27t33.5 63q0 28 -21.5 47t-55.5 30t-75.5 20.5t-83 23.5t-75.5 34t-55.5 56.5t-21.5 86.5q0 85 67 140.5t176 55.5q64 0 128.5 -19.5
t95.5 -53.5q12 -14 12 -32q0 -23 -18 -39t-40 -16q-18 0 -32 10q-68 45 -156 45q-51 0 -81 -22.5t-30 -59.5q0 -25 21.5 -42t55.5 -27t75 -20t82.5 -24.5t75.5 -35.5t55.5 -58t21.5 -88zM429 839q0 -14 -11 -23l-105 -92q-10 -7 -18 -7q-11 0 -19.5 8t-8.5 20t7 19l97 99
q10 10 23 10t24 -10t11 -24z" />
    <glyph glyph-name="sacute" unicode="&#x15b;" horiz-adv-x="472" 
d="M435 140q0 -67 -53 -109.5t-148 -42.5q-54 0 -108 16.5t-81 46.5q-10 12 -10 26q0 18 14 31.5t32 13.5q14 0 24 -7q64 -43 133 -43q46 0 70 17.5t24 46.5q0 25 -30 39.5t-73 23t-86 21t-73 44.5t-30 84q0 62 51.5 104.5t140.5 42.5q51 0 99 -15.5t72 -42.5q9 -11 9 -24
q0 -17 -13 -29t-30 -12q-11 0 -22 6q-50 34 -115 34q-40 0 -64 -17t-24 -42q0 -23 30 -36t73 -21.5t85.5 -21.5t72.5 -47t30 -87zM367 672q0 -14 -11 -23l-105 -92q-10 -7 -18 -7q-11 0 -19.5 8t-8.5 20t7 19l97 99q10 10 23 10t24 -10t11 -24z" />
    <glyph glyph-name="Scedilla" unicode="&#x15e;" horiz-adv-x="595" 
d="M558 195q0 -88 -62 -146t-184 -61l-17 -41q16 11 37 11q28 0 47 -19t19 -50q0 -37 -31 -60t-77 -23q-38 0 -71 11.5t-33 32.5q0 10 7 17.5t18 7.5q6 0 10 -3q33 -18 66 -18q23 0 39 10t16 27q0 29 -32 29q-8 0 -21.5 -6.5t-21.5 -6.5q-12 0 -20 8.5t-8 18.5q0 2 2 10
l17 46q-63 5 -120 27.5t-85 56.5q-12 14 -12 32q0 23 17 40t40 17q19 0 32 -10q79 -60 175 -60q65 0 98.5 27t33.5 63q0 28 -21.5 47t-55.5 30t-75.5 20.5t-83 23.5t-75.5 34t-55.5 56.5t-21.5 86.5q0 85 67 140.5t176 55.5q64 0 128.5 -19.5t95.5 -53.5q12 -14 12 -32
q0 -23 -18 -39t-40 -16q-18 0 -32 10q-68 45 -156 45q-51 0 -81 -22.5t-30 -59.5q0 -25 21.5 -42t55.5 -27t75 -20t82.5 -24.5t75.5 -35.5t55.5 -58t21.5 -88z" />
    <glyph glyph-name="scedilla" unicode="&#x15f;" horiz-adv-x="472" 
d="M435 140q0 -63 -47.5 -105t-133.5 -46l-16 -42q16 11 36 11q29 0 48 -19t19 -50q0 -37 -31.5 -60t-76.5 -23q-38 0 -71.5 11.5t-33.5 32.5q0 10 7.5 17.5t18.5 7.5q4 0 10 -3q33 -18 65 -18q23 0 39.5 10t16.5 27q0 29 -32 29q-9 0 -22 -6.5t-21 -6.5q-12 0 -20 8.5
t-8 18.5q0 6 1 10l17 46q-112 10 -156 62q-9 13 -9 25q0 18 14 31.5t32 13.5q14 0 24 -7q64 -43 133 -43q46 0 70 17.5t24 46.5q0 25 -30 39.5t-73 23t-86 21t-73 44.5t-30 84q0 62 51.5 104.5t140.5 42.5q51 0 99 -15.5t72 -42.5q9 -11 9 -24q0 -17 -13 -29t-30 -12
q-11 0 -22 6q-50 34 -115 34q-40 0 -64 -17t-24 -42q0 -23 30 -36t73 -21.5t85.5 -21.5t72.5 -47t30 -87z" />
    <glyph glyph-name="Scaron" unicode="&#x160;" horiz-adv-x="595" 
d="M558 195q0 -90 -65 -148.5t-193 -58.5q-76 0 -145 23t-102 62q-12 15 -12 33q0 23 17 40t40 17q19 0 32 -10q79 -60 175 -60q65 0 98.5 27t33.5 63q0 28 -21.5 47t-55.5 30t-75.5 20.5t-83 23.5t-75.5 34t-55.5 56.5t-21.5 86.5q0 85 67 140.5t176 55.5q64 0 128.5 -19.5
t95.5 -53.5q12 -14 12 -32q0 -23 -18 -39t-40 -16q-18 0 -32 10q-68 45 -156 45q-51 0 -81 -22.5t-30 -59.5q0 -25 21.5 -42t55.5 -27t75 -20t82.5 -24.5t75.5 -35.5t55.5 -58t21.5 -88zM416 844q0 -9 -4 -14l-51 -77q-27 -37 -70 -37t-68 37l-49 77q-5 7 -5 14q0 11 8 19.5
t21 8.5q15 0 22 -10l72 -91l73 91q9 10 21 10t21 -8t9 -20z" />
    <glyph glyph-name="scaron" unicode="&#x161;" horiz-adv-x="472" 
d="M435 140q0 -67 -53 -109.5t-148 -42.5q-54 0 -108 16.5t-81 46.5q-10 12 -10 26q0 18 14 31.5t32 13.5q14 0 24 -7q64 -43 133 -43q46 0 70 17.5t24 46.5q0 25 -30 39.5t-73 23t-86 21t-73 44.5t-30 84q0 62 51.5 104.5t140.5 42.5q51 0 99 -15.5t72 -42.5q9 -11 9 -24
q0 -17 -13 -29t-30 -12q-11 0 -22 6q-50 34 -115 34q-40 0 -64 -17t-24 -42q0 -23 30 -36t73 -21.5t85.5 -21.5t72.5 -47t30 -87zM359 677q0 -9 -4 -14l-51 -77q-27 -37 -70 -37t-68 37l-49 77q-5 7 -5 14q0 11 8 19.5t21 8.5q15 0 22 -10l72 -91l73 91q9 10 21 10t21 -8
t9 -20z" />
    <glyph glyph-name="uni0162" unicode="&#x162;" horiz-adv-x="577" 
d="M556 614q0 -22 -15.5 -37t-36.5 -15h-155v-509q0 -24 -18 -41.5t-43 -17.5t-42 17.5t-17 41.5v509h-155q-22 0 -37 15.5t-15 38.5q0 21 15 36t37 15h430q21 0 36.5 -15.5t15.5 -37.5zM353 -138q0 -76 -62 -130q-8 -7 -20 -7q-9 0 -17 6l-1 1q-7 7 -7 15q0 6 5 13
q41 46 45 71q-2 -2 -13 -2q-21 0 -35 15t-14 37q0 23 16 40t39 17q27 0 45.5 -20.5t18.5 -55.5z" />
    <glyph glyph-name="uni0163" unicode="&#x163;" horiz-adv-x="321" 
d="M311 40q0 -52 -97 -52q-61 0 -93 32t-32 93v276h-40q-19 0 -32.5 14t-13.5 34q0 19 13.5 32.5t32.5 13.5h40v85q0 22 16 37.5t39 15.5q22 0 37 -15.5t15 -37.5v-85h59q19 0 32 -14t13 -34q0 -19 -13 -32.5t-32 -13.5h-59v-249q0 -27 13 -42t33 -15q4 0 11.5 1.5t10.5 1.5
q21 0 34 -13t13 -33zM225 -138q0 -76 -62 -130q-8 -7 -20 -7q-9 0 -17 6l-1 1q-7 7 -7 15q0 6 5 13q41 46 45 71q-2 -2 -13 -2q-21 0 -35 15t-14 37q0 23 16 40t39 17q27 0 45.5 -20.5t18.5 -55.5z" />
    <glyph glyph-name="Tcaron" unicode="&#x164;" horiz-adv-x="577" 
d="M556 614q0 -22 -15.5 -37t-36.5 -15h-155v-509q0 -24 -18 -41.5t-43 -17.5t-42 17.5t-17 41.5v509h-155q-22 0 -37 15.5t-15 38.5q0 21 15 36t37 15h430q21 0 36.5 -15.5t15.5 -37.5zM414 844q0 -9 -4 -14l-51 -77q-27 -37 -70 -37t-68 37l-49 77q-5 7 -5 14q0 11 8 19.5
t21 8.5q15 0 22 -10l72 -91l73 91q9 10 21 10t21 -8t9 -20z" />
    <glyph glyph-name="tcaron" unicode="&#x165;" horiz-adv-x="354" 
d="M311 40q0 -52 -97 -52q-61 0 -93 32t-32 93v276h-40q-19 0 -32.5 14t-13.5 34q0 19 13.5 32.5t32.5 13.5h40v85q0 22 16 37.5t39 15.5q22 0 37 -15.5t15 -37.5v-85h59q19 0 32 -14t13 -34q0 -19 -13 -32.5t-32 -13.5h-59v-249q0 -27 13 -42t33 -15q4 0 11.5 1.5t10.5 1.5
q21 0 34 -13t13 -33zM372 680q0 -76 -62 -130q-8 -7 -20 -7q-10 0 -17 6l-1 1q-7 7 -7 15q0 6 5 13q41 46 45 71q-2 -2 -13 -2q-21 0 -35 15t-14 37q0 23 16 40t39 17q27 0 45.5 -20.5t18.5 -55.5z" />
    <glyph glyph-name="Umacron" unicode="&#x16a;" horiz-adv-x="720" 
d="M650 264q0 -128 -73.5 -202t-216.5 -74q-142 0 -215.5 74t-73.5 201v351q0 24 17.5 41.5t43.5 17.5q25 0 42 -17.5t17 -41.5v-347q0 -80 44 -126.5t125 -46.5q82 0 125.5 46.5t43.5 126.5v347q0 24 18 41.5t44 17.5q25 0 42 -17.5t17 -41.5v-350zM543 765q0 -13 -9 -22.5
t-21 -9.5h-303q-12 0 -21 9.5t-9 22.5t9 22t21 9h303q12 0 21 -9t9 -22z" />
    <glyph glyph-name="umacron" unicode="&#x16b;" 
d="M501 47q0 -22 -16 -37.5t-38 -15.5t-37.5 15.5t-15.5 37.5v17q-68 -76 -171 -76q-155 0 -155 153v296q0 21 15.5 36.5t39.5 15.5q21 0 36.5 -15.5t15.5 -36.5v-257q0 -53 24.5 -75t71.5 -22q37 0 69.5 18t53.5 44v292q0 21 15.5 36.5t39.5 15.5q21 0 36.5 -15.5
t15.5 -36.5v-390zM465 598q0 -13 -9 -22.5t-21 -9.5h-303q-12 0 -21 9.5t-9 22.5t9 22t21 9h303q12 0 21 -9t9 -22z" />
    <glyph glyph-name="Uring" unicode="&#x16e;" horiz-adv-x="720" 
d="M650 264q0 -128 -73.5 -202t-216.5 -74q-142 0 -215.5 74t-73.5 201v351q0 24 17.5 41.5t43.5 17.5q25 0 42 -17.5t17 -41.5v-347q0 -80 44 -126.5t125 -46.5q82 0 125.5 46.5t43.5 126.5v347q0 24 18 41.5t44 17.5q25 0 42 -17.5t17 -41.5v-350zM464 805
q0 -43 -29.5 -72.5t-72.5 -29.5q-42 0 -72 29.5t-30 72.5q0 42 30 72.5t72 30.5t72 -30.5t30 -72.5zM413 805q0 22 -14.5 37t-36.5 15q-20 0 -35.5 -15.5t-15.5 -36.5t15.5 -36.5t35.5 -15.5q21 0 36 15.5t15 36.5z" />
    <glyph glyph-name="uring" unicode="&#x16f;" 
d="M501 47q0 -22 -16 -37.5t-38 -15.5t-37.5 15.5t-15.5 37.5v17q-68 -76 -171 -76q-155 0 -155 153v296q0 21 15.5 36.5t39.5 15.5q21 0 36.5 -15.5t15.5 -36.5v-257q0 -53 24.5 -75t71.5 -22q37 0 69.5 18t53.5 44v292q0 21 15.5 36.5t39.5 15.5q21 0 36.5 -15.5
t15.5 -36.5v-390zM386 638q0 -43 -29.5 -72.5t-72.5 -29.5q-42 0 -72 29.5t-30 72.5q0 42 30 72.5t72 30.5t72 -30.5t30 -72.5zM335 638q0 22 -14.5 37t-36.5 15q-20 0 -35.5 -15t-15.5 -37q0 -21 15.5 -36.5t35.5 -15.5q21 0 36 15.5t15 36.5z" />
    <glyph glyph-name="Uhungarumlaut" unicode="&#x170;" horiz-adv-x="720" 
d="M650 264q0 -128 -73.5 -202t-216.5 -74q-142 0 -215.5 74t-73.5 201v351q0 24 17.5 41.5t43.5 17.5q25 0 42 -17.5t17 -41.5v-347q0 -80 44 -126.5t125 -46.5q82 0 125.5 46.5t43.5 126.5v347q0 24 18 41.5t44 17.5q25 0 42 -17.5t17 -41.5v-350zM391 838q0 -12 -6 -19
l-74 -92q-7 -10 -21 -10q-11 0 -19.5 8t-8.5 19q0 7 3 13l62 99q9 16 30 16q15 0 24.5 -10.5t9.5 -23.5zM538 838q0 -12 -7 -19l-73 -92q-9 -10 -22 -10q-11 0 -20 7.5t-9 18.5q0 6 4 14l63 99q9 16 29 16q16 0 25.5 -10t9.5 -24z" />
    <glyph glyph-name="uhungarumlaut" unicode="&#x171;" 
d="M501 47q0 -22 -16 -37.5t-38 -15.5t-37.5 15.5t-15.5 37.5v17q-68 -76 -171 -76q-155 0 -155 153v296q0 21 15.5 36.5t39.5 15.5q21 0 36.5 -15.5t15.5 -36.5v-257q0 -53 24.5 -75t71.5 -22q37 0 69.5 18t53.5 44v292q0 21 15.5 36.5t39.5 15.5q21 0 36.5 -15.5
t15.5 -36.5v-390zM313 671q0 -11 -6 -19l-74 -92q-7 -10 -21 -10q-11 0 -19.5 8t-8.5 19q0 7 3 13l62 99q9 16 30 16q15 0 24.5 -10.5t9.5 -23.5zM460 671q0 -12 -7 -19l-73 -92q-9 -10 -22 -10q-11 0 -20 7.5t-9 18.5q0 6 4 14l63 99q9 16 29 16q16 0 25.5 -10t9.5 -24z
" />
    <glyph glyph-name="Uogonek" unicode="&#x172;" horiz-adv-x="720" 
d="M650 264q0 -102 -47.5 -171t-140.5 -93q-72 -36 -72 -93q0 -45 40 -45q18 0 42 22q6 6 17 6t18.5 -6.5t7.5 -16.5q0 -21 -28 -37t-57 -16q-42 0 -69 22t-27 67t32 85q-145 -1 -220 73t-75 202v351q0 24 17.5 41.5t43.5 17.5q25 0 42 -17.5t17 -41.5v-347q0 -80 44 -126.5
t125 -46.5q82 0 125.5 46.5t43.5 126.5v347q0 24 18 41.5t44 17.5q25 0 42 -17.5t17 -41.5v-350z" />
    <glyph glyph-name="uogonek" unicode="&#x173;" 
d="M535 -133q0 -21 -28 -37t-57 -16q-42 0 -69 22t-27 67q0 62 56 104q-16 14 -16 42v15q-68 -76 -171 -76q-155 0 -155 153v296q0 21 15.5 36.5t39.5 15.5q21 0 36.5 -15.5t15.5 -36.5v-257q0 -53 24.5 -75t71.5 -22q37 0 69.5 18t53.5 44v292q0 21 15.5 36.5t39.5 15.5
q21 0 36.5 -15.5t15.5 -36.5v-388q0 -20 -14 -37.5t-31.5 -29.5t-31.5 -32t-14 -43q0 -45 40 -45q14 0 31 14t28 14t18.5 -6.5t7.5 -16.5z" />
    <glyph glyph-name="Ydieresis" unicode="&#x178;" horiz-adv-x="638" 
d="M592 617q0 -18 -8 -30l-205 -311v-223q0 -24 -17.5 -41.5t-42.5 -17.5t-42 17.5t-17 41.5v223l-207 312q-9 12 -9 29q0 21 16.5 38t41.5 17q31 0 48 -26l169 -263l167 263q18 26 49 26q24 0 40.5 -16.5t16.5 -38.5zM274 775q0 -25 -17 -42.5t-41 -17.5q-25 0 -42.5 17.5
t-17.5 42.5t17.5 42t42.5 17q24 0 41 -17t17 -42zM485 775q0 -25 -18 -42.5t-42 -17.5q-25 0 -42.5 17.5t-17.5 42.5t17.5 42t42.5 17q24 0 42 -17.5t18 -41.5z" />
    <glyph glyph-name="Zacute" unicode="&#x179;" horiz-adv-x="589" 
d="M551 54q0 -23 -15.5 -38.5t-36.5 -15.5h-396q-25 0 -44.5 19t-19.5 48q0 22 12 40l331 455h-292q-21 0 -36.5 15.5t-15.5 38.5q0 21 15.5 36t36.5 15h392q24 0 42.5 -19t18.5 -47q0 -23 -14 -42l-329 -454h299q21 0 36.5 -15t15.5 -36zM418 839q0 -14 -11 -23l-105 -92
q-10 -7 -18 -7q-11 0 -19.5 8t-8.5 20t7 19l97 99q10 10 23 10t24 -10t11 -24z" />
    <glyph glyph-name="zacute" unicode="&#x17a;" horiz-adv-x="476" 
d="M436 48q0 -20 -13.5 -34t-31.5 -14h-299q-21 0 -36.5 15.5t-15.5 39.5q0 17 12 34l230 300h-196q-19 0 -32.5 14t-13.5 34q0 19 13.5 32.5t32.5 13.5h295q19 0 34.5 -15t15.5 -37q0 -20 -11 -34l-233 -304h204q18 0 31.5 -13t13.5 -32zM370 672q0 -14 -11 -23l-105 -92
q-10 -7 -18 -7q-11 0 -19.5 8t-8.5 20t7 19l97 99q10 10 23 10t24 -10t11 -24z" />
    <glyph glyph-name="Zdotaccent" unicode="&#x17b;" horiz-adv-x="589" 
d="M551 54q0 -23 -15.5 -38.5t-36.5 -15.5h-396q-25 0 -44.5 19t-19.5 48q0 22 12 40l331 455h-292q-21 0 -36.5 15.5t-15.5 38.5q0 21 15.5 36t36.5 15h392q24 0 42.5 -19t18.5 -47q0 -23 -14 -42l-329 -454h299q21 0 36.5 -15t15.5 -36zM350 775q0 -25 -17.5 -42.5
t-41.5 -17.5q-25 0 -42.5 17.5t-17.5 42.5q0 24 17.5 41.5t42.5 17.5q24 0 41.5 -17.5t17.5 -41.5z" />
    <glyph glyph-name="zdotaccent" unicode="&#x17c;" horiz-adv-x="476" 
d="M436 48q0 -20 -13.5 -34t-31.5 -14h-299q-21 0 -36.5 15.5t-15.5 39.5q0 17 12 34l230 300h-196q-19 0 -32.5 14t-13.5 34q0 19 13.5 32.5t32.5 13.5h295q19 0 34.5 -15t15.5 -37q0 -20 -11 -34l-233 -304h204q18 0 31.5 -13t13.5 -32zM296 608q0 -25 -17.5 -42.5
t-41.5 -17.5q-25 0 -42.5 17.5t-17.5 42.5q0 24 17.5 41.5t42.5 17.5q24 0 41.5 -17.5t17.5 -41.5z" />
    <glyph glyph-name="Zcaron" unicode="&#x17d;" horiz-adv-x="589" 
d="M551 54q0 -23 -15.5 -38.5t-36.5 -15.5h-396q-25 0 -44.5 19t-19.5 48q0 22 12 40l331 455h-292q-21 0 -36.5 15.5t-15.5 38.5q0 21 15.5 36t36.5 15h392q24 0 42.5 -19t18.5 -47q0 -23 -14 -42l-329 -454h299q21 0 36.5 -15t15.5 -36zM417 844q0 -9 -4 -14l-51 -77
q-27 -37 -70 -37t-68 37l-49 77q-5 7 -5 14q0 11 8 19.5t21 8.5q15 0 22 -10l72 -91l73 91q9 10 21 10t21 -8t9 -20z" />
    <glyph glyph-name="zcaron" unicode="&#x17e;" horiz-adv-x="476" 
d="M436 48q0 -20 -13.5 -34t-31.5 -14h-299q-21 0 -36.5 15.5t-15.5 39.5q0 17 12 34l230 300h-196q-19 0 -32.5 14t-13.5 34q0 19 13.5 32.5t32.5 13.5h295q19 0 34.5 -15t15.5 -37q0 -20 -11 -34l-233 -304h204q18 0 31.5 -13t13.5 -32zM359 677q0 -9 -4 -14l-51 -77
q-27 -37 -70 -37t-68 37l-49 77q-5 7 -5 14q0 11 8 19.5t21 8.5q15 0 22 -10l72 -91l73 91q9 10 21 10t21 -8t9 -20z" />
    <glyph glyph-name="florin" unicode="&#x192;" horiz-adv-x="445" 
d="M452 616q0 -20 -12.5 -36t-35.5 -16q-5 0 -18 3.5t-20 3.5q-30 0 -53.5 -20.5t-31.5 -55.5l-34 -156h82q20 0 33.5 -14t13.5 -34q0 -19 -14 -33t-33 -14h-103l-81 -367q-4 -20 -20.5 -32.5t-37.5 -12.5q-25 0 -42.5 17.5t-17.5 41.5q0 2 2 12l75 341h-19q-19 0 -32.5 14
t-13.5 35q0 19 13.5 32.5t32.5 13.5h39l41 181q16 71 67.5 114t120.5 43q99 0 99 -61z" />
    <glyph glyph-name="uni0218" unicode="&#x218;" horiz-adv-x="595" 
d="M558 195q0 -90 -65 -148.5t-193 -58.5q-76 0 -145 23t-102 62q-12 15 -12 33q0 23 17 40t40 17q19 0 32 -10q79 -60 175 -60q65 0 98.5 27t33.5 63q0 28 -21.5 47t-55.5 30t-75.5 20.5t-83 23.5t-75.5 34t-55.5 56.5t-21.5 86.5q0 85 67 140.5t176 55.5q64 0 128.5 -19.5
t95.5 -53.5q12 -14 12 -32q0 -23 -18 -39t-40 -16q-18 0 -32 10q-68 45 -156 45q-51 0 -81 -22.5t-30 -59.5q0 -25 21.5 -42t55.5 -27t75 -20t82.5 -24.5t75.5 -35.5t55.5 -58t21.5 -88zM358 -138q0 -76 -62 -130q-8 -7 -20 -7q-10 0 -17 6l-1 1q-7 7 -7 15q0 6 5 13
q41 46 45 71q-2 -2 -13 -2q-21 0 -35 15t-14 37q0 23 16 40t39 17q27 0 45.5 -20.5t18.5 -55.5z" />
    <glyph glyph-name="uni0219" unicode="&#x219;" horiz-adv-x="472" 
d="M435 140q0 -67 -53 -109.5t-148 -42.5q-54 0 -108 16.5t-81 46.5q-10 12 -10 26q0 18 14 31.5t32 13.5q14 0 24 -7q64 -43 133 -43q46 0 70 17.5t24 46.5q0 25 -30 39.5t-73 23t-86 21t-73 44.5t-30 84q0 62 51.5 104.5t140.5 42.5q51 0 99 -15.5t72 -42.5q9 -11 9 -24
q0 -17 -13 -29t-30 -12q-11 0 -22 6q-50 34 -115 34q-40 0 -64 -17t-24 -42q0 -23 30 -36t73 -21.5t85.5 -21.5t72.5 -47t30 -87zM301 -138q0 -76 -62 -130q-8 -7 -20 -7q-9 0 -17 6l-1 1q-7 7 -7 15q0 6 5 13q41 46 45 71q-2 -2 -13 -2q-21 0 -35 15t-14 37q0 23 16 40
t39 17q27 0 45.5 -20.5t18.5 -55.5z" />
    <glyph glyph-name="uni021A" unicode="&#x21a;" horiz-adv-x="577" 
d="M556 614q0 -22 -15.5 -37t-36.5 -15h-155v-509q0 -24 -18 -41.5t-43 -17.5t-42 17.5t-17 41.5v509h-155q-22 0 -37 15.5t-15 38.5q0 21 15 36t37 15h430q21 0 36.5 -15.5t15.5 -37.5zM353 -138q0 -76 -62 -130q-8 -7 -20 -7q-9 0 -17 6l-1 1q-7 7 -7 15q0 6 5 13
q41 46 45 71q-2 -2 -13 -2q-21 0 -35 15t-14 37q0 23 16 40t39 17q27 0 45.5 -20.5t18.5 -55.5z" />
    <glyph glyph-name="uni021B" unicode="&#x21b;" horiz-adv-x="321" 
d="M311 40q0 -52 -97 -52q-61 0 -93 32t-32 93v276h-40q-19 0 -32.5 14t-13.5 34q0 19 13.5 32.5t32.5 13.5h40v85q0 22 16 37.5t39 15.5q22 0 37 -15.5t15 -37.5v-85h59q19 0 32 -14t13 -34q0 -19 -13 -32.5t-32 -13.5h-59v-249q0 -27 13 -42t33 -15q4 0 11.5 1.5t10.5 1.5
q21 0 34 -13t13 -33zM225 -138q0 -76 -62 -130q-8 -7 -20 -7q-9 0 -17 6l-1 1q-7 7 -7 15q0 6 5 13q41 46 45 71q-2 -2 -13 -2q-21 0 -35 15t-14 37q0 23 16 40t39 17q27 0 45.5 -20.5t18.5 -55.5z" />
    <glyph glyph-name="circumflex" unicode="&#x2c6;" horiz-adv-x="287" 
d="M266 578q0 -11 -8 -20t-21 -9t-22 11l-73 92l-72 -92q-8 -10 -21 -10q-12 0 -21 8t-9 19q0 8 5 16l49 76q24 37 70 37q42 0 68 -37l51 -76q4 -7 4 -15z" />
    <glyph glyph-name="caron" unicode="&#x2c7;" horiz-adv-x="287" 
d="M269 677q0 -9 -4 -14l-51 -77q-27 -37 -70 -37t-68 37l-49 77q-5 7 -5 14q0 11 8 19.5t21 8.5q15 0 22 -10l72 -91l73 91q9 10 21 10t21 -8t9 -20z" />
    <glyph glyph-name="breve" unicode="&#x2d8;" horiz-adv-x="351" 
d="M339 617q0 -11 -8 -19q-64 -64 -155 -64t-155 64q-8 7 -8 19t9 22t22 10q15 0 25 -10q45 -42 107 -42q63 0 106 43q10 9 25 9q13 0 22.5 -9.5t9.5 -22.5z" />
    <glyph glyph-name="dotaccent" unicode="&#x2d9;" horiz-adv-x="150" 
d="M135 608q0 -25 -17.5 -42.5t-41.5 -17.5q-25 0 -42.5 17.5t-17.5 42.5q0 24 17.5 41.5t42.5 17.5q24 0 41.5 -17.5t17.5 -41.5z" />
    <glyph glyph-name="ring" unicode="&#x2da;" horiz-adv-x="204" 
d="M204 638q0 -43 -29.5 -72.5t-72.5 -29.5q-42 0 -72 29.5t-30 72.5q0 42 30 72.5t72 30.5t72 -30.5t30 -72.5zM153 638q0 22 -14.5 37t-36.5 15q-20 0 -35.5 -15t-15.5 -37q0 -21 15.5 -36.5t35.5 -15.5q21 0 36 15.5t15 36.5z" />
    <glyph glyph-name="ogonek" unicode="&#x2db;" horiz-adv-x="188" 
d="M181 -133q0 -21 -28 -37t-57 -16q-42 0 -69 22t-27 67q0 67 68 112q9 6 20 6q24 0 24 -20q0 -10 -8 -15q-48 -32 -48 -79q0 -45 40 -45q17 0 43 22q6 6 17 6t18 -6.5t7 -16.5z" />
    <glyph glyph-name="tilde" unicode="&#x2dc;" horiz-adv-x="322" 
d="M320 664q-2 -42 -27 -76t-75 -34q-23 0 -41.5 12t-28 26.5t-22.5 26.5t-27 12q-31 0 -38 -47q-2 -12 -12 -20t-22 -8q-11 0 -18 8t-7 19q0 41 26.5 76t75.5 35q23 0 41.5 -12t28 -26.5t22.5 -26.5t26 -12q30 0 39 47q2 12 11.5 20t21.5 8t19 -8t7 -20z" />
    <glyph glyph-name="hungarumlaut" unicode="&#x2dd;" horiz-adv-x="325" 
d="M147 671q0 -11 -6 -19l-74 -92q-7 -10 -21 -10q-11 0 -19.5 8t-8.5 19q0 7 3 13l62 99q9 16 30 16q15 0 24.5 -10.5t9.5 -23.5zM294 671q0 -12 -7 -19l-73 -92q-9 -10 -22 -10q-11 0 -20 7.5t-9 18.5q0 6 4 14l63 99q9 16 29 16q16 0 25.5 -10t9.5 -24z" />
    <glyph glyph-name="uni03A9" unicode="&#x3a9;" horiz-adv-x="765" 
d="M724 359q0 -84 -39.5 -148.5t-102.5 -105.5h77q21 0 36.5 -15.5t15.5 -37.5t-15.5 -37t-36.5 -15h-158q-23 0 -39.5 16.5t-16.5 38.5q0 42 43 67q51 28 82 84t31 128q0 99 -56.5 168t-162.5 69q-105 0 -162 -69t-57 -168q0 -71 32 -128t82 -84q42 -23 42 -66
q0 -23 -16 -39.5t-39 -16.5h-157q-22 0 -37 15t-15 37t15 37.5t37 15.5h77q-143 92 -143 254q0 142 95.5 230.5t245.5 88.5q151 0 246.5 -88.5t95.5 -230.5z" />
    <glyph glyph-name="pi" unicode="&#x3c0;" horiz-adv-x="612" 
d="M609 435q0 -19 -13 -32.5t-32 -13.5h-41v-342q0 -22 -15.5 -37.5t-38.5 -15.5q-22 0 -37.5 15.5t-15.5 37.5v342h-220v-342q0 -22 -15.5 -37.5t-38.5 -15.5q-22 0 -37.5 15.5t-15.5 37.5v342h-40q-19 0 -32.5 14t-13.5 34q0 19 13.5 32.5t32.5 13.5h515q19 0 32 -14
t13 -34z" />
    <glyph glyph-name="endash" unicode="&#x2013;" horiz-adv-x="593" 
d="M569 243q0 -20 -13 -33.5t-32 -13.5h-455q-19 0 -32 13.5t-13 33.5q0 19 13 32t32 13h455q19 0 32 -13t13 -32z" />
    <glyph glyph-name="emdash" unicode="&#x2014;" horiz-adv-x="833" 
d="M809 243q0 -20 -13 -33.5t-32 -13.5h-695q-19 0 -32 13.5t-13 33.5q0 19 13 32t32 13h695q19 0 32 -13t13 -32z" />
    <glyph glyph-name="quoteleft" unicode="&#x2018;" horiz-adv-x="245" 
d="M190 483q0 -29 -20 -49.5t-48 -20.5q-33 0 -56.5 25t-23.5 67q0 92 77 159q9 9 22 9q14 0 23 -9.5t9 -20.5q0 -13 -9 -20q-43 -36 -51 -78q4 2 17 2q26 0 43 -18t17 -46z" />
    <glyph glyph-name="quoteright" unicode="&#x2019;" horiz-adv-x="245" 
d="M200 585q0 -90 -77 -159q-10 -8 -22 -8q-13 0 -22.5 9t-9.5 20q0 13 9 20q45 40 51 79q-6 -3 -17 -3q-26 0 -43 18t-17 46q0 29 20 49.5t48 20.5q33 0 56.5 -25t23.5 -67z" />
    <glyph glyph-name="quotesinglbase" unicode="&#x201a;" horiz-adv-x="246" 
d="M200 39q0 -90 -77 -159q-10 -8 -22 -8q-13 0 -22.5 9t-9.5 20q0 12 9 21q45 38 51 78q-6 -3 -17 -3q-26 0 -43 18t-17 46q0 29 20 49.5t48 20.5q33 0 56.5 -25t23.5 -67z" />
    <glyph glyph-name="quotedblleft" unicode="&#x201c;" horiz-adv-x="432" 
d="M379 483q0 -29 -20.5 -49.5t-48.5 -20.5q-32 0 -55.5 25t-23.5 67q0 93 77 159q9 9 22 9t22 -9.5t9 -20.5q0 -12 -8 -20q-44 -37 -52 -78q6 2 18 2q26 0 43 -18t17 -46zM192 483q0 -29 -20 -49.5t-48 -20.5q-33 0 -56.5 25t-23.5 67q0 44 21 86t57 73q8 9 21 9
q14 0 23 -9.5t9 -20.5q0 -13 -9 -20q-43 -36 -51 -78q6 2 17 2q26 0 43 -18t17 -46z" />
    <glyph glyph-name="quotedblright" unicode="&#x201d;" horiz-adv-x="432" 
d="M387 585q0 -90 -77 -159q-11 -8 -22 -8q-14 0 -22.5 8.5t-8.5 20.5t8 20q45 40 51 79q-6 -3 -17 -3q-26 0 -43 18t-17 46q0 29 20 49.5t48 20.5q33 0 56.5 -25t23.5 -67zM201 585q0 -91 -78 -159q-10 -8 -21 -8q-14 0 -23 9t-9 20q0 13 9 20q43 38 51 79q-9 -3 -17 -3
q-26 0 -43 18t-17 46q0 29 20 49.5t48 20.5q33 0 56.5 -25t23.5 -67z" />
    <glyph glyph-name="quotedblbase" unicode="&#x201e;" horiz-adv-x="432" 
d="M200 39q0 -90 -77 -159q-11 -8 -22 -8q-14 0 -23 9t-9 20q0 12 9 21q45 38 51 78q-6 -3 -17 -3q-26 0 -43 18t-17 46q0 29 20 49.5t48 20.5q33 0 56.5 -25t23.5 -67zM387 39q0 -90 -77 -159q-11 -8 -22 -8q-14 0 -22.5 9t-8.5 20t8 21q45 38 51 78q-6 -3 -17 -3
q-26 0 -43 18t-17 46q0 29 20 49.5t48 20.5q33 0 56.5 -25t23.5 -67z" />
    <glyph glyph-name="dagger" unicode="&#x2020;" horiz-adv-x="272" 
d="M256 554q0 -12 -7.5 -20t-18.5 -8l-69 3l4 -179q0 -12 -9 -20.5t-22 -8.5q-12 0 -20 8.5t-8 20.5l4 179l-69 -3q-11 0 -18.5 8t-7.5 20q0 10 7.5 17.5t18.5 7.5l69 -2l-3 77q-1 12 7.5 20.5t21.5 8.5q12 0 20.5 -8.5t7.5 -20.5l-3 -77l69 2q11 0 18.5 -7.5t7.5 -17.5z
" />
    <glyph glyph-name="daggerdbl" unicode="&#x2021;" horiz-adv-x="272" 
d="M256 304q0 -11 -7.5 -18.5t-18.5 -7.5l-69 2l3 -77q1 -12 -8 -20.5t-22 -8.5q-12 0 -20 8.5t-8 20.5l3 77l-68 -2q-11 0 -18.5 8t-7.5 20q0 11 8 18.5t18 6.5l68 -3v201l-68 -3q-11 0 -18.5 8t-7.5 20q0 10 7.5 17.5t18.5 7.5l68 -2l-3 77q0 12 8.5 20.5t21.5 8.5
q12 0 20.5 -8.5t7.5 -20.5l-3 -77l69 2q11 0 18.5 -7.5t7.5 -19.5q0 -11 -7.5 -18.5t-18.5 -7.5l-69 3v-201l69 3q11 1 18.5 -7t7.5 -20z" />
    <glyph glyph-name="bullet" unicode="&#x2022;" horiz-adv-x="358" 
d="M295 242q0 -47 -34 -80.5t-81 -33.5t-81 33.5t-34 80.5t34 81t81 34t81 -34t34 -81z" />
    <glyph glyph-name="ellipsis" unicode="&#x2026;" horiz-adv-x="738" 
d="M193 60q0 -28 -21 -49t-50 -21t-49.5 21t-20.5 49q0 29 20.5 50t49.5 21t50 -21t21 -50zM439 60q0 -28 -21 -49t-50 -21t-49.5 21t-20.5 49q0 29 20.5 50t49.5 21t50 -21t21 -50zM685 60q0 -28 -21 -49t-50 -21q-28 0 -49 21t-21 49q0 29 20.5 50t49.5 21t50 -21t21 -50z
" />
    <glyph glyph-name="perthousand" unicode="&#x2030;" horiz-adv-x="1107" 
d="M193 677q75 0 121 -47.5t46 -119.5q0 -71 -46 -117.5t-121 -46.5q-73 0 -119 46.5t-46 117.5q0 72 46 119.5t119 47.5zM553 319q73 0 120 -48t47 -119q0 -70 -47 -117t-120 -47t-119 46.5t-46 117.5q0 72 46 119.5t119 47.5zM553 49q39 0 64 28.5t25 74.5q0 48 -25 77
t-64 29t-63 -29t-24 -77q0 -46 24.5 -74.5t62.5 -28.5zM913 49q38 0 63 28.5t25 74.5q0 48 -24.5 77t-63.5 29t-63.5 -29t-24.5 -77q0 -46 24.5 -74.5t63.5 -28.5zM913 319q73 0 119.5 -48t46.5 -119t-46.5 -117.5t-119.5 -46.5q-74 0 -120 46.5t-46 117.5q0 72 46 119.5
t120 47.5zM193 407q39 0 63.5 28.5t24.5 74.5q0 47 -24.5 76t-63.5 29q-38 0 -62.5 -29t-24.5 -76q0 -46 24.5 -74.5t62.5 -28.5zM600 630l-399 -624q-7 -12 -23 -12q-12 0 -20.5 8t-8.5 20q0 8 4 15l398 624q10 12 24 12q11 0 20 -9t9 -20q0 -6 -4 -14z" />
    <glyph glyph-name="guilsinglleft" unicode="&#x2039;" horiz-adv-x="321" 
d="M249 95q0 -14 -10.5 -26t-26.5 -12t-27 12l-107 120q-20 23 -20 53q0 32 21 54l106 118q10 11 26 11q15 0 26.5 -10.5t11.5 -25.5q0 -16 -9 -25l-109 -121l109 -123q9 -10 9 -25z" />
    <glyph glyph-name="guilsinglright" unicode="&#x203a;" horiz-adv-x="321" 
d="M263 242q0 -30 -20 -53l-107 -120q-10 -12 -27 -12q-15 0 -26.5 11.5t-11.5 26.5q0 13 9 25l110 123l-110 121q-8 9 -8 24q0 14 10.5 25.5t26.5 11.5q17 0 27 -11l106 -118q21 -22 21 -54z" />
    <glyph glyph-name="fraction" unicode="&#x2044;" horiz-adv-x="151" 
d="M304 646q0 -8 -5 -15l-400 -626q-7 -12 -23 -12q-12 0 -20.5 8.5t-8.5 19.5q0 8 4 15l400 626q8 13 23 13q12 0 21 -9t9 -20z" />
    <glyph glyph-name="Euro" unicode="&#x20ac;" horiz-adv-x="704" 
d="M413 678q144 0 235 -104q13 -14 13 -35q0 -23 -16.5 -39t-40.5 -16q-26 0 -42 19q-63 69 -149 69q-70 0 -124.5 -36.5t-81.5 -97.5h241q13 0 22.5 -10t9.5 -24q0 -13 -9.5 -22.5t-22.5 -9.5h-260q-2 -13 -2 -39q0 -12 2 -36h260q13 0 22.5 -10t9.5 -24q0 -13 -9.5 -23
t-22.5 -10h-242q27 -62 82 -99t125 -37q89 0 149 68q17 19 44 19q23 0 39 -16t16 -38q0 -21 -13 -35q-91 -104 -235 -104q-122 0 -213.5 66t-122.5 176h-26q-13 0 -22.5 10t-9.5 25q0 13 9.5 22.5t22.5 9.5h13q-1 12 -1 36q0 26 1 39h-13q-13 0 -22.5 9.5t-9.5 24.5
q0 13 9.5 22.5t22.5 9.5h26q32 109 123.5 174.5t212.5 65.5z" />
    <glyph glyph-name="trademark" unicode="&#x2122;" horiz-adv-x="454" 
d="M419 454q0 -13 -14 -13t-14 13v175l-69 -168q-3 -7 -10 -7t-10 7l-69 168v-175q0 -13 -14 -13t-14 13v195q0 9 7 16t17 7q16 0 22 -14l61 -151l60 151q7 14 22 14q11 0 18 -6.5t7 -16.5v-195zM175 654q0 -5 -3.5 -9t-8.5 -4h-56v-187q0 -13 -14 -13t-14 13v187h-56
q-5 0 -8.5 4t-3.5 9t3.5 9t8.5 4h140q5 0 8.5 -4t3.5 -9z" />
    <glyph glyph-name="partialdiff" unicode="&#x2202;" horiz-adv-x="573" 
d="M536 253q0 -119 -67 -192t-182 -73q-113 0 -181 69t-68 171q0 100 61.5 169.5t154.5 69.5q102 0 154 -80q-53 128 -185 207q-23 15 -23 40q0 19 14.5 33t32.5 14t34 -11q111 -69 183 -179.5t72 -237.5zM424 228q0 61 -36.5 102.5t-100.5 41.5t-101 -41.5t-37 -102.5
q0 -62 36.5 -103.5t101.5 -41.5q64 0 100.5 41.5t36.5 103.5z" />
    <glyph glyph-name="Delta" unicode="&#x2206;" horiz-adv-x="674" 
d="M650 50q0 -20 -14 -35t-35 -15h-528q-21 0 -35.5 15t-14.5 35q0 9 4 18l212 542q11 28 37 45.5t57 17.5q33 2 61 -15.5t40 -47.5l213 -542q3 -10 3 -18zM504 105l-167 442l-167 -442h334z" />
    <glyph glyph-name="product" unicode="&#x220f;" horiz-adv-x="757" 
d="M735 614q0 -22 -15 -37t-36 -15h-61v-600q0 -24 -17.5 -41t-42.5 -17t-42.5 17.5t-17.5 40.5v600h-249v-600q0 -23 -18 -40.5t-43 -17.5t-42 17t-17 41v600h-60q-22 0 -37 15.5t-15 38.5q0 21 15 36t37 15h610q21 0 36 -15.5t15 -37.5z" />
    <glyph glyph-name="summation" unicode="&#x2211;" horiz-adv-x="582" 
d="M539 -39q0 -21 -15.5 -36t-36.5 -15h-376q-27 0 -47.5 20.5t-20.5 51.5q0 25 16 47l203 267l-202 252q-16 21 -16 47q0 30 20 51t48 21h375q21 0 36.5 -15.5t15.5 -37.5t-15.5 -37t-36.5 -15h-289l166 -209q20 -25 20 -57q0 -31 -20 -56l-171 -225h294q21 0 36.5 -15.5
t15.5 -38.5z" />
    <glyph glyph-name="radical" unicode="&#x221a;" horiz-adv-x="699" 
d="M657 636q0 -3 -2 -13l-232 -598q-14 -31 -48 -31t-46 32l-109 286l-115 -43q-4 -2 -11 -2q-13 0 -23.5 10t-10.5 25q0 24 23 32l115 42q11 4 24 4q23 0 42 -13t28 -35l85 -224l206 542q9 23 36 23q16 0 27 -11t11 -26z" />
    <glyph glyph-name="infinity" unicode="&#x221e;" horiz-adv-x="677" 
d="M648 335q0 -70 -41 -121t-121 -51q-48 0 -87 29t-61 74q-21 -45 -60 -74t-88 -29q-79 0 -120 51.5t-41 120.5q0 70 40.5 121t120.5 51q49 0 88 -29t60 -74q22 45 61 74t87 29q80 0 121 -51t41 -121zM307 335q-16 45 -43.5 74.5t-63.5 29.5q-44 0 -71 -28.5t-27 -75.5
q0 -46 27 -75t71 -29q36 0 63.5 29.5t43.5 74.5zM574 335q0 47 -26.5 75.5t-69.5 28.5q-36 0 -64 -29.5t-44 -74.5q16 -45 43.5 -74t64.5 -29q43 0 69.5 28t26.5 75z" />
    <glyph glyph-name="integral" unicode="&#x222b;" horiz-adv-x="363" 
d="M352 731q0 -16 -10 -26t-27 -10h-30q-27 0 -45.5 -21.5t-18.5 -55.5v-569q0 -66 -42.5 -107.5t-100.5 -41.5h-28q-18 0 -28.5 10.5t-10.5 26.5t10.5 26t28.5 10h28q27 0 45.5 22t18.5 55v568q0 66 43 108t100 42h30q17 0 27 -10.5t10 -26.5z" />
    <glyph glyph-name="approxequal" unicode="&#x2248;" horiz-adv-x="502" 
d="M479 254q0 -15 -10 -24.5t-23 -9.5q-5 0 -11 2q-35 12 -74 12q-46 0 -104.5 -27t-116.5 -27q-39 0 -78 11t-39 38q0 15 10 24.5t23 9.5q3 0 11 -2q33 -13 73 -13q46 0 105 27t116 27q41 0 79.5 -10.5t38.5 -37.5zM479 439q0 -14 -10 -24t-23 -10q-5 0 -11 2
q-31 12 -74 12q-46 0 -104.5 -27t-116.5 -27q-39 0 -78 11t-39 38q0 15 10 24.5t23 9.5q3 0 11 -2q35 -12 73 -12q46 0 105 27t116 27q41 0 79.5 -11t38.5 -38z" />
    <glyph glyph-name="notequal" unicode="&#x2260;" horiz-adv-x="502" 
d="M479 238q0 -14 -9.5 -23.5t-23.5 -9.5h-244l-66 -106q-10 -13 -24 -13q-11 0 -20 8.5t-9 20.5q0 7 4 14l48 76h-79q-14 0 -23.5 10t-9.5 25q0 14 9.5 23.5t23.5 9.5h122l78 121h-199q-14 0 -24 10.5t-10 25.5q0 14 10.5 24t23.5 10h243l66 104q10 13 23 13t21.5 -9
t8.5 -21q0 -8 -4 -13l-47 -74h77q14 0 24 -10.5t10 -25.5q0 -14 -10.5 -24t-23.5 -10h-121l-78 -121h200q14 0 23.5 -10t9.5 -25z" />
    <glyph glyph-name="lessequal" unicode="&#x2264;" horiz-adv-x="502" 
d="M478 161q0 -16 -11.5 -26.5t-25.5 -10.5q-7 0 -14 3l-373 174q-31 13 -31 51q0 33 31 48l373 174q7 3 14 3q14 0 25.5 -10.5t11.5 -26.5q0 -25 -21 -34l-347 -156l347 -156q21 -9 21 -33zM479 35q1 -15 -9 -25t-24 -10h-390q-14 0 -23.5 10t-9.5 25q0 13 9.5 23t23.5 10
h390q14 0 23.5 -10t9.5 -23z" />
    <glyph glyph-name="greaterequal" unicode="&#x2265;" horiz-adv-x="502" 
d="M479 352q0 -37 -31 -51l-374 -174q-6 -3 -14 -3q-14 0 -25.5 10.5t-11.5 26.5q0 23 21 33l348 156l-347 156q-22 9 -22 33q-1 17 10.5 27.5t26.5 10.5q8 0 15 -3l373 -174q31 -16 31 -48zM479 35q0 -15 -9.5 -25t-23.5 -10h-391q-14 0 -23.5 10t-9.5 25q0 13 10 23t23 10
h391q14 0 23.5 -10t9.5 -23z" />
    <glyph glyph-name="lozenge" unicode="&#x25ca;" horiz-adv-x="375" 
d="M344 334q0 -25 -11 -49l-131 -276q-4 -9 -15 -9q-10 0 -14 9l-130 275q-10 21 -12 50q0 25 12 49l130 275q4 9 16 9q9 0 13 -9l131 -275q11 -27 11 -49zM320 334l-133 292l-132 -292l133 -293z" />
    <glyph glyph-name="commaaccent" unicode="&#xf6c3;" horiz-adv-x="245" 
d="M185 -138q0 -76 -62 -130q-8 -7 -20 -7q-9 0 -17 6l-1 1q-7 7 -7 15q0 6 5 13q41 46 45 71q-2 -2 -13 -2q-21 0 -35 15t-14 37q0 23 16 40t39 17q27 0 45.5 -20.5t18.5 -55.5z" />
    <glyph glyph-name="uniF8FF" unicode="&#xf8ff;" horiz-adv-x="667" 
d="M625 154q0 -46 -32.5 -79t-78.5 -33t-79 33t-33 79v69h-137v-69q0 -46 -33 -79t-79 -33t-78.5 33t-32.5 79t32.5 78.5t78.5 32.5h69v137h-68q-46 0 -79 33t-33 79t33 78.5t79 32.5t78.5 -32.5t32.5 -78.5v-70h137v70q0 46 33 78.5t79 32.5t78.5 -32.5t32.5 -78.5
t-32.5 -79t-78.5 -33h-69v-137h69q46 0 78.5 -32.5t32.5 -78.5zM582 514q0 29 -20 49t-48 20q-29 0 -49 -20t-20 -49v-70h69q28 0 48 20.5t20 49.5zM402 265v137h-137v-137h137zM582 154q0 29 -19.5 49t-48.5 20h-69v-69q0 -29 20 -49.5t49 -20.5q28 0 48 20.5t20 49.5z
M222 444v70q0 29 -20 49t-48 20q-29 0 -49.5 -20t-20.5 -49t20.5 -49.5t49.5 -20.5h68zM222 154v69h-70q-28 0 -48 -20t-20 -49t20 -49.5t49 -20.5t49 20.5t20 49.5z" />
    </font>
</defs>
</svg>
